<?xml version="1.0" standalone="no"?>
<!DOCTYPE svg PUBLIC "-//W3C//DTD SVG 1.1//EN" "http://www.w3.org/Graphics/SVG/1.1/DTD/svg11.dtd" >
<svg xmlns="http://www.w3.org/2000/svg" xmlns:xlink="http://www.w3.org/1999/xlink" version="1.1">
<metadata>
Created by FontForge 20170731 at Sat Sep  3 03:34:05 2022
 By Aleksey,,,
Universidad La Salle A.C.
</metadata>
<defs>
<font id="IndivisaTextSans-Regular" horiz-adv-x="1177" >
  <font-face 
    font-family="Indivisa Text Sans"
    font-weight="400"
    font-stretch="normal"
    units-per-em="2048"
    panose-1="0 0 0 0 0 0 0 0 0 0"
    ascent="1638"
    descent="-410"
    x-height="1016"
    cap-height="1425"
    bbox="-113 -678 11129 2347"
    underline-thickness="100"
    underline-position="-571"
    unicode-range="U+0020-FB02"
  />
<missing-glyph horiz-adv-x="1392" 
d="M205 0v1528h983v-1528h-983zM365 1446l331 -596l332 596h-663zM287 1419v-1306l364 653zM743 766l363 -653v1306zM360 82h672l-336 602z" />
    <glyph glyph-name="f_f" unicode="ff" horiz-adv-x="1198" 
d="M367 0h-154v911l-154 7v67l154 21q-1 28 -3.5 92.5t-2.5 81.5q0 153 92 240t248 87q148 0 274 -65q86 106 262 106q139 0 236 -57l-37 -127q-97 63 -203 63q-95 0 -137.5 -59t-42.5 -172q0 -80 4 -190h273l14 -17l-6 -84l-277 6v-911h-153v911h-387v-911zM358 1174
q0 -66 4 -168h392q-6 108 -6 186q0 82 16 137q-98 66 -213 66q-193 0 -193 -221z" />
    <glyph glyph-name="f_f_i" unicode="ffi" horiz-adv-x="1650" 
d="M367 0h-154v911l-154 7v67l154 21q-1 33 -3.5 95.5t-2.5 78.5q0 153 98 240t258 87q151 0 264 -67q91 108 279 108q194 0 328 -106l-76 -107q-118 92 -254 92q-109 0 -157 -59.5t-48 -177.5q0 -74 4 -184h371l156 30l16 -16v-1020h-154v694q0 112 -6 211l-379 6v-911
h-153v911h-387v-911zM358 1174q0 -66 4 -168h392q-6 111 -6 186q0 71 16 133q-85 61 -199 61q-207 0 -207 -212z" />
    <glyph glyph-name="f_f_l" unicode="ffl" horiz-adv-x="1646" 
d="M367 0h-154v911l-154 7v67l154 21q-1 33 -3.5 95.5t-2.5 78.5q0 153 98 240t258 87q149 0 266 -69q96 110 304 110q87 0 167 -22l144 22l18 -16v-1532h-153v905l-402 6v-911h-153v911h-387v-911zM899 1196q0 -80 4 -190h400l6 -7v207q0 100 -6 185q-88 36 -181 36
q-223 0 -223 -231zM358 1174q0 -66 4 -168h392q-6 111 -6 188q0 72 18 131q-89 61 -201 61q-207 0 -207 -212z" />
    <glyph glyph-name="f_i" unicode="fi" horiz-adv-x="1110" 
d="M367 0h-154v911l-154 7v67l154 21q-1 31 -3.5 98.5t-2.5 87.5q0 168 93.5 262t264.5 94q197 0 328 -106l-76 -107q-118 92 -254 92q-107 0 -156 -60t-49 -177q0 -74 4 -184h373l154 30l18 -16v-1020h-153v694q0 112 -9 211l-378 6v-911z" />
    <glyph glyph-name="f_l" unicode="fl" horiz-adv-x="1105" 
d="M367 0h-154v911l-154 7v67l154 21q-1 29 -3.5 97.5t-2.5 90.5q0 168 99 261t286 93q88 0 168 -22l143 22l19 -16v-1532h-154v905l-401 6v-911zM358 1196q0 -80 4 -190h400l6 -7v207q0 100 -6 185q-85 36 -178 36q-226 0 -226 -231z" />
    <glyph glyph-name="symbol1" unicode="&#x2f;symbol&#x31;&#x2f;" horiz-adv-x="11333" 
d="M3820 844q-52 0 -83.5 29t-31.5 77q0 71 67 131t144 60q50 0 80 -28t30 -77q0 -74 -63.5 -133t-142.5 -59zM2630 844q-54 0 -85.5 29t-31.5 77q0 71 68 131t145 60q50 0 79 -28t29 -77q0 -73 -63 -132.5t-141 -59.5zM1964 0q0 80 23 221q-33 -103 -105.5 -169t-161.5 -66
q-84 0 -129 60.5t-45 168.5q0 74 20 150t62 146t100 124.5t140 87.5t176 33q35 0 51 -2l33 149l12 209l279 14q0 -92 -29.5 -252t-65 -306.5t-65 -309t-29.5 -258.5h-266zM205 0l160 745q36 182 43 279l262 14l22 -30l-213 -1008h-274zM7174 1008l-117 -1008h-268l41 358
q7 72 68 441h-6q-64 -206 -166 -441l-156 -358h-305l-4 358q-3 249 18 441h-4q-66 -269 -121 -441l-108 -358h-224l316 1024l377 12l2 -280q4 -279 -31 -531h4q78 253 193 531l114 268l346 14zM10887 614q-16 -79 -31.5 -151t-22.5 -104.5t-13 -60.5t-7.5 -38.5t-1.5 -19.5
q0 -34 19.5 -52t54.5 -18q52 0 121 37l-18 -162q-105 -59 -234 -59q-104 0 -159.5 51.5t-55.5 152.5q0 13 1 24.5t4 31.5t6 36t10.5 53.5t14 68.5t20.5 95.5t26 121.5l-96 2l18 90l111 28l108 195l166 12l27 -30l-41 -177h203l12 -28l-35 -105zM688 0q0 157 84 532l12 209
l281 15q0 -64 -14 -183h4q55 94 128 138.5t146 44.5q69 0 108.5 -40t39.5 -106q0 -55 -54 -301q-22 -102 -29.5 -165t-7.5 -144h-268q0 115 39 307q5 28 12 63t10.5 52t6 34.5t2.5 28.5q0 50 -35 50q-46 0 -91.5 -79t-74.5 -204t-31 -252h-268zM2396 0q0 150 55 395l29 137
l12 209l281 15q0 -94 -55.5 -362.5t-55.5 -393.5h-266zM2865 741l287 15q27 -273 -10 -592h4q70 139 121.5 298t64.5 283q50 11 102 11q66 0 100 -17t34 -69q0 -95 -104.5 -302.5t-237.5 -367.5h-306q-9 470 -55 741zM3588 0q0 144 53 395l31 137l12 209l281 15
q0 -94 -55.5 -362.5t-55.5 -393.5h-266zM9658 0q0 157 84 532l13 209l280 15q0 -24 -14 -183h4q55 94 127.5 138.5t146.5 44.5q69 0 108.5 -40t39.5 -106q0 -60 -53 -301q-23 -106 -31 -168t-8 -141h-267q0 115 39 307q5 28 12 63t10.5 52t6 34.5t2.5 28.5q0 50 -35 50
q-47 0 -92 -79t-74 -203.5t-32 -252.5h-267zM4598 524q-50 29 -105 45.5t-94 16.5q-36 0 -61 -15t-25 -39t27 -43.5t65.5 -37.5t77 -40.5t65.5 -64t27 -96.5q0 -118 -108.5 -191t-261.5 -73q-69 0 -137.5 15.5t-104.5 41.5l55 190q53 -35 118 -56t110 -21q38 0 59.5 15
t21.5 38t-27 43t-65.5 38.5t-77 42t-65.5 63.5t-27 93q0 115 111.5 191t263.5 76q119 0 213 -37zM5171 756q72 0 155.5 -16.5t143.5 -49.5l-59 -262q-64 -300 -64 -428h-266q0 69 25 229q-32 -106 -106 -174.5t-165 -68.5q-84 0 -128 60.5t-44 170.5q0 74 20 149t62 145.5
t100.5 124.5t143 87t182.5 33zM9529 104q-65 -57 -150.5 -87.5t-174.5 -30.5q-133 0 -212 71t-79 209q0 125 61.5 237t174 182.5t247.5 70.5q111 0 177.5 -48t66.5 -133q0 -118 -123 -197.5t-330 -88.5v-2q0 -131 129 -131q89 0 185 57zM8061 0q0 84 19 201.5t67 330.5
l10 209l281 15q0 -56 -15 -183h5q56 94 129 138.5t145 44.5q70 0 108.5 -40t38.5 -106q0 -60 -53 -301q-22 -102 -29.5 -165t-7.5 -144h-268q0 115 39 307q31 149 31 178q0 50 -35 50q-46 0 -91.5 -79t-74.5 -204t-31 -252h-268zM7717 756q72 0 154.5 -16.5t142.5 -49.5
l-58 -262q-63 -296 -63 -428h-266q0 91 24 229q-32 -106 -105.5 -174.5t-164.5 -68.5q-84 0 -129 60.5t-45 170.5q0 93 33 186.5t94.5 173t161.5 129.5t221 50zM9196 362q95 21 148.5 70t53.5 121q0 63 -45 63q-57 0 -99 -78.5t-58 -175.5zM7530 207q48 0 97.5 88.5
t77.5 206.5q2 17 9.5 50t8.5 40q-32 16 -55 16q-46 0 -91 -55.5t-70.5 -129.5t-25.5 -134q0 -38 13 -60t36 -22zM1870 207q45 0 91.5 81t76.5 193q2 16 16 82l6 29q-29 16 -55 16q-45 0 -89 -55.5t-69.5 -129.5t-25.5 -134q0 -38 13 -60t36 -22zM4987 207q47 0 96.5 89
t75.5 206q9 44 18 90q-29 16 -55 16q-46 0 -90 -55.5t-69 -129.5t-25 -134q0 -82 49 -82z" />
    <glyph glyph-name="symbol2" unicode="&#x2f;symbol&#x32;&#x2f;" horiz-adv-x="1908" 
d="M1012 1167l106 -184l-280 -491h-211l280 491l-106 184h211zM731 1167l107 -184l-283 -491h-211l283 491l-107 184h211zM1540 246h-211l-280 491l104 185l281 -492h211zM1399 0h-211l-281 492l105 184l282 -492h211zM205 246l104 184h563l105 -184h-561l-107 -185zM344 0
l107 184h561l106 -184h-563l-104 -184zM1616 180q37 0 62.5 -26.5t25.5 -63.5t-25.5 -63.5t-62.5 -26.5t-62.5 26.5t-25.5 63.5t25.5 63.5t62.5 26.5zM1698 90q0 34 -24 58t-58 24t-58 -24t-24 -58t24 -58t58 -24t58 24t24 58zM1579 141h37q14 0 22 -4q11 -8 11 -22
q0 -10 -7 -17q-2 -3 -12 -8q14 -3 17 -18q0 -18 6 -33h-17q-1 3 -2 13t-2 14q-2 12 -5.5 16t-16.5 4h-17v-47h-14v102zM1593 96h21q10 0 14 2q6 6 6 15q0 16 -20 16h-21v-33z" />
    <glyph glyph-name="symbol3" unicode="&#x2f;symbol&#x33;&#x2f;" horiz-adv-x="1959" 
d="M1034 1307l140 -553h552l-415 -277l278 -553l-555 277l-553 -553l277 829l-553 416l692 -139zM1667 178q37 0 62.5 -26t25.5 -64q0 -37 -25.5 -62.5t-62.5 -25.5t-62.5 25.5t-25.5 62.5q0 38 25.5 64t62.5 26zM1749 88q0 35 -24 59.5t-58 24.5t-58 -24.5t-24 -59.5
q0 -34 24 -58t58 -24t58 24t24 58zM1630 139h37q17 0 23 -4q12 -6 12 -20q0 -11 -8 -19q-6 -6 -13 -6q15 -6 17 -20q5 -30 6 -33h-14q-2 4 -3 9t-2 11t-2 9q0 11 -4 14.5t-16 3.5h-18v-47h-15v102zM1645 96h20q10 0 14 2q7 7 7 13q0 18 -21 18h-20v-33z" />
    <glyph glyph-name="symbol4" unicode="&#x2f;symbol&#x34;&#x2f;" horiz-adv-x="5339" 
d="M3449 831q0 128 -23 263l258 28l31 -30v-1092h-266v831zM3869 831q0 122 -21 263l258 28l29 -30v-1092h-266v831zM874 207v-207h-655v741q0 165 -14 277l258 14l29 -28v-811zM1894 43l15 223q59 -35 142.5 -54t152.5 -19q102 0 102 73q0 26 -22.5 50.5t-59 46.5t-80.5 46
t-88 54.5t-80.5 66.5t-59 88t-22.5 113q0 141 113 221t283 80q167 0 260 -37l-29 -227q-115 59 -227 59q-56 0 -87.5 -22.5t-31.5 -59.5q0 -31 22.5 -58t59 -50t80.5 -47t88 -54t80.5 -65t59 -86t22.5 -111q0 -134 -109.5 -211t-286.5 -77q-85 0 -171.5 16.5t-125.5 40.5z
M1628 0l-217 -14q-24 37 -43 100h-8q-31 -45 -88 -72.5t-125 -27.5q-89 0 -144 46.5t-55 135.5q0 119 104.5 178t286.5 64v41q0 110 -118 110q-114 0 -222 -59l-16 198q148 54 307 54q156 0 236 -70.5t80 -206.5q0 -52 -4.5 -142t-4.5 -142q0 -102 31 -193zM3330 0l-219 -14
q-27 46 -43 100h-6q-31 -45 -88.5 -72.5t-126.5 -27.5q-87 0 -142 46.5t-55 135.5q0 119 104 178t287 64v41q0 110 -119 110q-111 0 -223 -59l-14 198q148 54 307 54q156 0 234.5 -70.5t78.5 -206.5q0 -52 -3 -142t-3 -142q0 -102 31 -193zM4925 436q0 -49 -2 -74l-22 -22
h-391q28 -170 200 -170q91 0 172 43l15 -166q-92 -61 -260 -61q-186 0 -296 97t-110 275q0 175 107 285.5t270 110.5q147 0 232 -88.5t85 -229.5zM4504 424l159 8q4 28 4 53q0 51 -16.5 86t-52.5 35q-45 0 -68.5 -50.5t-25.5 -131.5zM1339 152v180q-59 -6 -96 -36.5
t-37 -80.5q0 -37 21 -59.5t55 -22.5q32 0 57 19zM3041 152v180q-59 -6 -96 -36.5t-37 -80.5q0 -37 20.5 -59.5t55.5 -22.5q32 0 57 19zM5046 174q37 0 62.5 -26.5t25.5 -63.5t-25.5 -63.5t-62.5 -26.5t-63.5 26.5t-26.5 63.5t26.5 63.5t63.5 26.5zM5128 84q0 34 -24 58
t-58 24t-58 -24t-24 -58t24 -58t58 -24t58 24t24 58zM5009 135h37q15 0 23 -6q10 -5 10 -20q0 -10 -6 -19q-6 -6 -12 -6q13 -3 16 -21q0 -15 6 -30h-16q-1 3 -2 12.5t-2 13.5q-2 11 -6 15t-17 4h-16v-45h-15v102zM5024 90h20q11 0 15 2q6 6 6 14q0 17 -21 17h-20v-33z" />
    <glyph glyph-name="symbol5" unicode="&#x2f;symbol&#x35;&#x2f;" horiz-adv-x="1443" 
d="M475 -12l-270 278l254 479l264 -278zM971 -12l-248 479l262 278l254 -479z" />
    <glyph glyph-name=".notdef" horiz-adv-x="1392" 
d="M205 0v1528h983v-1528h-983zM365 1446l331 -596l332 596h-663zM287 1419v-1306l364 653zM743 766l363 -653v1306zM360 82h672l-336 602z" />
    <glyph glyph-name=".null" horiz-adv-x="0" 
 />
    <glyph glyph-name="nonmarkingreturn" horiz-adv-x="682" 
 />
    <glyph glyph-name="space" unicode=" " horiz-adv-x="528" 
 />
    <glyph glyph-name="exclam" unicode="!" horiz-adv-x="573" 
d="M334 412h-103q-29 848 -34 993l151 20l19 -16q-10 -507 -33 -997zM385 102q0 -50 -29.5 -86t-79.5 -36q-44 0 -71 31t-27 77q0 48 33.5 85.5t79.5 37.5q42 0 68 -30.5t26 -78.5z" />
    <glyph glyph-name="quotedbl" unicode="&#x22;" horiz-adv-x="569" 
d="M213 1548l14 -22l-47 -498h-61l-41 520h135zM465 1548l12 -22l-47 -498h-59l-43 520h137z" />
    <glyph glyph-name="numbersign" unicode="#" horiz-adv-x="1421" 
d="M401 -20l-86 10l-16 16l74 297h-275l-16 16l14 84h301l76 299h-289l-16 17l14 86h316l77 313l87 -10l16 -16l-72 -287h344l78 313l86 -10l16 -16l-71 -287h264l16 -17l-12 -86h-293l-76 -299h289l17 -16l-13 -84h-317l-80 -323l-84 10l-16 16l71 297h-344zM506 403h346
l74 299h-346z" />
    <glyph glyph-name="dollar" unicode="$" horiz-adv-x="980" 
d="M455 -287l-17 17v250q-190 0 -317 73l14 144q69 -43 156.5 -64.5t157.5 -21.5q118 0 183.5 62t65.5 165q0 28 -6 54t-12.5 46t-23.5 42.5t-27.5 36.5t-36.5 34.5t-37.5 30t-44 29.5t-43.5 26t-47 27q-39 23 -61.5 36.5t-57.5 38t-55.5 45t-45.5 51t-38.5 61t-23 71.5
t-9.5 86q0 150 91 247t243 119v267l65 6l17 -17v-250h6q77 0 155 -17t130 -46l-21 -145q-118 79 -268 79q-119 0 -186.5 -61.5t-67.5 -163.5q0 -55 19 -99.5t64 -84t76 -60t97 -58.5l10.5 -6t9 -5t9.5 -6q48 -28 82 -51t75 -60.5t66.5 -76.5t43 -94.5t17.5 -119.5
q0 -153 -92.5 -249t-249.5 -117v-265z" />
    <glyph glyph-name="percent" unicode="%" horiz-adv-x="1984" 
d="M856 1020q0 -100 -30 -181t-81.5 -132t-118 -78t-141.5 -27q-156 0 -254 108.5t-98 295.5q0 198 106.5 309.5t264.5 111.5t255 -109.5t97 -297.5zM1509 1425l-866 -1445h-94l862 1445h98zM268 1018q0 -150 58 -239t168 -89q104 0 166.5 85t62.5 237q0 151 -58 240
t-165 89q-106 0 -169 -83t-63 -240zM1851 258q0 -100 -30 -181t-81.5 -132t-117.5 -78t-141 -27q-157 0 -255 108.5t-98 295.5q0 198 106.5 310t264.5 112q157 0 254.5 -110t97.5 -298zM1262 256q0 -150 58.5 -239t166.5 -89q105 0 167 84.5t62 237.5q0 152 -57.5 241
t-165.5 89q-105 0 -168 -83.5t-63 -240.5z" />
    <glyph glyph-name="ampersand" unicode="&#x26;" horiz-adv-x="1538" 
d="M684 1300q-94 0 -159.5 -54.5t-65.5 -145.5q0 -48 19.5 -101t58.5 -110t66.5 -91.5t74.5 -88.5l301 -359q13 -18 53 -63q101 141 101 331q0 79 -13 146l154 24l26 -28q6 -166 -45 -307t-147 -246q116 -107 199 -107q58 0 116 37l21 -104q-27 -21 -74 -37t-102 -16
q-138 0 -273 126q-180 -126 -393 -126q-196 0 -314 106t-120 270q2 122 74 227.5t198 168.5q-143 179 -143 338q0 145 108 240t283 95q131 0 229.5 -61.5t145.5 -167.5l-88 -121q-104 225 -291 225zM330 387q0 -126 87 -212t238 -87q151 0 271 90q-43 46 -105 121l-295 348
q-20 25 -30 35q-82 -53 -124 -133t-42 -162z" />
    <glyph glyph-name="quotesingle" unicode="'" horiz-adv-x="317" 
d="M221 1548l12 -22l-47 -498h-59l-43 520h137z" />
    <glyph glyph-name="parenleft" unicode="(" horiz-adv-x="774" 
d="M643 -401q-205 160 -318.5 412.5t-113.5 563.5q0 310 113.5 562t318.5 411l59 -73q-327 -354 -327 -900q0 -547 327 -901z" />
    <glyph glyph-name="parenright" unicode=")" horiz-adv-x="774" 
d="M565 575q0 -310 -114 -562.5t-318 -413.5l-61 75q327 354 327 901q0 546 -327 900l61 73q204 -159 318 -411.5t114 -561.5z" />
    <glyph glyph-name="asterisk" unicode="*" horiz-adv-x="997" 
d="M455 750l-13 18l31 311l-268 -190l-51 88l8 18l291 129l-306 138l50 88l22 2l254 -183l-31 330h103l10 -18l-33 -318l273 199l51 -88l-10 -21l-287 -129l303 -137l-51 -88l-23 -2l-256 186l33 -333h-100z" />
    <glyph glyph-name="plus" unicode="+" 
d="M1044 659h-395v-403h-106l-2 403h-418v97q98 4 418 8l-2 393h110v-393q154 2 395 2l11 -10z" />
    <glyph glyph-name="comma" unicode="," horiz-adv-x="473" 
d="M94 -348q99 190 119 328q-43 4 -70.5 36t-27.5 76q0 53 36.5 91t88.5 38q51 0 80.5 -35t29.5 -100q0 -99 -62.5 -236t-137.5 -237z" />
    <glyph glyph-name="hyphen" unicode="-" horiz-adv-x="743" 
d="M61 557v80h621v-80h-621z" />
    <glyph glyph-name="period" unicode="." horiz-adv-x="479" 
d="M358 104q0 -53 -36 -88.5t-84 -35.5t-81.5 33t-33.5 83q0 52 36 88.5t87 36.5q48 0 80 -32.5t32 -84.5z" />
    <glyph glyph-name="slash" unicode="/" horiz-adv-x="722" 
d="M600 1538l16 -16l-383 -1530l-88 16l-16 17l383 1529z" />
    <glyph glyph-name="zero" unicode="0" horiz-adv-x="1347" 
d="M1202 711q0 -176 -43.5 -317.5t-118 -230.5t-171 -136t-205.5 -47q-231 0 -375 190t-144 522q0 175 43 316t117.5 231t172 138t208.5 48q232 0 374 -192t142 -522zM307 707q0 -185 40 -321.5t123.5 -215t201.5 -78.5q169 0 269.5 159.5t100.5 448.5q0 185 -40 321.5
t-123 215t-201 78.5q-168 0 -269.5 -157t-101.5 -451z" />
    <glyph glyph-name="one" unicode="1" horiz-adv-x="686" 
d="M287 1247h-2l-238 -55l-24 92l397 141l18 -18v-1407h-153v950q0 213 2 297z" />
    <glyph glyph-name="two" unicode="2" horiz-adv-x="1183" 
d="M158 0l-21 131q149 129 262.5 240t219 234t162.5 236.5t57 207.5q0 113 -80 184.5t-219 71.5q-167 0 -385 -119l-17 127q85 46 203.5 79t230.5 33q191 0 308.5 -97.5t117.5 -252.5q0 -359 -706 -944h409q172 0 328 21l-20 -152h-850z" />
    <glyph glyph-name="three" unicode="3" horiz-adv-x="1044" 
d="M123 1315q75 45 185 77.5t214 32.5q159 0 261 -79.5t102 -212.5q0 -124 -94 -229t-271 -165q198 -14 314 -103t116 -251q0 -180 -142.5 -292.5t-377.5 -112.5q-180 0 -336 49l17 116q67 -22 156 -35.5t159 -13.5q161 0 261.5 77t100.5 206q0 70 -32 122t-88 81.5
t-123.5 43t-147.5 13.5q-74 0 -143 -14v116q228 48 349.5 146t121.5 219q0 91 -62.5 145t-177.5 54q-157 0 -352 -109z" />
    <glyph glyph-name="four" unicode="4" horiz-adv-x="1216" 
d="M68 496l624 905l162 22l18 -18v-899q114 0 269 18l-21 -143h-248v-381h-147v381h-635zM203 504v-4q152 4 471 4h51v428q0 236 6 334h-4z" />
    <glyph glyph-name="five" unicode="5" horiz-adv-x="1107" 
d="M150 29l14 118q64 -22 149 -35.5t152 -13.5q160 0 260 87.5t100 236.5q0 148 -93.5 223.5t-237.5 75.5q-64 0 -143.5 -12.5t-123.5 -32.5l-28 24v705h422q178 0 327 20l-10 -149h-606v-463q103 27 213 27q89 0 167.5 -25t140.5 -73.5t98 -128.5t36 -181
q0 -205 -144 -328.5t-378 -123.5q-166 0 -315 49z" />
    <glyph glyph-name="six" unicode="6" horiz-adv-x="1212" 
d="M631 -20q-218 0 -342.5 164.5t-124.5 463.5q0 186 49.5 340t136.5 258t209 161.5t266 57.5q121 0 172 -26l-16 -123q-60 29 -152 29q-99 0 -185.5 -38.5t-156 -114.5t-112.5 -199.5t-49 -282.5h4q65 72 162 109.5t196 37.5q178 0 286.5 -107.5t108.5 -289.5
q0 -202 -130 -321t-322 -119zM651 707q-99 0 -192.5 -47t-128.5 -123q20 -445 303 -445q128 0 209.5 85t81.5 229q0 134 -72 217.5t-201 83.5z" />
    <glyph glyph-name="seven" unicode="7" horiz-adv-x="1083" 
d="M98 1249l21 156h846l18 -16v-95q-231 -271 -390.5 -615t-180.5 -679h-160q10 166 68 353t143 355t178.5 311.5t187.5 252.5v4h-378q-189 0 -353 -27z" />
    <glyph glyph-name="eight" unicode="8" horiz-adv-x="1185" 
d="M588 -20q-197 0 -327 95t-130 244q0 66 28 127.5t76 110t106.5 87t125.5 65.5v4q-291 151 -291 368q0 147 124 245.5t302 98.5q177 0 293.5 -96.5t116.5 -236.5q0 -114 -81.5 -212.5t-215.5 -158.5v-2q340 -151 340 -381q0 -152 -132 -255t-335 -103zM600 1319
q-112 0 -194 -65t-82 -162q0 -95 78.5 -176t209.5 -138q111 55 180.5 138.5t69.5 175.5q0 99 -75.5 163t-186.5 64zM569 645q-121 -52 -203.5 -137.5t-82.5 -185.5q0 -103 87.5 -169.5t219.5 -66.5q134 0 222.5 69.5t90.5 174.5q3 100 -82 172.5t-252 142.5z" />
    <glyph glyph-name="nine" unicode="9" horiz-adv-x="1212" 
d="M541 547q-187 0 -299.5 111t-112.5 298q0 139 62 247.5t164.5 165t226.5 56.5q207 0 337 -163.5t130 -452.5q0 -232 -84.5 -421.5t-237 -298.5t-342.5 -109q-93 0 -152 16l-4 121q55 -15 140 -15q216 0 356.5 162t163.5 441h-4q-52 -77 -145 -117.5t-199 -40.5zM573 1309
q-124 0 -204 -95.5t-80 -246.5q0 -139 76 -224.5t213 -85.5q62 0 118.5 17t108 58t80.5 102q-4 220 -88.5 347.5t-223.5 127.5z" />
    <glyph glyph-name="colon" unicode=":" horiz-adv-x="479" 
d="M358 770q0 -53 -36 -89t-84 -36t-81.5 33.5t-33.5 83.5q0 51 36 88t87 37q48 0 80 -33t32 -84zM358 104q0 -53 -36 -88.5t-84 -35.5t-81.5 33t-33.5 83q0 52 36 88.5t87 36.5q48 0 80 -32.5t32 -84.5z" />
    <glyph glyph-name="semicolon" unicode=";" horiz-adv-x="493" 
d="M373 770q0 -53 -35.5 -89t-85.5 -36q-48 0 -81.5 33.5t-33.5 83.5q0 51 36 88t87 37q49 0 81 -33t32 -84zM94 -348q99 190 119 328q-43 4 -70.5 36t-27.5 76q0 53 36.5 91t88.5 38q51 0 80.5 -35t29.5 -100q0 -99 -62.5 -236t-137.5 -237z" />
    <glyph glyph-name="less" unicode="&#x3c;" 
d="M1004 248l-873 432v65l8 15q140 72 425.5 204t436.5 195v-108l-712 -334l715 -359v-110z" />
    <glyph glyph-name="equal" unicode="=" 
d="M1044 854h-921v96q383 11 921 11l11 -13zM1044 469h-921v96q348 10 921 10l11 -12z" />
    <glyph glyph-name="greater" unicode="&#x3e;" 
d="M174 248v110l715 359l-713 334v108q152 -63 437.5 -195t424.5 -204l9 -15v-65z" />
    <glyph glyph-name="question" unicode="?" horiz-adv-x="884" 
d="M422 436l-96 -2q-19 55 -19 96t19.5 79.5t51 70t70 63.5t76.5 66.5t69.5 72t51 86.5t19.5 103q0 104 -65.5 169t-174.5 65q-85 0 -173 -44t-147 -131l-71 82q68 99 178.5 156t239.5 57q170 0 271 -90t101 -241q0 -91 -40.5 -170.5t-97.5 -134t-114.5 -100t-98 -89.5
t-40.5 -82t6 -65zM492 102q0 -50 -29.5 -86t-79.5 -36q-44 0 -71 31t-27 77q0 48 33 85.5t79 37.5q42 0 68.5 -30.5t26.5 -78.5z" />
    <glyph glyph-name="at" unicode="@" horiz-adv-x="2330" 
d="M1645 -332q-119 -83 -280 -137.5t-343 -54.5q-257 0 -460 112t-317 315t-114 462q0 163 46.5 318t128 284t195.5 238t247 184t284.5 117t304.5 42q190 0 352 -64t273.5 -174t174.5 -260t63 -319q0 -203 -85 -376.5t-229.5 -274t-312.5 -100.5q-82 0 -139 26t-85 69.5
t-37 104.5t-1.5 125.5t28.5 138.5h-8q-36 -83 -80 -158.5t-100.5 -147.5t-123.5 -115t-134 -43q-89 0 -144 77.5t-55 225.5q0 108 30 217t87.5 205t135 170t180 117.5t214.5 43.5q146 0 263 -45l-107 -440q-44 -188 -43 -279q3 -196 168 -196q81 0 166 47.5t156 130t116 207
t45 264.5q0 159 -58.5 297t-160 236t-244 154t-305.5 56q-130 0 -264 -36t-257 -102t-231 -164t-188 -215.5t-126 -264.5t-46 -303q0 -178 59 -330.5t165 -262t260 -172t338 -62.5q118 0 229.5 27t179 57.5t158.5 80.5zM965 113q61 0 134 76t132.5 186t106 224t65.5 198
l24 106q-74 27 -137 27q-83 0 -164.5 -57t-140 -145.5t-95 -200t-36.5 -216.5q0 -94 28.5 -146t82.5 -52z" />
    <glyph glyph-name="A" unicode="A" horiz-adv-x="1253" 
d="M201 0h-152l420 1206q52 148 68 211l155 8l23 -20l489 -1405h-162l-143 408h-555zM492 827l-105 -297h469l-102 297q-104 314 -129 428h-4q-24 -104 -129 -428z" />
    <glyph glyph-name="B" unicode="B" horiz-adv-x="1208" 
d="M563 0h-352v1087q0 179 -16 318h376q211 0 336 -98.5t125 -262.5q0 -115 -63 -195t-172 -118q145 -35 221 -125t76 -221q0 -178 -145.5 -281.5t-385.5 -103.5zM551 1286h-182v-508h176q158 0 240.5 65t82.5 183q0 120 -81 190t-236 70zM557 664h-188v-543h194
q177 0 270 70t93 200q0 128 -90 200.5t-279 72.5z" />
    <glyph glyph-name="C" unicode="C" horiz-adv-x="1212" 
d="M1094 223l18 -133q-71 -54 -174 -82t-211 -28q-267 0 -427.5 185.5t-160.5 516.5q0 340 169.5 541.5t436.5 201.5q98 0 193.5 -23t161.5 -65l-31 -145q-136 98 -317 98q-197 0 -322 -157.5t-125 -438.5q0 -170 51 -300t153 -204.5t243 -74.5q188 0 342 108z" />
    <glyph glyph-name="D" unicode="D" horiz-adv-x="1394" 
d="M1255 709q0 -220 -89.5 -382t-247 -244.5t-365.5 -82.5h-342v1087q0 179 -16 318h385q192 0 344.5 -82t241.5 -241.5t89 -372.5zM565 1284h-196v-1161h190q259 0 395 151.5t136 425.5q0 268 -141.5 426t-383.5 158z" />
    <glyph glyph-name="E" unicode="E" horiz-adv-x="1067" 
d="M985 131v-131h-774v1087q0 179 -16 318h755l17 -16l-2 -115l-596 12v-532l505 6l-2 -125l-503 6v-520z" />
    <glyph glyph-name="F" unicode="F" horiz-adv-x="1015" 
d="M369 0h-158v1087q0 179 -16 318h745l16 -16l-2 -115l-585 12v-557l495 6l-2 -125l-493 6v-616z" />
    <glyph glyph-name="G" unicode="G" horiz-adv-x="1327" 
d="M1153 612l16 -16l-4 -518q-82 -46 -200.5 -72t-225.5 -26q-279 0 -439.5 184t-160.5 512q0 346 175.5 547.5t471.5 201.5q201 0 342 -77l-28 -144q-131 90 -305 90q-223 0 -356.5 -157t-133.5 -443q0 -173 50 -302.5t154 -205t253 -75.5q121 0 252 39v102q0 161 -19 340z
" />
    <glyph glyph-name="H" unicode="H" horiz-adv-x="1443" 
d="M369 0h-158v1083q0 165 -16 322l157 20l17 -16v-649h704v323q0 185 -14 322l155 20l19 -16v-1409h-160v639h-704v-639z" />
    <glyph glyph-name="I" unicode="I" horiz-adv-x="579" 
d="M369 0h-158v1083q0 165 -16 322l157 20l17 -16v-1409z" />
    <glyph glyph-name="J" unicode="J" horiz-adv-x="559" 
d="M63 -395l-51 80q178 138 178 452v946q0 162 -18 318l160 24l18 -16v-1272q0 -208 -68 -330t-219 -202z" />
    <glyph glyph-name="K" unicode="K" horiz-adv-x="1208" 
d="M211 1083q0 181 -16 322l153 20l19 -16v-661h198q134 209 432 677l133 -24l13 -17l-449 -669l496 -715l-172 -18q-157 218 -449 645h-202v-627h-156v1083z" />
    <glyph glyph-name="L" unicode="L" horiz-adv-x="1007" 
d="M963 131v-131h-752v1085q0 163 -16 320l157 20l17 -16v-1288z" />
    <glyph glyph-name="M" unicode="M" horiz-adv-x="1761" 
d="M1442 1425l20 -16l174 -1409h-157l-68 541q-48 380 -70 667h-4q-58 -228 -200 -667l-176 -541h-177l-172 541q-154 470 -204 667h-2q-16 -208 -74 -667l-68 -541h-139l176 1415l182 10l252 -747q96 -295 146 -528h2q56 244 147 528l246 737z" />
    <glyph glyph-name="N" unicode="N" horiz-adv-x="1439" 
d="M733 815q17 -27 81.5 -130.5t83.5 -135.5t62 -104.5t70.5 -126.5t54.5 -113h5q-8 135 -10.5 275t-2.5 575q0 176 -16 350l151 20l19 -18v-1407h-160q-95 156 -373 608q-12 19 -59.5 95t-59 94.5t-48 77.5t-51 85t-41 72.5t-46 84.5t-39.5 79h-2q13 -188 13 -485v-711
h-154v1087q0 161 -16 318l165 20q72 -118 197.5 -322.5t175.5 -287.5z" />
    <glyph glyph-name="O" unicode="O" horiz-adv-x="1431" 
d="M1294 707q0 -173 -46.5 -313t-127.5 -229.5t-187 -137t-228 -47.5q-121 0 -224.5 47t-179.5 135t-119 221.5t-43 298.5q0 169 45.5 310t125 235t188 146t233.5 52q251 0 407 -194t156 -524zM305 698q0 -268 109.5 -430t300.5 -162t302 157t111 437q0 270 -105 434
t-294 164t-306.5 -161t-117.5 -439z" />
    <glyph glyph-name="P" unicode="P" horiz-adv-x="1140" 
d="M369 0h-158v1087q0 179 -16 318h378q224 0 357 -118.5t133 -321.5q0 -142 -68 -244.5t-185 -153.5t-269 -51h-172v-516zM549 1286h-180v-649h174q171 0 262.5 84t91.5 240q0 150 -86 237.5t-262 87.5z" />
    <glyph glyph-name="Q" unicode="Q" horiz-adv-x="1464" 
d="M1294 707q0 -154 -37 -282t-102.5 -216.5t-152 -144t-189.5 -74.5q323 -189 688 -189l-33 -155q-195 0 -410.5 94.5t-391.5 241.5q-234 14 -380.5 199t-146.5 501q0 169 45.5 310t125 235t188 146t233.5 52q251 0 407 -194t156 -524zM305 698q0 -268 109.5 -430
t300.5 -162t302 157t111 437q0 270 -105 434t-294 164t-306.5 -161t-117.5 -439z" />
    <glyph glyph-name="R" unicode="R" horiz-adv-x="1202" 
d="M369 0h-158v1087q0 179 -16 318h364q232 0 368 -116t136 -310q0 -143 -75 -239.5t-204 -139.5l342 -600l-170 -18q-175 316 -309 575h-278v-557zM549 1286h-180v-610h174q172 0 263 76.5t91 222.5q0 140 -86 225.5t-262 85.5z" />
    <glyph glyph-name="S" unicode="S" horiz-adv-x="1050" 
d="M932 350q0 -171 -125.5 -270.5t-331.5 -99.5q-87 0 -183.5 18t-170.5 55l16 144q76 -43 172 -64.5t172 -21.5q136 0 211.5 62t75.5 165q0 48 -17.5 90t-42 71.5t-69 60.5t-78 49.5t-90.5 47.5q-3 1 -5 2t-4.5 2.5t-4.5 2.5q-44 23 -69 37t-64.5 39t-62.5 45t-51 50.5
t-43 61.5t-25.5 71t-10.5 85q0 171 127 271.5t332 100.5q85 0 171 -17t144 -46l-22 -145q-131 79 -297 79q-136 0 -213.5 -61t-77.5 -164q0 -38 10 -70.5t33 -61t44.5 -49.5t61 -45t64 -37.5t71.5 -37.5q24 -12 35 -18q54 -28 91.5 -51t84 -60.5t75 -76.5t48 -94.5
t19.5 -119.5z" />
    <glyph glyph-name="T" unicode="T" horiz-adv-x="1099" 
d="M631 0h-160v1282q-215 -3 -428 -12l10 135h994l10 -135q-215 9 -426 12v-1282z" />
    <glyph glyph-name="U" unicode="U" horiz-adv-x="1337" 
d="M182 1087q0 171 -20 322l170 16l10 -10v-950q0 -168 92.5 -262t237.5 -94q147 0 238 92.5t91 263.5v643q0 164 -20 301l174 16v-964q0 -116 -39 -209t-106.5 -151.5t-157 -89.5t-193.5 -31q-135 0 -241.5 53t-171 163.5t-64.5 264.5v626z" />
    <glyph glyph-name="V" unicode="V" horiz-adv-x="1245" 
d="M553 -8l-506 1419l168 14l293 -843q95 -267 127 -412q27 124 141 448l281 807l129 -12l12 -16l-502 -1405h-143z" />
    <glyph glyph-name="W" unicode="W" horiz-adv-x="2007" 
d="M496 -8l-433 1417l162 16l250 -835q86 -286 107 -416q27 148 120 451l236 790l152 10l249 -835q87 -275 109 -416q25 135 119 449l239 802l125 -12l13 -16l-431 -1405h-143l-272 870q-52 184 -92 344h-2q-32 -138 -95 -346l-270 -868h-143z" />
    <glyph glyph-name="X" unicode="X" horiz-adv-x="1157" 
d="M63 0l-8 18l424 682l-424 703l168 22l369 -620h4l356 620l142 -12l8 -18l-422 -690l422 -705h-180l-355 600h-4l-354 -600h-146z" />
    <glyph glyph-name="Y" unicode="Y" horiz-adv-x="1146" 
d="M494 504l-447 907l170 14l240 -497q87 -178 127 -289h4q72 165 133 291l235 495l131 -12l13 -16l-447 -899v-498h-159v504z" />
    <glyph glyph-name="Z" unicode="Z" horiz-adv-x="1064" 
d="M88 0l-27 100l746 1174l-721 -8l10 139h854l39 -98l-741 -1176l749 10l-10 -141h-899z" />
    <glyph glyph-name="bracketleft" unicode="[" horiz-adv-x="686" 
d="M184 1548h437v-123h-285v-1701h285v-125h-437v1949z" />
    <glyph glyph-name="backslash" unicode="\" horiz-adv-x="739" 
d="M506 -8l-383 1530l16 16l88 16l383 -1529l-16 -17z" />
    <glyph glyph-name="bracketright" unicode="]" horiz-adv-x="686" 
d="M502 1548v-1949h-439v125h287v1701h-287v123h439z" />
    <glyph glyph-name="asciicircum" unicode="^" horiz-adv-x="1075" 
d="M297 430h-117l295 688h119l303 -688h-117l-248 565z" />
    <glyph glyph-name="underscore" unicode="_" horiz-adv-x="763" 
d="M0 -403v79h764v-79h-764z" />
    <glyph glyph-name="grave" unicode="`" horiz-adv-x="665" 
d="M428 1182q-209 138 -328 317l11 29l141 28q65 -145 227 -350z" />
    <glyph glyph-name="a" unicode="a" horiz-adv-x="1032" 
d="M829 295q0 -159 50 -295l-138 -20q-34 70 -49 143h-2q-45 -59 -130 -101t-183 -42q-122 0 -193 66.5t-71 174.5q0 84 45.5 150t126 107t179 64.5t214.5 30.5v136q0 206 -211 206q-156 0 -311 -96l-9 131q176 86 353 86q163 0 248.5 -79t85.5 -218q0 -76 -2.5 -239
t-2.5 -205zM268 244q0 -66 41.5 -112t120.5 -46q64 0 134 33t114 82v295q-115 -8 -205 -37t-147.5 -84.5t-57.5 -130.5z" />
    <glyph glyph-name="b" unicode="b" horiz-adv-x="1150" 
d="M1018 512q0 -255 -120 -393.5t-320 -138.5q-129 0 -238 38l-145 -38v1226q0 153 -19 318l154 24l18 -16v-598q113 102 270 102q182 0 291 -139.5t109 -384.5zM573 926q-61 0 -121 -23.5t-104 -64.5v-719q95 -37 213 -37q140 0 218.5 108.5t78.5 311.5q0 198 -74.5 311
t-210.5 113z" />
    <glyph glyph-name="c" unicode="c" horiz-adv-x="980" 
d="M885 969l-39 -129q-105 75 -238 75q-143 0 -228 -103.5t-85 -295.5q0 -193 83.5 -305.5t235.5 -112.5q126 0 252 78l13 -113q-120 -83 -293 -83q-204 0 -328.5 136.5t-124.5 383.5q0 252 130.5 394t344.5 142q162 0 277 -67z" />
    <glyph glyph-name="d" unicode="d" horiz-adv-x="1157" 
d="M786 1524l154 24l18 -16v-1247q0 -155 50 -285l-140 -20q-26 53 -49 141h-2q-44 -63 -115 -102t-167 -39q-179 0 -290.5 137t-111.5 370q0 132 38 237.5t105 173t155 103t190 35.5q97 0 184 -32v202q0 177 -19 318zM295 504q0 -194 78 -306t211 -112q129 0 221 111v706
q-94 33 -178 33q-147 0 -239.5 -110t-92.5 -322z" />
    <glyph glyph-name="e" unicode="e" horiz-adv-x="1046" 
d="M926 526l-31 -30h-600q6 -195 94 -296.5t234 -101.5q135 0 268 88l12 -112q-52 -37 -135 -65.5t-180 -28.5q-207 0 -331 136t-124 380q0 127 35.5 231t97 170.5t141 102.5t168.5 36q161 0 257 -106t96 -283q0 -82 -2 -121zM567 930q-109 0 -185.5 -93.5t-86.5 -265.5
l477 15q0 11 1 35t1 38q0 123 -55 197t-152 74z" />
    <glyph glyph-name="f" unicode="f" horiz-adv-x="657" 
d="M367 0h-154v911l-154 7v67l154 21q-1 28 -3.5 96.5t-2.5 89.5q0 169 86.5 262.5t249.5 93.5q138 0 235 -57l-37 -127q-97 63 -200 63q-96 0 -139.5 -59t-43.5 -172q0 -80 4 -190h273l14 -17l-6 -84l-276 6v-911z" />
    <glyph glyph-name="g" unicode="g" horiz-adv-x="1003" 
d="M236 156q3 96 83 166q-96 39 -152 124.5t-56 204.5q0 164 99 274.5t271 110.5q130 0 211 -63q38 39 101.5 62.5t126.5 23.5l22 -8l-4 -127h-197q99 -99 99 -254q0 -161 -98.5 -269t-266.5 -108q-37 0 -78 6q-32 -43 -32 -96q0 -47 27.5 -71t90.5 -30l174 -12
q83 -5 147 -30.5t107 -82.5t43 -139q0 -150 -130.5 -256t-354.5 -106q-192 0 -307 76.5t-115 193.5q0 69 38.5 121t86.5 74l66 -31q-52 -56 -52 -123q0 -89 80 -153t219 -64q140 0 227 65.5t87 165.5q0 76 -53 120t-144 50l-156 13q-105 9 -156.5 53.5t-53.5 118.5zM688 662
q0 130 -54.5 204t-156.5 74q-106 0 -160.5 -71.5t-54.5 -202.5q0 -130 56 -203.5t161 -73.5q103 0 156 71t53 202z" />
    <glyph glyph-name="h" unicode="h" horiz-adv-x="1157" 
d="M348 0h-153v1206q0 174 -19 318l154 24l18 -16v-641q157 145 336 145q131 0 202.5 -76.5t71.5 -222.5v-737h-153v705q0 215 -184 215q-133 0 -273 -119v-801z" />
    <glyph glyph-name="i" unicode="i" horiz-adv-x="550" 
d="M377 1372q0 -53 -31.5 -91t-83.5 -38q-46 0 -74 32.5t-28 80.5q0 52 34.5 89.5t84.5 37.5q44 0 71 -30.5t27 -80.5zM197 0v694q0 192 -19 318l156 24l16 -16v-1020h-153z" />
    <glyph glyph-name="j" unicode="j" horiz-adv-x="552" 
d="M377 1372q0 -53 -31.5 -91t-83.5 -38q-46 0 -75 32.5t-29 80.5q0 52 34 89.5t84 37.5q46 0 73.5 -30.5t27.5 -80.5zM86 -524l-53 69q166 134 166 385v764q0 150 -19 318l154 24l18 -16v-1073q0 -179 -65.5 -290t-200.5 -181z" />
    <glyph glyph-name="k" unicode="k" horiz-adv-x="1044" 
d="M195 1206q0 177 -19 318l154 24l18 -16v-959h160q132 187 309 463l117 -24l12 -19l-309 -428q105 -168 369 -565l-170 -20q-142 207 -320 497h-168v-477h-153v1206z" />
    <glyph glyph-name="l" unicode="l" horiz-adv-x="550" 
d="M350 0h-153v1206q0 177 -19 318l156 24l16 -16v-1532z" />
    <glyph glyph-name="m" unicode="m" horiz-adv-x="1740" 
d="M358 0h-153v698q0 164 -41 303l143 35q29 -72 45 -151q154 151 330 151q95 0 159.5 -42t90.5 -122q158 164 340 164q129 0 198.5 -73.5t69.5 -210.5v-752h-154v721q0 199 -176 199q-128 0 -264 -121q4 -28 4 -47v-752h-153v721q0 96 -45.5 147.5t-133.5 51.5
q-127 0 -260 -121v-799z" />
    <glyph glyph-name="n" unicode="n" horiz-adv-x="1167" 
d="M358 0h-153v698q0 164 -41 303l141 35q30 -67 47 -151q157 151 342 151q131 0 203 -76.5t72 -222.5v-737h-154v705q0 215 -184 215q-134 0 -273 -121v-799z" />
    <glyph glyph-name="o" unicode="o" horiz-adv-x="1144" 
d="M1012 516q0 -129 -36.5 -233t-99 -169t-143.5 -99.5t-172 -34.5q-190 0 -309 138.5t-119 379.5q0 128 36 232t98 170t143.5 101t173.5 35q192 0 310 -140t118 -380zM295 512q0 -195 70.5 -310.5t203.5 -115.5q129 0 206 109.5t77 308.5q0 195 -71 310.5t-203 115.5
q-129 0 -206 -107.5t-77 -310.5z" />
    <glyph glyph-name="p" unicode="p" horiz-adv-x="1163" 
d="M205 -506v1204q0 164 -41 303l143 35q30 -78 37 -116q52 52 128 84t159 32q171 0 285 -137.5t114 -378.5q0 -242 -117 -391t-321 -149q-128 0 -234 49v-219q0 -142 19 -310l-154 -24zM580 926q-134 0 -222 -99v-692q101 -53 209 -53q145 0 223 112.5t78 315.5
q0 204 -78 310t-210 106z" />
    <glyph glyph-name="q" unicode="q" horiz-adv-x="1157" 
d="M805 -506v594q-111 -108 -270 -108q-180 0 -291 139.5t-111 380.5q0 255 139 395.5t363 140.5q98 0 196 -30l127 30v-1218q0 -168 17 -318l-154 -24zM295 512q0 -194 75 -310t210 -116q61 0 121 24t104 68v737q-89 21 -150 21q-170 0 -265 -110.5t-95 -313.5z" />
    <glyph glyph-name="r" unicode="r" horiz-adv-x="786" 
d="M358 0h-153v698q0 164 -41 303l143 35q34 -79 49 -180q70 85 147.5 132.5t149.5 47.5q64 0 97 -26l-29 -142q-53 17 -92 17q-57 0 -131 -31t-140 -92v-762z" />
    <glyph glyph-name="s" unicode="s" horiz-adv-x="899" 
d="M758 975l-19 -131q-131 80 -252 80q-96 0 -152 -43.5t-56 -112.5q0 -47 28 -84.5t72.5 -64t98.5 -51t108.5 -52t99 -60.5t72.5 -83t28 -113q0 -125 -101 -202.5t-267 -77.5q-173 0 -305 69l18 129q67 -41 147.5 -62.5t147.5 -21.5q98 0 153.5 42.5t55.5 109.5
q0 40 -22 73.5t-58 56t-81.5 46t-93.5 43t-93.5 47t-81.5 58.5t-58 77.5t-22 102.5q0 128 101 207t266 79q137 0 266 -61z" />
    <glyph glyph-name="t" unicode="t" horiz-adv-x="739" 
d="M643 920l-285 2v-592q0 -124 39 -178t117 -54q85 0 164 52l20 -107q-99 -63 -227 -63q-266 0 -266 333v611l-150 2v69l152 21l37 239l102 11l19 -19l-7 -231h279l12 -17z" />
    <glyph glyph-name="u" unicode="u" horiz-adv-x="1146" 
d="M197 694q0 162 -15 318l152 24l16 -16v-719q0 -96 44.5 -147.5t131.5 -51.5q123 0 260 121v793l154 20v-747q0 -158 39 -285l-131 -24q-30 58 -49 153h-4q-153 -153 -328 -153q-129 0 -199.5 72.5t-70.5 203.5v438z" />
    <glyph glyph-name="v" unicode="v" horiz-adv-x="962" 
d="M913 1006l-362 -1014h-137l-365 1032l158 12l162 -491q61 -168 85.5 -247.5t37.5 -162.5h2q16 82 40.5 159.5t86.5 250.5l161 491l119 -12z" />
    <glyph glyph-name="w" unicode="w" horiz-adv-x="1554" 
d="M375 -8l-326 1032l156 12l143 -481q68 -213 111 -403h2q34 160 108 391l144 489h153l140 -471q5 -18 30 -96t35.5 -114.5t25.5 -95.5t21 -101h2q21 105 111 399l143 483l119 -12l12 -18l-321 -1014h-150l-155 502q-7 24 -22.5 73.5t-22 70.5t-17.5 58.5t-16.5 61t-12 54
t-10.5 58.5h-2q-17 -112 -98 -374l-156 -504h-147z" />
    <glyph glyph-name="x" unicode="x" horiz-adv-x="964" 
d="M735 0l-268 430l-262 -430h-133l-9 18l320 490l-320 506l156 22l277 -454l268 454l131 -12l6 -18l-319 -498l319 -508h-166z" />
    <glyph glyph-name="y" unicode="y" horiz-adv-x="946" 
d="M913 1006l-352 -986q-176 -507 -502 -544l-24 149q134 15 234.5 112.5t172.5 291.5h-43l-350 995l158 12l162 -491q61 -168 85.5 -247.5t37.5 -162.5h2q16 80 40 155.5t87 254.5l161 491l119 -12z" />
    <glyph glyph-name="z" unicode="z" horiz-adv-x="888" 
d="M70 885l10 131h715l16 -96l-578 -799l283 4q208 4 309 12l-10 -137h-735l-17 98l584 797z" />
    <glyph glyph-name="braceleft" unicode="{" horiz-adv-x="684" 
d="M328 260q0 115 -49.5 182.5t-159.5 81.5v99q109 15 159 80.5t50 187.5q0 82 -32 213t-32 199q0 135 84 190t275 55l6 -96q-112 0 -163.5 -42t-51.5 -128q0 -57 32.5 -205t32.5 -219q0 -115 -58 -188.5t-149 -96.5q89 -22 148 -95.5t59 -184.5q0 -64 -32.5 -215.5
t-32.5 -210.5q0 -86 51.5 -129t163.5 -43l-6 -96q-192 0 -275.5 55t-83.5 190q0 70 32 207t32 209z" />
    <glyph glyph-name="bar" unicode="|" horiz-adv-x="657" 
d="M291 -524l-15 14v2052l91 6l14 -14v-2052z" />
    <glyph glyph-name="braceright" unicode="}" horiz-adv-x="684" 
d="M567 524l-209 -264q0 -72 32 -209t32 -207q0 -134 -84 -189.5t-275 -55.5l-6 96q111 0 163 43t52 129q0 59 -33.5 210t-33.5 216q0 111 59 184.5t148 95.5q-91 23 -149 96.5t-58 188.5q0 71 33.5 219t33.5 205q0 86 -52 128t-163 42l6 96q190 0 274.5 -55t84.5 -190
q0 -68 -32 -199t-32 -213q0 -122 49.5 -187.5t159.5 -80.5v-99z" />
    <glyph glyph-name="asciitilde" unicode="~" 
d="M852 457q-53 0 -279.5 71.5t-250.5 71.5q-22 0 -55 -38t-88 -115q-6 -9 -9 -13l-66 45q126 232 224 232q52 0 278 -72t250 -72q7 0 15.5 4t19 14t19.5 19.5t23.5 27t24 29.5t27 35.5t27.5 36.5l61 -45q-24 -45 -44.5 -77.5t-50.5 -71.5t-62 -60.5t-64 -21.5z" />
    <glyph glyph-name="nbspace" unicode="&#xa0;" horiz-adv-x="1228" 
 />
    <glyph glyph-name="exclamdown" unicode="&#xa1;" horiz-adv-x="573" 
d="M188 913q0 50 30.5 86.5t80.5 36.5q43 0 70.5 -30.5t27.5 -75.5q0 -50 -32.5 -86.5t-81.5 -36.5q-43 0 -69 29.5t-26 76.5zM240 606h104q21 -714 35 -995l-152 -21l-18 19q5 367 31 997z" />
    <glyph glyph-name="cent" unicode="&#xa2;" horiz-adv-x="1005" 
d="M559 -287l-16 17v256q-188 21 -299 166.5t-111 384.5q0 243 116 398t304 179v272l65 7l17 -17v-258q164 -7 264 -76l-31 -129q-47 38 -111 60t-130 22q-153 0 -243.5 -119.5t-90.5 -322.5q0 -207 92 -328t252 -121q134 0 254 82l12 -114q-105 -81 -278 -88v-265z" />
    <glyph glyph-name="sterling" unicode="&#xa3;" horiz-adv-x="1083" 
d="M995 -287q-41 -18 -125 -18t-183 35t-169 75.5t-175 106t-155 92.5q-52 -27 -100 -27q-52 0 -80 20t-28 54t26.5 54t67.5 20q35 0 100 -21q38 52 60.5 144t48.5 258l12 94l-227 6l14 72l225 20q14 98 26.5 170t32 152.5t42 136.5t56 110t73.5 86.5t94.5 52t120.5 19.5
q73 0 137.5 -19t103.5 -48l-57 -139q-87 84 -188 84q-51 0 -89 -21.5t-66.5 -62t-52 -118t-41.5 -169t-40 -234.5h370l11 -16l-25 -82h-373l-14 -84q-58 -322 -164 -450q34 -16 137 -69t163.5 -80.5t152.5 -54t168 -26.5q89 0 162 27z" />
    <glyph glyph-name="currency" unicode="&#xa4;" horiz-adv-x="1189" 
d="M985 90l-168 172q-98 -82 -242 -82q-126 0 -221 66l-153 -152l-68 68l152 151q-78 96 -78 230q0 141 86 250l-154 157l64 64q21 -21 157 -156q98 68 226 68q138 0 235 -78l164 166l68 -68l-166 -168q65 -92 65 -217q0 -130 -69 -227q160 -160 174 -178v-11zM580 831
q-123 0 -194 -81.5t-71 -194.5t72 -196t201 -83q86 0 146 40.5t86 101.5t26 135q0 120 -74 199t-192 79z" />
    <glyph glyph-name="yen" unicode="&#xa5;" horiz-adv-x="1132" 
d="M147 254v80h342v190h-342v82h342l-442 805l164 14l235 -434q70 -136 129 -274h5q48 106 133 272l233 436l125 -12l14 -16l-438 -791h338v-82h-342v-190h342v-80h-342v-254h-154v254h-342z" />
    <glyph glyph-name="brokenbar" unicode="&#xa6;" horiz-adv-x="657" 
d="M381 758l-74 -6l-31 14v776l91 6l14 -14v-776zM381 -518l-74 -6l-31 14v774l91 6l14 -14v-774z" />
    <glyph glyph-name="section" unicode="&#xa7;" horiz-adv-x="1130" 
d="M707 1253q-96 0 -149.5 -51t-53.5 -139q0 -60 28 -123.5t72.5 -122.5t98.5 -121t108 -128.5t98.5 -136t72.5 -153t28 -169.5q0 -210 -156 -333.5t-405 -123.5q-170 0 -269 47l27 186q89 -61 199 -61q104 0 162.5 54t58.5 147q0 59 -28 122t-72.5 121t-98.5 119
t-108 126.5t-98.5 134t-72.5 151.5t-28 168q0 206 150.5 332t394.5 126q165 0 264 -47l-25 -186q-85 61 -198 61zM485 -252q91 3 163.5 27t118.5 59.5t76.5 83t43 95t12.5 98.5q0 74 -28 148t-73 138t-99 127t-108 125t-99 123t-73 130t-28 136q0 47 13 91.5t41 86t80 69
t122 32.5l-4 12q-113 -4 -196.5 -38t-128.5 -87.5t-66 -112t-21 -122.5q0 -75 28 -149.5t73 -138.5t99 -127t108 -125t99 -122.5t73 -129.5t28 -136q0 -47 -13.5 -92t-41.5 -86.5t-80 -69.5t-121 -33z" />
    <glyph glyph-name="dieresis" unicode="&#xa8;" horiz-adv-x="819" 
d="M305 1368q0 -52 -29.5 -89.5t-78.5 -37.5q-43 0 -70 31t-27 76q0 50 33 87.5t78 37.5q42 0 68 -29.5t26 -75.5zM717 1368q0 -52 -30 -89.5t-79 -37.5q-43 0 -69.5 31t-26.5 76q0 50 32 87.5t79 37.5q42 0 68 -29.5t26 -75.5z" />
    <glyph glyph-name="copyright" unicode="&#xa9;" horiz-adv-x="1411" 
d="M707 -80q-166 0 -302 77.5t-214 213.5t-78 301q0 160 80 297t217 217t297 80q166 0 302 -80t212.5 -216.5t76.5 -297.5q0 -160 -79 -296.5t-215.5 -216t-296.5 -79.5zM707 0q139 0 257 69t186.5 187t68.5 256q0 212 -150 362t-362 150q-138 0 -256 -68.5t-187 -186.5
t-69 -257q0 -218 147 -365t365 -147zM926 803l-29 -98q-71 47 -149 47q-91 0 -147 -62t-56 -160q0 -112 54 -176.5t151 -64.5q82 0 159 47l13 -86q-77 -51 -193 -51q-137 0 -220 84t-83 235q0 142 90.5 233t231.5 91q105 0 178 -39z" />
    <glyph glyph-name="ordfeminine" unicode="&#xaa;" horiz-adv-x="862" 
d="M690 823q0 -132 39 -229l-113 -16q-26 54 -41 112h-2q-35 -46 -105.5 -79t-152.5 -33q-100 0 -157.5 51.5t-57.5 136.5q0 66 37.5 117.5t103.5 84t147 51t177 23.5v101q0 160 -174 160q-131 0 -256 -74l-6 106q140 68 291 68q133 0 203.5 -62.5t70.5 -173.5
q0 -60 -2 -184.5t-2 -159.5zM229 786q0 -51 34.5 -86t98.5 -36q53 1 109.5 26t93.5 62v227q-146 -10 -241 -59t-95 -134z" />
    <glyph glyph-name="guillemetleft" unicode="&#xab;" horiz-adv-x="931" 
d="M111 580v43q149 130 346 395l41 -23q-85 -204 -234 -395q149 -191 234 -395l-41 -23q-198 266 -346 398zM463 580v43q83 72 163 165.5t183 229.5l41 -23q-91 -212 -234 -395q143 -183 234 -395l-41 -23q-208 275 -346 398z" />
    <glyph glyph-name="logicalnot" unicode="&#xac;" 
d="M1022 643l-2 -450h-107v358h-796v98q335 10 889 10z" />
    <glyph glyph-name="registered" unicode="&#xae;" horiz-adv-x="1411" 
d="M700 -80q-122 0 -230.5 46t-187 124.5t-124 188t-45.5 231.5t47.5 232.5t127.5 190t190 126.5t231 47q163 0 298.5 -79.5t213 -215.5t77.5 -297q0 -121 -47 -231t-127 -189.5t-191 -126.5t-233 -47zM702 0q141 0 260 69t188 187t69 256q0 212 -150 362t-362 150
q-139 0 -256.5 -68t-186.5 -186.5t-69 -259.5t66.5 -258.5t183 -184.5t257.5 -67zM604 188h-100v459q0 131 -15 215h199q125 0 196.5 -58t71.5 -163q0 -77 -42.5 -128.5t-104.5 -72.5l141 -252l-106 -10q-17 28 -37.5 68.5t-46.5 95t-37 76.5h-119v-230zM702 772h-98v-264
h98q69 0 107.5 33.5t38.5 93.5q0 61 -39 99t-107 38z" />
    <glyph glyph-name="macron" unicode="&#xaf;" horiz-adv-x="708" 
d="M100 1309v102h557v-102h-557z" />
    <glyph glyph-name="degree" unicode="&#xb0;" horiz-adv-x="686" 
d="M336 627q-101 0 -168.5 65.5t-67.5 171.5q0 108 73.5 181t178.5 73q101 0 167.5 -64.5t66.5 -168.5q0 -107 -73.5 -182.5t-176.5 -75.5zM344 1040q-70 0 -114 -50t-44 -122q0 -69 44.5 -115t111.5 -46q70 0 114 50t44 124q0 69 -43 114t-113 45z" />
    <glyph glyph-name="plusminus" unicode="&#xb1;" 
d="M1010 850h-363v-328h-106l-2 328h-375v98q93 2 375 6l-2 326h110v-324q77 0 202 1t161 1l10 -12zM1044 188h-921v99q348 10 921 10l11 -12z" />
    <glyph glyph-name="twosuperior" unicode="&#xb2;" horiz-adv-x="751" 
d="M90 721l-16 94q53 40 80.5 60.5t76 59t75.5 63.5t65 61t59 64.5t42.5 62t30.5 66t9 63.5q0 74 -50 119t-130 45q-121 0 -244 -90l-12 96q50 37 128 60.5t156 23.5q122 0 202.5 -64t80.5 -168q0 -56 -28.5 -116t-69.5 -110.5t-105 -107t-117 -96t-124 -88.5h243
q110 0 215 12l-14 -110h-553z" />
    <glyph glyph-name="threesuperior" unicode="&#xb3;" horiz-adv-x="731" 
d="M98 1501q43 27 115 47.5t141 20.5q109 0 181.5 -50.5t72.5 -132.5q0 -72 -60.5 -133.5t-168.5 -93.5q124 -9 197 -63t73 -148q0 -108 -95 -175.5t-251 -67.5q-121 0 -221 28l12 86q100 -28 205 -28q97 0 158 41.5t61 111.5q0 73 -68.5 107t-173.5 34q-55 0 -96 -8v86
q140 25 217.5 78t77.5 123q0 52 -40.5 83.5t-112.5 31.5q-114 0 -216 -64z" />
    <glyph glyph-name="acute" unicode="&#xb4;" horiz-adv-x="505" 
d="M391 1524l8 -29q-121 -182 -327 -319l-52 26q165 208 228 350z" />
    <glyph glyph-name="paragraph" unicode="&#xb6;" horiz-adv-x="1232" 
d="M489 -242q173 0 263 108t90 341v1116h-150v-862h-59q-208 0 -345.5 129t-137.5 348q0 149 68 256.5t179.5 159t253.5 51.5h312v-1221q0 -253 -121 -393.5t-338 -140.5q-147 0 -297 53l10 111q151 -56 272 -56z" />
    <glyph glyph-name="periodcentered" unicode="&#xb7;" horiz-adv-x="606" 
d="M420 580q0 -53 -35.5 -89t-83.5 -36t-82.5 33t-34.5 83q0 52 37 88.5t88 36.5q48 0 79.5 -32t31.5 -84z" />
    <glyph glyph-name="cedilla" unicode="&#xb8;" horiz-adv-x="616" 
d="M473 -262q0 -58 -46.5 -102t-113.5 -66t-149 -29l-8 66q190 32 190 117q0 72 -135 79l-21 33l60 189l92 -2l-47 -144q78 -10 128 -45t50 -96z" />
    <glyph glyph-name="onesuperior" unicode="&#xb9;" horiz-adv-x="505" 
d="M209 1440h-2l-148 -29l-20 74l280 84l15 -13v-835h-127v545q0 125 2 174z" />
    <glyph glyph-name="ordmasculine" unicode="&#xba;" horiz-adv-x="968" 
d="M846 995q0 -100 -30 -181t-81.5 -131.5t-118 -77.5t-141.5 -27q-157 0 -254.5 108t-97.5 295q0 198 106.5 310t264.5 112q157 0 254.5 -110t97.5 -298zM256 993q0 -150 58.5 -238.5t166.5 -88.5q105 0 167.5 84.5t62.5 236.5q0 151 -58 240.5t-166 89.5
q-105 0 -168 -83.5t-63 -240.5z" />
    <glyph glyph-name="guillemetright" unicode="&#xbb;" horiz-adv-x="931" 
d="M821 580q-148 -132 -346 -398l-41 23q83 201 232 395q-151 197 -232 397l41 21q197 -265 346 -395v-43zM469 580q-138 -123 -346 -398l-41 23q86 207 233 395q-149 190 -233 397l41 21q103 -136 183 -229.5t163 -165.5v-43z" />
    <glyph glyph-name="onequarter" unicode="&#xbc;" horiz-adv-x="1726" 
d="M270 1317h-2l-147 -29l-21 74l281 84l14 -12v-836h-127v545q0 125 2 174zM1270 1434l-871 -1454h-94l869 1454h96zM920 281l370 534l137 12l13 -12v-526q45 2 131 10l-15 -102h-116v-217h-121v217h-383zM1028 287v-2q80 2 268 2h23l2 225q0 148 4 209h-2z" />
    <glyph glyph-name="onehalf" unicode="&#xbd;" horiz-adv-x="1789" 
d="M270 1317h-2l-147 -29l-21 74l281 84l14 -12v-836h-127v545q0 125 2 174zM1270 1434l-871 -1454h-94l869 1454h96zM1067 -20l-16 94q62 46 92 69t85.5 68t84.5 72.5t68.5 69.5t59 74.5t34 71t14.5 74.5q0 74 -50 119t-130 45q-121 0 -244 -90l-12 96q50 37 128 60.5
t156 23.5q122 0 202.5 -63.5t80.5 -167.5q0 -56 -28.5 -116t-69.5 -110.5t-105 -107t-117 -96t-124 -88.5h243q110 0 215 12l-14 -110h-553z" />
    <glyph glyph-name="threequarters" unicode="&#xbe;" horiz-adv-x="1902" 
d="M160 1378q43 27 115 47.5t141 20.5q110 0 182 -50.5t72 -133.5q0 -71 -61 -132.5t-169 -93.5q124 -9 197.5 -63.5t73.5 -147.5q0 -109 -95 -176t-251 -67q-122 0 -222 28l13 84q100 -28 204 -28q97 0 158.5 41.5t61.5 111.5q0 74 -68 108t-174 34q-50 0 -96 -9v86
q139 24 217 78.5t78 122.5q0 53 -40.5 84t-113.5 31q-110 0 -215 -62zM1444 1434l-871 -1454h-92l869 1454h94zM1096 281l368 534l138 12l14 -12v-526q51 2 129 10l-14 -102h-115v-217h-121v217h-383zM1204 287v-2q80 2 266 2h25v225q0 148 4 209h-2z" />
    <glyph glyph-name="questiondown" unicode="&#xbf;" horiz-adv-x="884" 
d="M393 913q0 50 30.5 86.5t80.5 36.5q43 0 70.5 -30.5t27.5 -75.5q0 -50 -33 -86.5t-82 -36.5q-43 0 -68.5 29.5t-25.5 76.5zM465 580l94 2q19 -46 19 -95q0 -41 -19.5 -79.5t-51 -70t-69.5 -63.5t-75.5 -66.5t-69 -71.5t-51 -86t-19.5 -103q0 -104 65.5 -170t174.5 -66
q83 0 170.5 44t148.5 130l70 -82q-67 -99 -177 -156t-241 -57q-169 0 -271 91.5t-102 242.5q0 66 21.5 126.5t56.5 105.5t77 86t84 74.5t77 63.5t56.5 60.5t21.5 59.5q0 15 -6 63z" />
    <glyph glyph-name="Agrave" unicode="&#xc0;" horiz-adv-x="1253" 
d="M870 1591q-284 31 -495 152l-6 29l100 94q162 -122 418 -228zM201 0h-152l420 1206q52 148 68 211l155 8l23 -20l489 -1405h-162l-143 408h-555zM492 827l-105 -297h469l-102 297q-104 314 -129 428h-4q-24 -104 -129 -428z" />
    <glyph glyph-name="Aacute" unicode="&#xc1;" horiz-adv-x="1253" 
d="M887 1772l-6 -29q-214 -121 -496 -152l-16 47q258 108 417 228zM201 0h-152l420 1206q52 148 68 211l155 8l23 -20l489 -1405h-162l-143 408h-555zM492 827l-105 -297h469l-102 297q-104 314 -129 428h-4q-24 -104 -129 -428z" />
    <glyph glyph-name="Acircumflex" unicode="&#xc2;" horiz-adv-x="1253" 
d="M362 1579l-45 39q113 99 238 244l125 12q110 -127 254 -256l-43 -39q-123 68 -275 178q-149 -117 -254 -178zM201 0h-152l420 1206q52 148 68 211l155 8l23 -20l489 -1405h-162l-143 408h-555zM492 827l-105 -297h469l-102 297q-104 314 -129 428h-4q-24 -104 -129 -428z
" />
    <glyph glyph-name="Atilde" unicode="&#xc3;" horiz-adv-x="1253" 
d="M485 1849q41 0 83.5 -18t73 -39t69 -39t71.5 -18q80 0 136 110l47 -8q-8 -90 -58.5 -154.5t-134.5 -64.5q-40 0 -83.5 18t-75.5 39.5t-71 39.5t-71 18q-76 0 -135 -109l-47 8q9 84 59 150.5t137 66.5zM201 0h-152l420 1206q52 148 68 211l155 8l23 -20l489 -1405h-162
l-143 408h-555zM492 827l-105 -297h469l-102 297q-104 314 -129 428h-4q-24 -104 -129 -428z" />
    <glyph glyph-name="Adieresis" unicode="&#xc4;" horiz-adv-x="1253" 
d="M940 1733q0 -48 -30.5 -83.5t-80.5 -35.5q-44 0 -71 28.5t-27 69.5q0 47 32.5 82t80.5 35q42 0 69 -27t27 -69zM524 1733q0 -48 -30 -83.5t-80 -35.5q-43 0 -71 28.5t-28 69.5q0 47 32.5 82t80.5 35q44 0 70 -27t26 -69zM201 0h-152l420 1206q52 148 68 211l155 8l23 -20
l489 -1405h-162l-143 408h-555zM492 827l-105 -297h469l-102 297q-104 314 -129 428h-4q-24 -104 -129 -428z" />
    <glyph glyph-name="Aring" unicode="&#xc5;" horiz-adv-x="1253" 
d="M813 1735q0 -75 -57.5 -129t-137.5 -54q-73 0 -124.5 45.5t-51.5 112.5q0 75 58.5 128.5t140.5 53.5q75 0 123.5 -44.5t48.5 -112.5zM530 1718q0 -41 27 -68.5t68 -27.5q42 0 70 30.5t28 73.5q0 42 -24 69.5t-66 27.5q-44 0 -73.5 -31t-29.5 -74zM201 0h-152l420 1206
q52 148 68 211l155 8l23 -20l489 -1405h-162l-143 408h-555zM492 827l-105 -297h469l-102 297q-104 314 -129 428h-4q-24 -104 -129 -428z" />
    <glyph glyph-name="AE" unicode="&#xc6;" horiz-adv-x="1744" 
d="M201 0h-152l572 1206q18 37 50 104t46 95h727l18 -16l-2 -115l-545 10l76 -528l459 4l-2 -125l-440 6l73 -520l582 10v-131h-725l-57 408h-488zM590 827l-139 -297h413l-41 297q-35 300 -41 428h-4q-31 -79 -188 -428z" />
    <glyph glyph-name="Ccedilla" unicode="&#xc7;" horiz-adv-x="1212" 
d="M918 -266q0 -58 -46.5 -102t-113.5 -66t-150 -29l-6 66q189 37 189 118q0 69 -136 80l-20 31l47 150q-249 15 -396 199.5t-147 500.5q0 340 169.5 541.5t436.5 201.5q98 0 193.5 -23t161.5 -65l-31 -145q-136 98 -317 98q-197 0 -322 -157.5t-125 -438.5q0 -170 51 -300
t153 -204.5t243 -74.5q188 0 342 108l18 -133q-131 -98 -336 -108l-35 -107q77 -10 127 -45t50 -96z" />
    <glyph glyph-name="Egrave" unicode="&#xc8;" horiz-adv-x="1067" 
d="M829 1591q-284 31 -495 152l-6 29l100 94q162 -122 418 -228zM985 131v-131h-774v1087q0 179 -16 318h755l17 -16l-2 -115l-596 12v-532l505 6l-2 -125l-503 6v-520z" />
    <glyph glyph-name="Eacute" unicode="&#xc9;" horiz-adv-x="1067" 
d="M846 1772l-6 -29q-214 -121 -496 -152l-16 47q258 108 417 228zM985 131v-131h-774v1087q0 179 -16 318h755l17 -16l-2 -115l-596 12v-532l505 6l-2 -125l-503 6v-520z" />
    <glyph glyph-name="Ecircumflex" unicode="&#xca;" horiz-adv-x="1067" 
d="M322 1579l-46 39q113 99 238 244l125 12q110 -127 254 -256l-43 -39q-123 68 -275 178q-152 -119 -253 -178zM985 131v-131h-774v1087q0 179 -16 318h755l17 -16l-2 -115l-596 12v-532l505 6l-2 -125l-503 6v-520z" />
    <glyph glyph-name="Edieresis" unicode="&#xcb;" horiz-adv-x="1067" 
d="M899 1733q0 -48 -30.5 -83.5t-80.5 -35.5q-44 0 -71 28.5t-27 69.5q0 47 32.5 82t80.5 35q42 0 69 -27t27 -69zM483 1733q0 -48 -30 -83.5t-80 -35.5q-43 0 -71 28.5t-28 69.5q0 47 32.5 82t80.5 35q44 0 70 -27t26 -69zM985 131v-131h-774v1087q0 179 -16 318h755
l17 -16l-2 -115l-596 12v-532l505 6l-2 -125l-503 6v-520z" />
    <glyph glyph-name="Igrave" unicode="&#xcc;" horiz-adv-x="579" 
d="M524 1591q-284 31 -495 152l-6 29l100 94q162 -122 418 -228zM369 0h-158v1083q0 165 -16 322l157 20l17 -16v-1409z" />
    <glyph glyph-name="Iacute" unicode="&#xcd;" horiz-adv-x="579" 
d="M541 1772l-6 -29q-214 -121 -496 -152l-16 47q258 108 417 228zM369 0h-158v1083q0 165 -16 322l157 20l17 -16v-1409z" />
    <glyph glyph-name="Icircumflex" unicode="&#xce;" horiz-adv-x="579" 
d="M16 1579l-45 39q113 99 238 244l125 12q110 -127 254 -256l-43 -39q-123 68 -275 178q-149 -117 -254 -178zM369 0h-158v1083q0 165 -16 322l157 20l17 -16v-1409z" />
    <glyph glyph-name="Idieresis" unicode="&#xcf;" horiz-adv-x="579" 
d="M594 1733q0 -48 -30.5 -83.5t-80.5 -35.5q-44 0 -71 28.5t-27 69.5q0 47 32.5 82t80.5 35q42 0 69 -27t27 -69zM178 1733q0 -48 -30 -83.5t-80 -35.5q-43 0 -71 28.5t-28 69.5q0 47 32.5 82t80.5 35q44 0 70 -27t26 -69zM369 0h-158v1083q0 165 -16 322l157 20l17 -16
v-1409z" />
    <glyph glyph-name="Eth" unicode="&#xd0;" horiz-adv-x="1394" 
d="M1255 709q0 -220 -89.5 -382t-247 -244.5t-365.5 -82.5h-342v657h-182v93h182v337q0 179 -16 318h385q192 0 344.5 -82t241.5 -241.5t89 -372.5zM780 657h-411v-534h190q259 0 395 151.5t136 425.5q0 268 -141.5 426t-383.5 158h-196v-534h411v-93z" />
    <glyph glyph-name="Ntilde" unicode="&#xd1;" horiz-adv-x="1439" 
d="M565 1849q41 0 83.5 -18t73 -39t69 -39t71.5 -18q79 0 135 110l47 -8q-8 -90 -58 -154.5t-134 -64.5q-40 0 -83.5 18t-75.5 39.5t-71 39.5t-71 18q-76 0 -135 -109l-47 8q9 84 59 150.5t137 66.5zM733 815q17 -27 81.5 -130.5t83.5 -135.5t62 -104.5t70.5 -126.5
t54.5 -113h5q-8 135 -10.5 275t-2.5 575q0 176 -16 350l151 20l19 -18v-1407h-160q-95 156 -373 608q-12 19 -59.5 95t-59 94.5t-48 77.5t-51 85t-41 72.5t-46 84.5t-39.5 79h-2q13 -188 13 -485v-711h-154v1087q0 161 -16 318l165 20q72 -118 197.5 -322.5t175.5 -287.5z
" />
    <glyph glyph-name="Ograve" unicode="&#xd2;" horiz-adv-x="1431" 
d="M971 1587q-282 31 -496 152l-6 26l100 95q162 -122 418 -226zM1294 707q0 -173 -46.5 -313t-127.5 -229.5t-187 -137t-228 -47.5q-121 0 -224.5 47t-179.5 135t-119 221.5t-43 298.5q0 169 45.5 310t125 235t188 146t233.5 52q251 0 407 -194t156 -524zM305 698
q0 -268 109.5 -430t300.5 -162t302 157t111 437q0 270 -105 434t-294 164t-306.5 -161t-117.5 -439z" />
    <glyph glyph-name="Oacute" unicode="&#xd3;" horiz-adv-x="1431" 
d="M987 1765l-6 -26q-210 -121 -496 -152l-16 47q252 101 418 226zM1294 707q0 -173 -46.5 -313t-127.5 -229.5t-187 -137t-228 -47.5q-121 0 -224.5 47t-179.5 135t-119 221.5t-43 298.5q0 169 45.5 310t125 235t188 146t233.5 52q251 0 407 -194t156 -524zM305 698
q0 -268 109.5 -430t300.5 -162t302 157t111 437q0 270 -105 434t-294 164t-306.5 -161t-117.5 -439z" />
    <glyph glyph-name="Ocircumflex" unicode="&#xd4;" horiz-adv-x="1431" 
d="M463 1573l-43 41q120 107 235 244l125 12q113 -131 256 -256l-45 -41q-150 87 -272 178q-130 -101 -256 -178zM1294 707q0 -173 -46.5 -313t-127.5 -229.5t-187 -137t-228 -47.5q-121 0 -224.5 47t-179.5 135t-119 221.5t-43 298.5q0 169 45.5 310t125 235t188 146
t233.5 52q251 0 407 -194t156 -524zM305 698q0 -268 109.5 -430t300.5 -162t302 157t111 437q0 270 -105 434t-294 164t-306.5 -161t-117.5 -439z" />
    <glyph glyph-name="Otilde" unicode="&#xd5;" horiz-adv-x="1431" 
d="M586 1845q51 0 104.5 -28.5t103 -57t89.5 -28.5q45 0 76.5 28t60.5 80l47 -8q-10 -89 -61 -154t-134 -65q-40 0 -83.5 18.5t-75.5 40t-70.5 40t-69.5 18.5q-77 0 -137 -111l-47 8q7 53 27.5 100t65 83t104.5 36zM1294 707q0 -173 -46.5 -313t-127.5 -229.5t-187 -137
t-228 -47.5q-121 0 -224.5 47t-179.5 135t-119 221.5t-43 298.5q0 169 45.5 310t125 235t188 146t233.5 52q251 0 407 -194t156 -524zM305 698q0 -268 109.5 -430t300.5 -162t302 157t111 437q0 270 -105 434t-294 164t-306.5 -161t-117.5 -439z" />
    <glyph glyph-name="Odieresis" unicode="&#xd6;" horiz-adv-x="1431" 
d="M1040 1729q0 -48 -30 -83.5t-80 -35.5q-44 0 -71.5 28t-27.5 70q0 46 32.5 80.5t80.5 34.5q44 0 70 -26t26 -68zM625 1729q0 -49 -30 -84t-81 -35q-44 0 -71 28t-27 70q0 46 33 80.5t81 34.5q42 0 68.5 -26.5t26.5 -67.5zM1294 707q0 -173 -46.5 -313t-127.5 -229.5
t-187 -137t-228 -47.5q-121 0 -224.5 47t-179.5 135t-119 221.5t-43 298.5q0 169 45.5 310t125 235t188 146t233.5 52q251 0 407 -194t156 -524zM305 698q0 -268 109.5 -430t300.5 -162t302 157t111 437q0 270 -105 434t-294 164t-306.5 -161t-117.5 -439z" />
    <glyph glyph-name="multiply" unicode="&#xd7;" 
d="M926 303l-334 334l-336 -336l-70 72l334 336l-334 335l70 70q46 -45 101 -100t124.5 -125t108.5 -109l334 334l71 -72l-333 -333q31 -31 151 -152t180 -180l-2 -17z" />
    <glyph glyph-name="Oslash" unicode="&#xd8;" horiz-adv-x="1431" 
d="M1294 707q0 -173 -46.5 -313t-127.5 -229.5t-187 -137t-228 -47.5q-251 0 -404 182l-145 -170l-72 63l160 187q-105 180 -105 440q0 169 45.5 310t125 235t188 146t233.5 52q240 0 391 -174l144 164l73 -61l-159 -183q114 -188 114 -464zM305 698q0 -191 55 -325l662 762
q-107 163 -293 163q-189 0 -306.5 -161t-117.5 -439zM1128 700q0 202 -59 344l-663 -763q114 -175 309 -175q191 0 302 157t111 437z" />
    <glyph glyph-name="Ugrave" unicode="&#xd9;" horiz-adv-x="1337" 
d="M911 1587q-281 31 -495 152l-6 26l100 95q162 -122 418 -226zM182 1087q0 171 -20 322l170 16l10 -10v-950q0 -168 92.5 -262t237.5 -94q147 0 238 92.5t91 263.5v643q0 164 -20 301l174 16v-964q0 -116 -39 -209t-106.5 -151.5t-157 -89.5t-193.5 -31q-135 0 -241.5 53
t-171 163.5t-64.5 264.5v626z" />
    <glyph glyph-name="Uacute" unicode="&#xda;" horiz-adv-x="1337" 
d="M928 1765l-6 -26q-210 -121 -496 -152l-16 47q250 100 417 226zM182 1087q0 171 -20 322l170 16l10 -10v-950q0 -168 92.5 -262t237.5 -94q147 0 238 92.5t91 263.5v643q0 164 -20 301l174 16v-964q0 -116 -39 -209t-106.5 -151.5t-157 -89.5t-193.5 -31
q-135 0 -241.5 53t-171 163.5t-64.5 264.5v626z" />
    <glyph glyph-name="Ucircumflex" unicode="&#xdb;" horiz-adv-x="1337" 
d="M403 1573l-43 41q124 110 236 244l125 12q113 -131 256 -256l-45 -41q-155 90 -273 178q-130 -101 -256 -178zM182 1087q0 171 -20 322l170 16l10 -10v-950q0 -168 92.5 -262t237.5 -94q147 0 238 92.5t91 263.5v643q0 164 -20 301l174 16v-964q0 -116 -39 -209
t-106.5 -151.5t-157 -89.5t-193.5 -31q-135 0 -241.5 53t-171 163.5t-64.5 264.5v626z" />
    <glyph glyph-name="Udieresis" unicode="&#xdc;" horiz-adv-x="1337" 
d="M981 1729q0 -48 -30.5 -83.5t-80.5 -35.5q-44 0 -71 28t-27 70q0 46 32.5 80.5t80.5 34.5q44 0 70 -26t26 -68zM565 1729q0 -49 -29.5 -84t-80.5 -35q-44 0 -71.5 28t-27.5 70q0 45 33.5 80t81.5 35q42 0 68 -26t26 -68zM182 1087q0 171 -20 322l170 16l10 -10v-950
q0 -168 92.5 -262t237.5 -94q147 0 238 92.5t91 263.5v643q0 164 -20 301l174 16v-964q0 -116 -39 -209t-106.5 -151.5t-157 -89.5t-193.5 -31q-135 0 -241.5 53t-171 163.5t-64.5 264.5v626z" />
    <glyph glyph-name="Yacute" unicode="&#xdd;" horiz-adv-x="1146" 
d="M846 1765l-8 -26q-210 -121 -496 -152l-16 47q250 100 417 226zM494 504l-447 907l170 14l240 -497q87 -178 127 -289h4q72 165 133 291l235 495l131 -12l13 -16l-447 -899v-498h-159v504z" />
    <glyph glyph-name="Thorn" unicode="&#xde;" horiz-adv-x="1140" 
d="M369 0h-158v1087q0 179 -16 318h174v-236h204q223 0 356.5 -119t133.5 -321q0 -143 -68.5 -245.5t-185 -152.5t-268.5 -50h-172v-281zM549 1049h-180v-650h174q171 0 262.5 85t91.5 241q0 149 -86 236.5t-262 87.5z" />
    <glyph glyph-name="germandbls" unicode="&#xdf;" horiz-adv-x="1230" 
d="M213 922l-154 6v67l154 21v51q0 106 23.5 190t62.5 137.5t93.5 89t111.5 50t121 14.5q158 0 256 -84.5t98 -218.5q-1 -121 -72.5 -213.5t-189.5 -138.5q171 -63 276 -199t105 -311q0 -181 -112.5 -292t-291.5 -111q-98 0 -198 34v113q88 -35 180 -35q127 0 197.5 80
t70.5 209q0 156 -105 278.5t-280 180.5v94q123 40 195.5 114.5t72.5 178.5q0 94 -58 154.5t-153 60.5q-47 0 -88 -16t-79 -53.5t-60 -110.5t-22 -175v-1087h-154v922z" />
    <glyph glyph-name="agrave" unicode="&#xe0;" horiz-adv-x="1032" 
d="M629 1182q-210 137 -330 317l10 29l142 28q73 -157 229 -350zM829 295q0 -159 50 -295l-138 -20q-34 70 -49 143h-2q-45 -59 -130 -101t-183 -42q-122 0 -193 66.5t-71 174.5q0 84 45.5 150t126 107t179 64.5t214.5 30.5v136q0 206 -211 206q-156 0 -311 -96l-9 131
q176 86 353 86q163 0 248.5 -79t85.5 -218q0 -76 -2.5 -239t-2.5 -205zM268 244q0 -66 41.5 -112t120.5 -46q64 0 134 33t114 82v295q-115 -8 -205 -37t-147.5 -84.5t-57.5 -130.5z" />
    <glyph glyph-name="aacute" unicode="&#xe1;" horiz-adv-x="1032" 
d="M670 1524l10 -29q-119 -178 -330 -319l-51 26q161 203 229 350zM829 295q0 -159 50 -295l-138 -20q-34 70 -49 143h-2q-45 -59 -130 -101t-183 -42q-122 0 -193 66.5t-71 174.5q0 84 45.5 150t126 107t179 64.5t214.5 30.5v136q0 206 -211 206q-156 0 -311 -96l-9 131
q176 86 353 86q163 0 248.5 -79t85.5 -218q0 -76 -2.5 -239t-2.5 -205zM268 244q0 -66 41.5 -112t120.5 -46q64 0 134 33t114 82v295q-115 -8 -205 -37t-147.5 -84.5t-57.5 -130.5z" />
    <glyph glyph-name="acircumflex" unicode="&#xe2;" horiz-adv-x="1032" 
d="M256 1171l-49 39q129 172 213 320l125 12q113 -183 231 -332l-49 -39q-113 97 -244 242q-140 -159 -227 -242zM829 295q0 -159 50 -295l-138 -20q-34 70 -49 143h-2q-45 -59 -130 -101t-183 -42q-122 0 -193 66.5t-71 174.5q0 84 45.5 150t126 107t179 64.5t214.5 30.5
v136q0 206 -211 206q-156 0 -311 -96l-9 131q176 86 353 86q163 0 248.5 -79t85.5 -218q0 -76 -2.5 -239t-2.5 -205zM268 244q0 -66 41.5 -112t120.5 -46q64 0 134 33t114 82v295q-115 -8 -205 -37t-147.5 -84.5t-57.5 -130.5z" />
    <glyph glyph-name="atilde" unicode="&#xe3;" horiz-adv-x="1032" 
d="M348 1481q38 0 79 -18t71 -39.5t66 -39.5t65 -18q39 0 67.5 28.5t55.5 80.5l51 -9q-10 -90 -59 -158.5t-126 -68.5q-37 0 -78.5 18t-72 39.5t-67 39.5t-64.5 18q-68 0 -123 -111l-49 8q8 56 28 105.5t61 87t95 37.5zM829 295q0 -159 50 -295l-138 -20q-34 70 -49 143h-2
q-45 -59 -130 -101t-183 -42q-122 0 -193 66.5t-71 174.5q0 84 45.5 150t126 107t179 64.5t214.5 30.5v136q0 206 -211 206q-156 0 -311 -96l-9 131q176 86 353 86q163 0 248.5 -79t85.5 -218q0 -76 -2.5 -239t-2.5 -205zM268 244q0 -66 41.5 -112t120.5 -46q64 0 134 33
t114 82v295q-115 -8 -205 -37t-147.5 -84.5t-57.5 -130.5z" />
    <glyph glyph-name="adieresis" unicode="&#xe4;" horiz-adv-x="1032" 
d="M385 1370q0 -52 -28.5 -89.5t-77.5 -37.5q-43 0 -71 31.5t-28 75.5q0 51 33 89t80 38q42 0 67 -29.5t25 -77.5zM797 1370q0 -52 -30 -89.5t-79 -37.5q-43 0 -69.5 31.5t-26.5 75.5q0 51 33 89t80 38q41 0 66.5 -30t25.5 -77zM829 295q0 -159 50 -295l-138 -20
q-34 70 -49 143h-2q-45 -59 -130 -101t-183 -42q-122 0 -193 66.5t-71 174.5q0 84 45.5 150t126 107t179 64.5t214.5 30.5v136q0 206 -211 206q-156 0 -311 -96l-9 131q176 86 353 86q163 0 248.5 -79t85.5 -218q0 -76 -2.5 -239t-2.5 -205zM268 244q0 -66 41.5 -112
t120.5 -46q64 0 134 33t114 82v295q-115 -8 -205 -37t-147.5 -84.5t-57.5 -130.5z" />
    <glyph glyph-name="aring" unicode="&#xe5;" horiz-adv-x="1032" 
d="M682 1354q0 -74 -57 -128.5t-138 -54.5q-71 0 -122.5 46t-51.5 112q0 75 58.5 128.5t140.5 53.5q73 0 121.5 -44.5t48.5 -112.5zM401 1337q0 -41 27 -67.5t68 -26.5q42 0 70 30.5t28 72.5t-24 69t-66 27q-44 0 -73.5 -31t-29.5 -74zM829 295q0 -159 50 -295l-138 -20
q-34 70 -49 143h-2q-45 -59 -130 -101t-183 -42q-122 0 -193 66.5t-71 174.5q0 84 45.5 150t126 107t179 64.5t214.5 30.5v136q0 206 -211 206q-156 0 -311 -96l-9 131q176 86 353 86q163 0 248.5 -79t85.5 -218q0 -76 -2.5 -239t-2.5 -205zM268 244q0 -66 41.5 -112
t120.5 -46q64 0 134 33t114 82v295q-115 -8 -205 -37t-147.5 -84.5t-57.5 -130.5z" />
    <glyph glyph-name="ae" unicode="&#xe6;" horiz-adv-x="1591" 
d="M1470 526l-30 -30h-600q6 -196 93.5 -297t233.5 -101q136 0 269 88l12 -112q-52 -37 -135 -65.5t-180 -28.5q-129 0 -228 53.5t-157 156.5q-57 -86 -159.5 -148t-217.5 -62q-119 0 -188.5 67t-69.5 176q0 67 30.5 123t82.5 95t125 67.5t154 43.5t173 21v136
q0 206 -213 206q-157 0 -309 -96l-9 131q176 86 355 86q226 0 299 -149q125 149 319 149q161 0 257 -106t96 -283q0 -63 -3 -121zM1112 930q-109 0 -185.5 -93.5t-86.5 -265.5l477 15q0 11 1 34.5t1 36.5q0 126 -55 199.5t-152 73.5zM268 244q0 -66 41.5 -112t120.5 -46
q84 0 164.5 48.5t124.5 119.5q-41 103 -41 242q-115 -8 -205 -37t-147.5 -84.5t-57.5 -130.5z" />
    <glyph glyph-name="ccedilla" unicode="&#xe7;" horiz-adv-x="980" 
d="M762 -266q0 -86 -89.5 -135.5t-219.5 -61.5l-7 66q189 37 189 118q0 69 -135 80l-21 31l47 152q-181 19 -287 153t-106 363q0 252 130.5 394t344.5 142q162 0 277 -67l-39 -129q-105 75 -238 75q-143 0 -228 -103.5t-85 -295.5q0 -193 83.5 -305.5t235.5 -112.5
q126 0 252 78l13 -113q-109 -74 -261 -83l-32 -105q77 -10 126.5 -45t49.5 -96z" />
    <glyph glyph-name="egrave" unicode="&#xe8;" horiz-adv-x="1046" 
d="M690 1182q-210 137 -330 317l11 29l141 28q73 -157 229 -350zM926 526l-31 -30h-600q6 -195 94 -296.5t234 -101.5q135 0 268 88l12 -112q-52 -37 -135 -65.5t-180 -28.5q-207 0 -331 136t-124 380q0 127 35.5 231t97 170.5t141 102.5t168.5 36q161 0 257 -106t96 -283
q0 -82 -2 -121zM567 930q-109 0 -185.5 -93.5t-86.5 -265.5l477 15q0 11 1 35t1 38q0 123 -55 197t-152 74z" />
    <glyph glyph-name="eacute" unicode="&#xe9;" horiz-adv-x="1046" 
d="M731 1524l10 -29q-120 -179 -329 -319l-52 26q164 206 230 350zM926 526l-31 -30h-600q6 -195 94 -296.5t234 -101.5q135 0 268 88l12 -112q-52 -37 -135 -65.5t-180 -28.5q-207 0 -331 136t-124 380q0 127 35.5 231t97 170.5t141 102.5t168.5 36q161 0 257 -106t96 -283
q0 -82 -2 -121zM567 930q-109 0 -185.5 -93.5t-86.5 -265.5l477 15q0 11 1 35t1 38q0 123 -55 197t-152 74z" />
    <glyph glyph-name="ecircumflex" unicode="&#xea;" horiz-adv-x="1046" 
d="M317 1171l-49 39q129 172 213 320l125 12q109 -177 232 -332l-50 -39q-109 93 -243 242q-134 -153 -228 -242zM926 526l-31 -30h-600q6 -195 94 -296.5t234 -101.5q135 0 268 88l12 -112q-52 -37 -135 -65.5t-180 -28.5q-207 0 -331 136t-124 380q0 127 35.5 231
t97 170.5t141 102.5t168.5 36q161 0 257 -106t96 -283q0 -82 -2 -121zM567 930q-109 0 -185.5 -93.5t-86.5 -265.5l477 15q0 11 1 35t1 38q0 123 -55 197t-152 74z" />
    <glyph glyph-name="edieresis" unicode="&#xeb;" horiz-adv-x="1046" 
d="M446 1370q0 -52 -28.5 -89.5t-77.5 -37.5q-43 0 -70.5 31.5t-27.5 75.5q0 52 32.5 89.5t79.5 37.5q42 0 67 -29.5t25 -77.5zM858 1370q0 -52 -29.5 -89.5t-78.5 -37.5q-43 0 -70 31.5t-27 75.5q0 51 33 89t80 38q41 0 66.5 -30t25.5 -77zM926 526l-31 -30h-600
q6 -195 94 -296.5t234 -101.5q135 0 268 88l12 -112q-52 -37 -135 -65.5t-180 -28.5q-207 0 -331 136t-124 380q0 127 35.5 231t97 170.5t141 102.5t168.5 36q161 0 257 -106t96 -283q0 -82 -2 -121zM567 930q-109 0 -185.5 -93.5t-86.5 -265.5l477 15q0 11 1 35t1 38
q0 123 -55 197t-152 74z" />
    <glyph glyph-name="igrave" unicode="&#xec;" horiz-adv-x="550" 
d="M408 1182q-210 137 -330 317l10 29l141 28q71 -154 230 -350zM197 0v694q0 192 -19 318l156 24l16 -16v-1020h-153z" />
    <glyph glyph-name="iacute" unicode="&#xed;" horiz-adv-x="550" 
d="M449 1524l10 -29q-119 -178 -330 -319l-51 26q161 203 229 350zM197 0v694q0 192 -19 318l156 24l16 -16v-1020h-153z" />
    <glyph glyph-name="icircumflex" unicode="&#xee;" horiz-adv-x="550" 
d="M94 1188l-49 26q80 171 137 328l152 12q70 -172 155 -340l-49 -26q-82 89 -182 237q-86 -142 -164 -237zM197 0v694q0 192 -19 318l156 24l16 -16v-1020h-153z" />
    <glyph glyph-name="idieresis" unicode="&#xef;" horiz-adv-x="550" 
d="M211 1376q0 -52 -27.5 -89.5t-74.5 -37.5q-41 0 -67 31t-26 76q0 50 31.5 87.5t75.5 37.5q39 0 63.5 -29.5t24.5 -75.5zM520 1376q0 -52 -28.5 -89.5t-75.5 -37.5q-40 0 -65 31t-25 76q0 50 30 87.5t74 37.5q41 0 65.5 -29.5t24.5 -75.5zM197 0v694q0 192 -19 318l156 24
l16 -16v-1020h-153z" />
    <glyph glyph-name="eth" unicode="&#xf0;" horiz-adv-x="1175" 
d="M594 -20q-190 0 -310 139.5t-120 380.5q0 244 120.5 381t301.5 137q164 0 264 -111q-65 192 -211 344l-258 -151l-51 80l237 141q-84 72 -194 137l57 90q139 -63 254 -159l246 147l49 -80l-223 -133q291 -305 291 -774q0 -142 -36 -253t-99 -179t-143.5 -102.5
t-174.5 -34.5zM610 907q-128 0 -206 -104.5t-78 -300.5q0 -184 71 -295t203 -111q129 0 208 106t79 298q0 187 -73.5 297t-203.5 110z" />
    <glyph glyph-name="ntilde" unicode="&#xf1;" horiz-adv-x="1167" 
d="M428 1481q38 0 79 -18t71 -39.5t66 -39.5t65 -18q39 0 66.5 28t55.5 81l52 -9q-10 -90 -59 -158.5t-126 -68.5q-37 0 -78.5 18t-72 39.5t-67 39.5t-64.5 18q-68 0 -123 -111l-49 8q8 56 28 105.5t61 87t95 37.5zM358 0h-153v698q0 164 -41 303l141 35q30 -67 47 -151
q157 151 342 151q131 0 203 -76.5t72 -222.5v-737h-154v705q0 215 -184 215q-134 0 -273 -121v-799z" />
    <glyph glyph-name="ograve" unicode="&#xf2;" horiz-adv-x="1144" 
d="M711 1182q-209 138 -328 317l10 29l142 28q65 -145 227 -350zM1012 516q0 -129 -36.5 -233t-99 -169t-143.5 -99.5t-172 -34.5q-190 0 -309 138.5t-119 379.5q0 128 36 232t98 170t143.5 101t173.5 35q192 0 310 -140t118 -380zM295 512q0 -195 70.5 -310.5t203.5 -115.5
q129 0 206 109.5t77 308.5q0 195 -71 310.5t-203 115.5q-129 0 -206 -107.5t-77 -310.5z" />
    <glyph glyph-name="oacute" unicode="&#xf3;" horiz-adv-x="1144" 
d="M754 1524l8 -29q-120 -181 -328 -319l-51 26q162 205 227 350zM1012 516q0 -129 -36.5 -233t-99 -169t-143.5 -99.5t-172 -34.5q-190 0 -309 138.5t-119 379.5q0 128 36 232t98 170t143.5 101t173.5 35q192 0 310 -140t118 -380zM295 512q0 -195 70.5 -310.5
t203.5 -115.5q129 0 206 109.5t77 308.5q0 195 -71 310.5t-203 115.5q-129 0 -206 -107.5t-77 -310.5z" />
    <glyph glyph-name="ocircumflex" unicode="&#xf4;" horiz-adv-x="1144" 
d="M340 1171l-49 39q129 172 213 320l125 12q99 -165 231 -332l-49 -39q-106 91 -246 242q-128 -149 -225 -242zM1012 516q0 -129 -36.5 -233t-99 -169t-143.5 -99.5t-172 -34.5q-190 0 -309 138.5t-119 379.5q0 128 36 232t98 170t143.5 101t173.5 35q192 0 310 -140
t118 -380zM295 512q0 -195 70.5 -310.5t203.5 -115.5q129 0 206 109.5t77 308.5q0 195 -71 310.5t-203 115.5q-129 0 -206 -107.5t-77 -310.5z" />
    <glyph glyph-name="otilde" unicode="&#xf5;" horiz-adv-x="1144" 
d="M432 1481q37 0 78 -18t71 -39.5t66.5 -39.5t65.5 -18q66 0 123 109l49 -9q-10 -90 -58 -158.5t-125 -68.5q-37 0 -78.5 18t-72 39.5t-67 39.5t-64.5 18q-68 0 -123 -111l-49 8q8 57 27.5 106t60.5 86.5t96 37.5zM1012 516q0 -129 -36.5 -233t-99 -169t-143.5 -99.5
t-172 -34.5q-190 0 -309 138.5t-119 379.5q0 128 36 232t98 170t143.5 101t173.5 35q192 0 310 -140t118 -380zM295 512q0 -195 70.5 -310.5t203.5 -115.5q129 0 206 109.5t77 308.5q0 195 -71 310.5t-203 115.5q-129 0 -206 -107.5t-77 -310.5z" />
    <glyph glyph-name="odieresis" unicode="&#xf6;" horiz-adv-x="1144" 
d="M469 1370q0 -52 -30 -89.5t-79 -37.5q-43 0 -69.5 31.5t-26.5 75.5q0 51 33 89t80 38q41 0 66.5 -30t25.5 -77zM881 1370q0 -52 -30 -89.5t-79 -37.5q-43 0 -69.5 31.5t-26.5 75.5q0 51 32.5 89t77.5 38q43 0 69 -30t26 -77zM1012 516q0 -129 -36.5 -233t-99 -169
t-143.5 -99.5t-172 -34.5q-190 0 -309 138.5t-119 379.5q0 128 36 232t98 170t143.5 101t173.5 35q192 0 310 -140t118 -380zM295 512q0 -195 70.5 -310.5t203.5 -115.5q129 0 206 109.5t77 308.5q0 195 -71 310.5t-203 115.5q-129 0 -206 -107.5t-77 -310.5z" />
    <glyph glyph-name="divide" unicode="&#xf7;" 
d="M696 1106q0 -52 -32 -85.5t-82 -33.5q-40 0 -66.5 27.5t-26.5 66.5q0 50 34 85.5t83 35.5q39 0 64.5 -27t25.5 -69zM1044 659h-921v97q348 10 921 10l11 -10zM698 344q0 -52 -32 -85.5t-82 -33.5q-40 0 -66 27.5t-26 66.5q0 50 33.5 85.5t82.5 35.5q39 0 64.5 -27
t25.5 -69z" />
    <glyph glyph-name="oslash" unicode="&#xf8;" horiz-adv-x="1144" 
d="M1012 516q0 -129 -36.5 -233t-99 -169t-143.5 -99.5t-172 -34.5q-184 0 -301 129l-113 -121l-65 63l125 133q-74 129 -74 314q0 128 36 232t98 170t143.5 101t173.5 35q181 0 299 -127l112 121l68 -61l-127 -135q76 -130 76 -318zM295 512q-3 -106 24 -205l467 498
q-73 125 -208 125q-129 0 -206 -107.5t-77 -310.5zM852 504q0 109 -27 209l-467 -498q71 -129 211 -129q129 0 206 109.5t77 308.5z" />
    <glyph glyph-name="ugrave" unicode="&#xf9;" horiz-adv-x="1146" 
d="M711 1182q-206 134 -328 317l8 29l144 28q65 -145 227 -350zM197 694q0 162 -15 318l152 24l16 -16v-719q0 -96 44.5 -147.5t131.5 -51.5q123 0 260 121v793l154 20v-747q0 -158 39 -285l-131 -24q-30 58 -49 153h-4q-153 -153 -328 -153q-129 0 -199.5 72.5t-70.5 203.5
v438z" />
    <glyph glyph-name="uacute" unicode="&#xfa;" horiz-adv-x="1146" 
d="M752 1524l10 -29q-118 -177 -328 -319l-51 26q162 205 227 350zM197 694q0 162 -15 318l152 24l16 -16v-719q0 -96 44.5 -147.5t131.5 -51.5q123 0 260 121v793l154 20v-747q0 -158 39 -285l-131 -24q-30 58 -49 153h-4q-153 -153 -328 -153q-129 0 -199.5 72.5
t-70.5 203.5v438z" />
    <glyph glyph-name="ucircumflex" unicode="&#xfb;" horiz-adv-x="1146" 
d="M340 1171l-49 39q121 161 211 320l127 12q99 -165 231 -332l-51 -39q-123 109 -244 242q-128 -149 -225 -242zM197 694q0 162 -15 318l152 24l16 -16v-719q0 -96 44.5 -147.5t131.5 -51.5q123 0 260 121v793l154 20v-747q0 -158 39 -285l-131 -24q-30 58 -49 153h-4
q-153 -153 -328 -153q-129 0 -199.5 72.5t-70.5 203.5v438z" />
    <glyph glyph-name="udieresis" unicode="&#xfc;" horiz-adv-x="1146" 
d="M469 1370q0 -52 -30 -89.5t-79 -37.5q-43 0 -69.5 31.5t-26.5 75.5q0 51 33 89t78 38q42 0 68 -29.5t26 -77.5zM881 1370q0 -52 -30 -89.5t-79 -37.5q-43 0 -69.5 31.5t-26.5 75.5q0 52 31.5 89.5t78.5 37.5q43 0 69 -30t26 -77zM197 694q0 162 -15 318l152 24l16 -16
v-719q0 -96 44.5 -147.5t131.5 -51.5q123 0 260 121v793l154 20v-747q0 -158 39 -285l-131 -24q-30 58 -49 153h-4q-153 -153 -328 -153q-129 0 -199.5 72.5t-70.5 203.5v438z" />
    <glyph glyph-name="yacute" unicode="&#xfd;" horiz-adv-x="946" 
d="M668 1524l10 -29q-119 -178 -330 -319l-51 26q161 203 229 350zM913 1006l-352 -986q-176 -507 -502 -544l-24 149q134 15 234.5 112.5t172.5 291.5h-43l-350 995l158 12l162 -491q61 -168 85.5 -247.5t37.5 -162.5h2q16 80 40 155.5t87 254.5l161 491l119 -12z" />
    <glyph glyph-name="thorn" unicode="&#xfe;" horiz-adv-x="1153" 
d="M195 1206q0 153 -19 318l154 24l18 -16v-600q113 104 273 104q171 0 285 -137.5t114 -378.5q0 -242 -117 -391t-321 -149q-128 0 -234 49v-213q0 -142 19 -310l-154 -26l-18 18v1708zM569 926q-133 0 -221 -99v-692q101 -53 209 -53q145 0 223 112.5t78 315.5
q0 204 -78.5 310t-210.5 106z" />
    <glyph glyph-name="ydieresis" unicode="&#xff;" horiz-adv-x="946" 
d="M383 1370q0 -52 -29 -89.5t-78 -37.5q-43 0 -70.5 31.5t-27.5 75.5q0 51 33 89t80 38q42 0 67 -29.5t25 -77.5zM795 1370q0 -52 -30 -89.5t-79 -37.5q-43 0 -69.5 31.5t-26.5 75.5q0 52 32.5 89.5t79.5 37.5q41 0 67 -30t26 -77zM913 1006l-352 -986q-176 -507 -502 -544
l-24 149q134 15 234.5 112.5t172.5 291.5h-43l-350 995l158 12l162 -491q61 -168 85.5 -247.5t37.5 -162.5h2q16 80 40 155.5t87 254.5l161 491l119 -12z" />
    <glyph glyph-name="Amacron" unicode="&#x100;" horiz-adv-x="1253" 
d="M356 1669v109h543v-109h-543zM201 0h-152l420 1206q52 148 68 211l155 8l23 -20l489 -1405h-162l-143 408h-555zM492 827l-105 -297h469l-102 297q-104 314 -129 428h-4q-24 -104 -129 -428z" />
    <glyph glyph-name="amacron" unicode="&#x101;" horiz-adv-x="1032" 
d="M211 1309v102h557v-102h-557zM829 295q0 -159 50 -295l-138 -20q-34 70 -49 143h-2q-45 -59 -130 -101t-183 -42q-122 0 -193 66.5t-71 174.5q0 84 45.5 150t126 107t179 64.5t214.5 30.5v136q0 206 -211 206q-156 0 -311 -96l-9 131q176 86 353 86q163 0 248.5 -79
t85.5 -218q0 -76 -2.5 -239t-2.5 -205zM268 244q0 -66 41.5 -112t120.5 -46q64 0 134 33t114 82v295q-115 -8 -205 -37t-147.5 -84.5t-57.5 -130.5z" />
    <glyph glyph-name="Abreve" unicode="&#x102;" horiz-adv-x="1253" 
d="M819 1845h72q-20 -111 -92 -176t-178 -65q-102 0 -172.5 62.5t-83.5 168.5l69 10q20 -57 72 -89t125 -32q67 0 117 33t71 88zM201 0h-152l420 1206q52 148 68 211l155 8l23 -20l489 -1405h-162l-143 408h-555zM492 827l-105 -297h469l-102 297q-104 314 -129 428h-4
q-24 -104 -129 -428z" />
    <glyph glyph-name="abreve" unicode="&#x103;" horiz-adv-x="1032" 
d="M680 1509h72q-20 -133 -92.5 -210.5t-178.5 -77.5q-103 0 -173 74.5t-83 203.5l70 10q20 -78 72 -122t125 -44q67 0 117.5 45t70.5 121zM829 295q0 -159 50 -295l-138 -20q-34 70 -49 143h-2q-45 -59 -130 -101t-183 -42q-122 0 -193 66.5t-71 174.5q0 84 45.5 150
t126 107t179 64.5t214.5 30.5v136q0 206 -211 206q-156 0 -311 -96l-9 131q176 86 353 86q163 0 248.5 -79t85.5 -218q0 -76 -2.5 -239t-2.5 -205zM268 244q0 -66 41.5 -112t120.5 -46q64 0 134 33t114 82v295q-115 -8 -205 -37t-147.5 -84.5t-57.5 -130.5z" />
    <glyph glyph-name="Aogonek" unicode="&#x104;" horiz-adv-x="1253" 
d="M201 0h-152l420 1206q52 148 68 211l155 8l23 -20l489 -1405q-229 -127 -229 -256q0 -48 27.5 -75t80.5 -27q52 0 113 26l27 -65q-35 -29 -85.5 -46.5t-101.5 -17.5q-91 0 -144.5 44.5t-53.5 123.5q0 80 62 155t181 138h-39l-143 408h-555zM492 827l-105 -297h469
l-102 297q-104 314 -129 428h-4q-24 -104 -129 -428z" />
    <glyph glyph-name="aogonek" unicode="&#x105;" horiz-adv-x="1032" 
d="M879 0q-230 -127 -230 -256q0 -48 28 -75t81 -27q51 0 112 26l27 -65q-77 -64 -186 -64q-92 0 -145.5 44.5t-53.5 123.5q0 76 57 149t168 134q-30 65 -45 133h-2q-45 -59 -130 -101t-183 -42q-122 0 -193 66.5t-71 174.5q0 84 45.5 150t126 107t179 64.5t214.5 30.5v136
q0 206 -211 206q-156 0 -311 -96l-9 131q176 86 353 86q163 0 248.5 -79t85.5 -218q0 -76 -2.5 -239t-2.5 -205q0 -159 50 -295zM268 244q0 -66 41.5 -112t120.5 -46q64 0 134 33t114 82v295q-115 -8 -205 -37t-147.5 -84.5t-57.5 -130.5z" />
    <glyph glyph-name="Cacute" unicode="&#x106;" horiz-adv-x="1212" 
d="M965 1772l-7 -29q-211 -121 -495 -152l-17 47q256 106 418 228zM1094 223l18 -133q-71 -54 -174 -82t-211 -28q-267 0 -427.5 185.5t-160.5 516.5q0 340 169.5 541.5t436.5 201.5q98 0 193.5 -23t161.5 -65l-31 -145q-136 98 -317 98q-197 0 -322 -157.5t-125 -438.5
q0 -170 51 -300t153 -204.5t243 -74.5q188 0 342 108z" />
    <glyph glyph-name="cacute" unicode="&#x107;" horiz-adv-x="980" 
d="M754 1524l10 -29q-119 -178 -330 -319l-51 26q161 203 229 350zM885 969l-39 -129q-105 75 -238 75q-143 0 -228 -103.5t-85 -295.5q0 -193 83.5 -305.5t235.5 -112.5q126 0 252 78l13 -113q-120 -83 -293 -83q-204 0 -328.5 136.5t-124.5 383.5q0 252 130.5 394
t344.5 142q162 0 277 -67z" />
    <glyph glyph-name="Ccircumflex" unicode="&#x108;" horiz-adv-x="1212" 
d="M440 1579l-43 39q113 100 236 244l125 12q113 -131 256 -256l-45 -39q-137 77 -273 178q-143 -112 -256 -178zM1094 223l18 -133q-71 -54 -174 -82t-211 -28q-267 0 -427.5 185.5t-160.5 516.5q0 340 169.5 541.5t436.5 201.5q98 0 193.5 -23t161.5 -65l-31 -145
q-136 98 -317 98q-197 0 -322 -157.5t-125 -438.5q0 -170 51 -300t153 -204.5t243 -74.5q188 0 342 108z" />
    <glyph glyph-name="ccircumflex" unicode="&#x109;" horiz-adv-x="980" 
d="M340 1171l-49 39q129 172 213 320l125 12q113 -183 231 -332l-49 -39q-113 97 -244 242q-139 -159 -227 -242zM885 969l-39 -129q-105 75 -238 75q-143 0 -228 -103.5t-85 -295.5q0 -193 83.5 -305.5t235.5 -112.5q126 0 252 78l13 -113q-120 -83 -293 -83
q-204 0 -328.5 136.5t-124.5 383.5q0 252 130.5 394t344.5 142q162 0 277 -67z" />
    <glyph glyph-name="Cdotaccent" unicode="&#x10a;" horiz-adv-x="1212" 
d="M819 1745q0 -50 -32 -84.5t-87 -34.5q-50 0 -79 29.5t-29 73.5q0 47 36 81.5t89 34.5q47 0 74.5 -27.5t27.5 -72.5zM1094 223l18 -133q-71 -54 -174 -82t-211 -28q-267 0 -427.5 185.5t-160.5 516.5q0 340 169.5 541.5t436.5 201.5q98 0 193.5 -23t161.5 -65l-31 -145
q-136 98 -317 98q-197 0 -322 -157.5t-125 -438.5q0 -170 51 -300t153 -204.5t243 -74.5q188 0 342 108z" />
    <glyph glyph-name="cdotaccent" unicode="&#x10b;" horiz-adv-x="980" 
d="M682 1372q0 -53 -31.5 -91t-83.5 -38q-46 0 -74 32.5t-28 80.5q0 52 34.5 89.5t84.5 37.5q44 0 71 -30.5t27 -80.5zM885 969l-39 -129q-105 75 -238 75q-143 0 -228 -103.5t-85 -295.5q0 -193 83.5 -305.5t235.5 -112.5q126 0 252 78l13 -113q-120 -83 -293 -83
q-204 0 -328.5 136.5t-124.5 383.5q0 252 130.5 394t344.5 142q162 0 277 -67z" />
    <glyph glyph-name="Ccaron" unicode="&#x10c;" horiz-adv-x="1212" 
d="M969 1876l45 -39q-113 -99 -238 -244l-125 -12q-110 127 -254 256l43 39q137 -77 273 -178q143 112 256 178zM1094 223l18 -133q-71 -54 -174 -82t-211 -28q-267 0 -427.5 185.5t-160.5 516.5q0 340 169.5 541.5t436.5 201.5q98 0 193.5 -23t161.5 -65l-31 -145
q-136 98 -317 98q-197 0 -322 -157.5t-125 -438.5q0 -170 51 -300t153 -204.5t243 -74.5q188 0 342 108z" />
    <glyph glyph-name="ccaron" unicode="&#x10d;" horiz-adv-x="980" 
d="M811 1554l49 -38q-129 -172 -213 -320l-125 -12q-99 165 -231 332l49 38q102 -88 244 -241q134 153 227 241zM885 969l-39 -129q-105 75 -238 75q-143 0 -228 -103.5t-85 -295.5q0 -193 83.5 -305.5t235.5 -112.5q126 0 252 78l13 -113q-120 -83 -293 -83
q-204 0 -328.5 136.5t-124.5 383.5q0 252 130.5 394t344.5 142q162 0 277 -67z" />
    <glyph glyph-name="Dcaron" unicode="&#x10e;" horiz-adv-x="1394" 
d="M934 1876l45 -39q-113 -99 -238 -244l-125 -12q-110 127 -254 256l44 39q133 -75 272 -178q143 112 256 178zM1255 709q0 -220 -89.5 -382t-247 -244.5t-365.5 -82.5h-342v1087q0 179 -16 318h385q192 0 344.5 -82t241.5 -241.5t89 -372.5zM565 1284h-196v-1161h190
q259 0 395 151.5t136 425.5q0 268 -141.5 426t-383.5 158z" />
    <glyph glyph-name="dcaron" unicode="&#x10f;" horiz-adv-x="1157" 
d="M786 1524l154 24l18 -16v-1247q0 -155 50 -285l-140 -20q-26 53 -49 141h-2q-44 -63 -115 -102t-167 -39q-179 0 -290.5 137t-111.5 370q0 132 38 237.5t105 173t155 103t190 35.5q97 0 184 -32v202q0 177 -19 318zM1331 1548l15 -24q-34 -212 -156 -432l-53 8
q56 256 59 440zM295 504q0 -194 78 -306t211 -112q129 0 221 111v706q-94 33 -178 33q-147 0 -239.5 -110t-92.5 -322z" />
    <glyph glyph-name="Dcroat" unicode="&#x110;" horiz-adv-x="1394" 
d="M1255 709q0 -220 -89.5 -382t-247 -244.5t-365.5 -82.5h-342v657h-182v93h182v337q0 179 -16 318h385q192 0 344.5 -82t241.5 -241.5t89 -372.5zM780 657h-411v-534h190q259 0 395 151.5t136 425.5q0 268 -141.5 426t-383.5 158h-196v-534h411v-93z" />
    <glyph glyph-name="dcroat" unicode="&#x111;" horiz-adv-x="1157" 
d="M1159 1206h-201v-921q0 -155 50 -285l-140 -20q-26 53 -49 141h-2q-44 -63 -115 -102t-167 -39q-179 0 -290.5 137t-111.5 370q0 132 38 237.5t105 173t155 103t190 35.5q97 0 184 -32v202h-397v92h395q-3 116 -17 226l154 24l18 -16v-234h201v-92zM295 504
q0 -194 78 -306t211 -112q129 0 221 111v706q-94 33 -178 33q-147 0 -239.5 -110t-92.5 -322z" />
    <glyph glyph-name="Emacron" unicode="&#x112;" horiz-adv-x="1067" 
d="M315 1669v109h543v-109h-543zM985 131v-131h-774v1087q0 179 -16 318h755l17 -16l-2 -115l-596 12v-532l505 6l-2 -125l-503 6v-520z" />
    <glyph glyph-name="emacron" unicode="&#x113;" horiz-adv-x="1046" 
d="M272 1309v102h557v-102h-557zM926 526l-31 -30h-600q6 -195 94 -296.5t234 -101.5q135 0 268 88l12 -112q-52 -37 -135 -65.5t-180 -28.5q-207 0 -331 136t-124 380q0 127 35.5 231t97 170.5t141 102.5t168.5 36q161 0 257 -106t96 -283q0 -82 -2 -121zM567 930
q-109 0 -185.5 -93.5t-86.5 -265.5l477 15q0 11 1 35t1 38q0 123 -55 197t-152 74z" />
    <glyph glyph-name="Ebreve" unicode="&#x114;" horiz-adv-x="1067" 
d="M778 1845h72q-20 -111 -92 -176t-178 -65q-102 0 -172.5 62.5t-83.5 168.5l69 10q20 -57 72 -89t125 -32q67 0 117 33t71 88zM985 131v-131h-774v1087q0 179 -16 318h755l17 -16l-2 -115l-596 12v-532l505 6l-2 -125l-503 6v-520z" />
    <glyph glyph-name="ebreve" unicode="&#x115;" horiz-adv-x="1046" 
d="M741 1509h72q-20 -133 -92 -210.5t-178 -77.5q-103 0 -173 74.5t-83 203.5l69 10q20 -78 72 -122t125 -44q67 0 117.5 45t70.5 121zM926 526l-31 -30h-600q6 -195 94 -296.5t234 -101.5q135 0 268 88l12 -112q-52 -37 -135 -65.5t-180 -28.5q-207 0 -331 136t-124 380
q0 127 35.5 231t97 170.5t141 102.5t168.5 36q161 0 257 -106t96 -283q0 -82 -2 -121zM567 930q-109 0 -185.5 -93.5t-86.5 -265.5l477 15q0 11 1 35t1 38q0 123 -55 197t-152 74z" />
    <glyph glyph-name="Edotaccent" unicode="&#x116;" horiz-adv-x="1067" 
d="M700 1745q0 -50 -32 -84.5t-88 -34.5q-48 0 -77.5 29.5t-29.5 73.5q0 47 35.5 81.5t87.5 34.5q47 0 75.5 -27.5t28.5 -72.5zM985 131v-131h-774v1087q0 179 -16 318h755l17 -16l-2 -115l-596 12v-532l505 6l-2 -125l-503 6v-520z" />
    <glyph glyph-name="edotaccent" unicode="&#x117;" horiz-adv-x="1046" 
d="M659 1372q0 -53 -31 -91t-83 -38q-46 0 -74.5 32.5t-28.5 80.5q0 52 34.5 89.5t84.5 37.5q44 0 71 -30.5t27 -80.5zM926 526l-31 -30h-600q6 -195 94 -296.5t234 -101.5q135 0 268 88l12 -112q-52 -37 -135 -65.5t-180 -28.5q-207 0 -331 136t-124 380q0 127 35.5 231
t97 170.5t141 102.5t168.5 36q161 0 257 -106t96 -283q0 -82 -2 -121zM567 930q-109 0 -185.5 -93.5t-86.5 -265.5l477 15q0 11 1 35t1 38q0 123 -55 197t-152 74z" />
    <glyph glyph-name="Eogonek" unicode="&#x118;" horiz-adv-x="1067" 
d="M985 0q-229 -127 -229 -256q0 -48 27.5 -75t80.5 -27q51 0 115 26l27 -65q-80 -64 -189 -64q-92 0 -145.5 44.5t-53.5 123.5q0 80 62.5 155t181.5 138h-651v1087q0 179 -16 318h755l17 -16l-2 -115l-596 12v-532l505 6l-2 -125l-503 6v-520l616 10v-131z" />
    <glyph glyph-name="eogonek" unicode="&#x119;" horiz-adv-x="1052" 
d="M926 526l-31 -30h-600q6 -195 94 -296.5t234 -101.5q135 0 268 88l10 -114l-4 -4q-131 -91 -195.5 -168.5t-64.5 -149.5q0 -49 27 -76.5t81 -27.5q48 0 113 24l27 -63q-79 -66 -191 -66q-89 0 -142.5 46.5t-53.5 121.5q0 141 182 279q-39 -8 -92 -8q-207 0 -331 136
t-124 380q0 127 35.5 231t97 170.5t141 102.5t168.5 36q161 0 257 -106t96 -283q0 -82 -2 -121zM567 930q-109 0 -185.5 -93.5t-86.5 -265.5l477 15q0 11 1 35t1 38q0 123 -55 197t-152 74z" />
    <glyph glyph-name="Ecaron" unicode="&#x11a;" horiz-adv-x="1067" 
d="M850 1876l43 -39q-113 -100 -236 -244l-125 -12q-113 131 -256 256l46 39q118 -66 272 -178q143 112 256 178zM985 131v-131h-774v1087q0 179 -16 318h755l17 -16l-2 -115l-596 12v-532l505 6l-2 -125l-503 6v-520z" />
    <glyph glyph-name="ecaron" unicode="&#x11b;" horiz-adv-x="1046" 
d="M788 1554l50 -38q-129 -172 -213 -320l-125 -12q-96 160 -232 332l49 38q102 -88 244 -241q134 153 227 241zM926 526l-31 -30h-600q6 -195 94 -296.5t234 -101.5q135 0 268 88l12 -112q-52 -37 -135 -65.5t-180 -28.5q-207 0 -331 136t-124 380q0 127 35.5 231t97 170.5
t141 102.5t168.5 36q161 0 257 -106t96 -283q0 -82 -2 -121zM567 930q-109 0 -185.5 -93.5t-86.5 -265.5l477 15q0 11 1 35t1 38q0 123 -55 197t-152 74z" />
    <glyph glyph-name="Gcircumflex" unicode="&#x11c;" horiz-adv-x="1327" 
d="M446 1579l-45 39q126 112 236 244l127 12q110 -127 254 -256l-45 -39q-123 69 -273 178q-142 -111 -254 -178zM1153 612l16 -16l-4 -518q-82 -46 -200.5 -72t-225.5 -26q-279 0 -439.5 184t-160.5 512q0 346 175.5 547.5t471.5 201.5q201 0 342 -77l-28 -144
q-131 90 -305 90q-223 0 -356.5 -157t-133.5 -443q0 -173 50 -302.5t154 -205t253 -75.5q121 0 252 39v102q0 161 -19 340z" />
    <glyph glyph-name="gcircumflex" unicode="&#x11d;" horiz-adv-x="1003" 
d="M248 1171l-49 39q120 156 213 320l127 12q106 -176 229 -332l-49 -39q-113 97 -244 242q-129 -151 -227 -242zM236 156q3 96 83 166q-96 39 -152 124.5t-56 204.5q0 164 99 274.5t271 110.5q130 0 211 -63q38 39 101.5 62.5t126.5 23.5l22 -8l-4 -127h-197
q99 -99 99 -254q0 -161 -98.5 -269t-266.5 -108q-37 0 -78 6q-32 -43 -32 -96q0 -47 27.5 -71t90.5 -30l174 -12q83 -5 147 -30.5t107 -82.5t43 -139q0 -150 -130.5 -256t-354.5 -106q-192 0 -307 76.5t-115 193.5q0 69 38.5 121t86.5 74l66 -31q-52 -56 -52 -123
q0 -89 80 -153t219 -64q140 0 227 65.5t87 165.5q0 76 -53 120t-144 50l-156 13q-105 9 -156.5 53.5t-53.5 118.5zM688 662q0 130 -54.5 204t-156.5 74q-106 0 -160.5 -71.5t-54.5 -202.5q0 -130 56 -203.5t161 -73.5q103 0 156 71t53 202z" />
    <glyph glyph-name="Gbreve" unicode="&#x11e;" horiz-adv-x="1327" 
d="M903 1845h72q-20 -111 -92.5 -176t-180.5 -65q-102 0 -171.5 62t-84.5 169l70 10q20 -57 73 -89t126 -32q67 0 117 33t71 88zM1153 612l16 -16l-4 -518q-82 -46 -200.5 -72t-225.5 -26q-279 0 -439.5 184t-160.5 512q0 346 175.5 547.5t471.5 201.5q201 0 342 -77
l-28 -144q-131 90 -305 90q-223 0 -356.5 -157t-133.5 -443q0 -173 50 -302.5t154 -205t253 -75.5q121 0 252 39v102q0 161 -19 340z" />
    <glyph glyph-name="gbreve" unicode="&#x11f;" horiz-adv-x="1003" 
d="M674 1509h69q-19 -133 -91 -210.5t-179 -77.5q-103 0 -173 74.5t-83 203.5l70 10q20 -78 72 -122t124 -44q67 0 118 45t73 121zM236 156q3 96 83 166q-96 39 -152 124.5t-56 204.5q0 164 99 274.5t271 110.5q130 0 211 -63q38 39 101.5 62.5t126.5 23.5l22 -8l-4 -127
h-197q99 -99 99 -254q0 -161 -98.5 -269t-266.5 -108q-37 0 -78 6q-32 -43 -32 -96q0 -47 27.5 -71t90.5 -30l174 -12q83 -5 147 -30.5t107 -82.5t43 -139q0 -150 -130.5 -256t-354.5 -106q-192 0 -307 76.5t-115 193.5q0 69 38.5 121t86.5 74l66 -31q-52 -56 -52 -123
q0 -89 80 -153t219 -64q140 0 227 65.5t87 165.5q0 76 -53 120t-144 50l-156 13q-105 9 -156.5 53.5t-53.5 118.5zM688 662q0 130 -54.5 204t-156.5 74q-106 0 -160.5 -71.5t-54.5 -202.5q0 -130 56 -203.5t161 -73.5q103 0 156 71t53 202z" />
    <glyph glyph-name="Gdotaccent" unicode="&#x120;" horiz-adv-x="1327" 
d="M825 1745q0 -50 -32 -84.5t-88 -34.5q-49 0 -79 29.5t-30 73.5q0 46 36.5 81t88.5 35q47 0 75.5 -27.5t28.5 -72.5zM1153 612l16 -16l-4 -518q-82 -46 -200.5 -72t-225.5 -26q-279 0 -439.5 184t-160.5 512q0 346 175.5 547.5t471.5 201.5q201 0 342 -77l-28 -144
q-131 90 -305 90q-223 0 -356.5 -157t-133.5 -443q0 -173 50 -302.5t154 -205t253 -75.5q121 0 252 39v102q0 161 -19 340z" />
    <glyph glyph-name="gdotaccent" unicode="&#x121;" horiz-adv-x="1003" 
d="M590 1372q0 -53 -31.5 -91t-83.5 -38q-46 0 -74 32.5t-28 80.5q0 52 34.5 89.5t84.5 37.5q45 0 71.5 -30.5t26.5 -80.5zM236 156q3 96 83 166q-96 39 -152 124.5t-56 204.5q0 164 99 274.5t271 110.5q130 0 211 -63q38 39 101.5 62.5t126.5 23.5l22 -8l-4 -127h-197
q99 -99 99 -254q0 -161 -98.5 -269t-266.5 -108q-37 0 -78 6q-32 -43 -32 -96q0 -47 27.5 -71t90.5 -30l174 -12q83 -5 147 -30.5t107 -82.5t43 -139q0 -150 -130.5 -256t-354.5 -106q-192 0 -307 76.5t-115 193.5q0 69 38.5 121t86.5 74l66 -31q-52 -56 -52 -123
q0 -89 80 -153t219 -64q140 0 227 65.5t87 165.5q0 76 -53 120t-144 50l-156 13q-105 9 -156.5 53.5t-53.5 118.5zM688 662q0 130 -54.5 204t-156.5 74q-106 0 -160.5 -71.5t-54.5 -202.5q0 -130 56 -203.5t161 -73.5q103 0 156 71t53 202z" />
    <glyph glyph-name="Gcommaaccent" unicode="&#x122;" horiz-adv-x="1327" 
d="M1153 612l16 -16l-4 -518q-82 -46 -200.5 -72t-225.5 -26q-279 0 -439.5 184t-160.5 512q0 346 175.5 547.5t471.5 201.5q201 0 342 -77l-28 -144q-131 90 -305 90q-223 0 -356.5 -157t-133.5 -443q0 -173 50 -302.5t154 -205t253 -75.5q121 0 252 39v102q0 161 -19 340z
M657 -637q62 105 84 193q-40 3 -65 33t-25 73q0 46 29.5 82.5t79.5 36.5q47 0 74.5 -33t27.5 -92q0 -142 -147 -332z" />
    <glyph glyph-name="gcommaaccent" unicode="&#x123;" horiz-adv-x="1003" 
d="M575 1589q-61 -100 -83 -192q38 -1 64 -31.5t26 -73.5q0 -46 -29.5 -82t-79.5 -36q-47 0 -75.5 32.5t-28.5 91.5q0 145 149 332zM236 156q3 96 83 166q-96 39 -152 124.5t-56 204.5q0 164 99 274.5t271 110.5q130 0 211 -63q38 39 101.5 62.5t126.5 23.5l22 -8l-4 -127
h-197q99 -99 99 -254q0 -161 -98.5 -269t-266.5 -108q-37 0 -78 6q-32 -43 -32 -96q0 -47 27.5 -71t90.5 -30l174 -12q83 -5 147 -30.5t107 -82.5t43 -139q0 -150 -130.5 -256t-354.5 -106q-192 0 -307 76.5t-115 193.5q0 69 38.5 121t86.5 74l66 -31q-52 -56 -52 -123
q0 -89 80 -153t219 -64q140 0 227 65.5t87 165.5q0 76 -53 120t-144 50l-156 13q-105 9 -156.5 53.5t-53.5 118.5zM688 662q0 130 -54.5 204t-156.5 74q-106 0 -160.5 -71.5t-54.5 -202.5q0 -130 56 -203.5t161 -73.5q103 0 156 71t53 202z" />
    <glyph glyph-name="Hcircumflex" unicode="&#x124;" horiz-adv-x="1443" 
d="M457 1579l-43 39q122 109 235 244l127 12q107 -128 254 -256l-45 -39q-118 66 -272 178q-143 -112 -256 -178zM369 0h-158v1083q0 165 -16 322l157 20l17 -16v-649h704v323q0 185 -14 322l155 20l19 -16v-1409h-160v639h-704v-639z" />
    <glyph glyph-name="hcircumflex" unicode="&#x125;" horiz-adv-x="1157" 
d="M4 1647l-43 39q116 103 236 243l125 13q113 -131 256 -256l-46 -39q-133 75 -272 178q-143 -112 -256 -178zM348 0h-153v1206q0 174 -19 318l154 24l18 -16v-641q157 145 336 145q131 0 202.5 -76.5t71.5 -222.5v-737h-153v705q0 215 -184 215q-133 0 -273 -119v-801z
" />
    <glyph glyph-name="Hbar" unicode="&#x126;" horiz-adv-x="1443" 
d="M369 0h-158v1016h-150v92h148q0 168 -14 297l157 20l17 -16v-301h704q0 168 -14 297l155 20l19 -16v-301h149v-92h-149v-1016h-160v639h-704v-639zM369 760h704v256h-704v-256z" />
    <glyph glyph-name="hbar" unicode="&#x127;" horiz-adv-x="1157" 
d="M348 0h-153v1196h-191v92h191q-3 127 -19 236l154 24l18 -16v-244h408v-92h-408v-305q157 145 336 145q131 0 202.5 -76.5t71.5 -222.5v-737h-153v705q0 215 -184 215q-133 0 -273 -119v-801z" />
    <glyph glyph-name="Itilde" unicode="&#x128;" horiz-adv-x="579" 
d="M139 1849q41 0 83.5 -18t73 -39t69 -39t71.5 -18q79 0 135 110l47 -8q-8 -90 -58 -154.5t-134 -64.5q-40 0 -83.5 18t-75.5 39.5t-71 39.5t-71 18q-76 0 -135 -109l-47 8q9 84 59 150.5t137 66.5zM369 0h-158v1083q0 165 -16 322l157 20l17 -16v-1409z" />
    <glyph glyph-name="itilde" unicode="&#x129;" horiz-adv-x="550" 
d="M166 1487q30 0 61.5 -18t54.5 -39.5t49.5 -39.5t47.5 -18q59 0 94 111l47 -8q-2 -53 -19 -104t-52 -88.5t-80 -37.5q-29 0 -61 18t-55.5 39.5t-49.5 39.5t-45 18q-61 0 -97 -109l-47 9q5 86 45.5 156.5t106.5 70.5zM197 0v694q0 192 -19 318l156 24l16 -16v-1020h-153z
" />
    <glyph glyph-name="Imacron" unicode="&#x12a;" horiz-adv-x="579" 
d="M10 1669v109h543v-109h-543zM369 0h-158v1083q0 165 -16 322l157 20l17 -16v-1409z" />
    <glyph glyph-name="imacron" unicode="&#x12b;" horiz-adv-x="550" 
d="M47 1309v102h442v-102h-442zM197 0v694q0 192 -19 318l156 24l16 -16v-1020h-153z" />
    <glyph glyph-name="Ibreve" unicode="&#x12c;" horiz-adv-x="579" 
d="M473 1845h72q-20 -111 -92.5 -176t-178.5 -65q-102 0 -172.5 62.5t-83.5 168.5l70 10q20 -57 72 -89t125 -32q67 0 117 33t71 88zM369 0h-158v1083q0 165 -16 322l157 20l17 -16v-1409z" />
    <glyph glyph-name="ibreve" unicode="&#x12d;" horiz-adv-x="550" 
d="M428 1507h72q-17 -133 -81 -210.5t-159 -77.5q-89 0 -150 74.5t-73 203.5l69 10q15 -77 59 -121.5t105 -44.5q58 0 100.5 45t57.5 121zM197 0v694q0 192 -19 318l156 24l16 -16v-1020h-153z" />
    <glyph glyph-name="Iogonek" unicode="&#x12e;" horiz-adv-x="532" 
d="M346 0q-131 -134 -131 -256q0 -48 28 -75t81 -27q51 0 112 26l27 -65q-77 -64 -191 -64q-90 0 -142 45.5t-52 130.5q0 72 43.5 147t120.5 138h-31v1083q0 165 -16 322l157 20l17 -16v-1409h-23z" />
    <glyph glyph-name="iogonek" unicode="&#x12f;" horiz-adv-x="550" 
d="M377 1372q0 -53 -31.5 -91t-83.5 -38q-46 0 -74 32.5t-28 80.5q0 52 34.5 89.5t84.5 37.5q44 0 71 -30.5t27 -80.5zM197 0v694q0 192 -19 318l156 24l16 -16v-1020q-137 -122 -137 -238q0 -54 31 -85t88 -31q47 0 102 24l27 -63q-79 -66 -189 -66q-90 0 -143 51t-53 136
q0 140 170 272h-49z" />
    <glyph glyph-name="Idotaccent" unicode="&#x130;" horiz-adv-x="579" 
d="M395 1745q0 -50 -32.5 -84.5t-88.5 -34.5q-48 0 -77 29.5t-29 73.5q0 47 35.5 81.5t87.5 34.5q47 0 75.5 -27.5t28.5 -72.5zM369 0h-158v1083q0 165 -16 322l157 20l17 -16v-1409z" />
    <glyph glyph-name="dotlessi" unicode="&#x131;" horiz-adv-x="550" 
d="M197 0v694q0 192 -19 318l156 24l16 -16v-1020h-153z" />
    <glyph glyph-name="IJ" unicode="&#x132;" horiz-adv-x="1138" 
d="M369 0h-158v1083q0 165 -16 322l157 20l17 -16v-1409zM643 -395l-51 80q178 138 178 452v946q0 162 -18 318l159 24l17 -16v-1272q0 -209 -67 -330.5t-218 -201.5z" />
    <glyph glyph-name="ij" unicode="&#x133;" horiz-adv-x="1101" 
d="M377 1372q0 -53 -31.5 -91t-83.5 -38q-46 0 -74 32.5t-28 80.5q0 52 34.5 89.5t84.5 37.5q44 0 71 -30.5t27 -80.5zM928 1372q0 -53 -32 -91t-85 -38q-46 0 -74 32.5t-28 80.5q0 52 34 89.5t84 37.5q46 0 73.5 -30.5t27.5 -80.5zM197 0v694q0 192 -19 318l156 24l16 -16
v-1020h-153zM637 -524l-53 69q166 137 166 385v764q0 150 -19 318l154 24l18 -16v-1073q0 -179 -65.5 -290t-200.5 -181z" />
    <glyph glyph-name="Jcircumflex" unicode="&#x134;" horiz-adv-x="559" 
d="M4 1579l-45 39q126 112 236 244l127 12q113 -131 253 -256l-43 -39q-119 65 -274 178q-142 -111 -254 -178zM63 -395l-51 80q178 138 178 452v946q0 162 -18 318l160 24l18 -16v-1272q0 -208 -68 -330t-219 -202z" />
    <glyph glyph-name="jcircumflex" unicode="&#x135;" horiz-adv-x="552" 
d="M92 1188l-47 26q93 207 137 328l152 12q51 -131 153 -340l-47 -26q-82 89 -182 237q-88 -145 -166 -237zM86 -524l-53 69q166 134 166 385v764q0 150 -19 318l154 24l18 -16v-1073q0 -179 -65.5 -290t-200.5 -181z" />
    <glyph glyph-name="Kcommaaccent" unicode="&#x136;" horiz-adv-x="1208" 
d="M211 1083q0 181 -16 322l153 20l19 -16v-661h198q134 209 432 677l133 -24l13 -17l-449 -669l496 -715l-172 -18q-157 218 -449 645h-202v-627h-156v1083zM526 -637q62 105 84 193q-38 3 -64 33t-26 73q0 46 29.5 82.5t79.5 36.5q47 0 75.5 -33t28.5 -92
q0 -145 -149 -332z" />
    <glyph glyph-name="kcommaaccent" unicode="&#x137;" horiz-adv-x="1044" 
d="M195 1206q0 177 -19 318l154 24l18 -16v-959h160q132 187 309 463l117 -24l12 -19l-309 -428q105 -168 369 -565l-170 -20q-142 207 -320 497h-168v-477h-153v1206zM446 -637q62 105 84 193q-40 3 -65 33t-25 73q0 46 29.5 82.5t79.5 36.5q47 0 74.5 -33t27.5 -92
q0 -142 -147 -332z" />
    <glyph glyph-name="kgreenlandic" unicode="&#x138;" horiz-adv-x="1044" 
d="M195 694q0 177 -19 318l154 24l18 -16v-447h160q132 187 309 463l117 -24l12 -19l-309 -428q105 -168 369 -565l-170 -20q-142 207 -320 497h-168v-477h-153v694z" />
    <glyph glyph-name="Lacute" unicode="&#x139;" horiz-adv-x="1007" 
d="M758 1772l-6 -29q-210 -121 -496 -152l-16 47q254 105 417 228zM963 131v-131h-752v1085q0 163 -16 320l157 20l17 -16v-1288z" />
    <glyph glyph-name="lacute" unicode="&#x13a;" horiz-adv-x="550" 
d="M543 1876l-6 -27q-212 -120 -496 -151l-16 47q257 104 417 225zM350 0h-153v1206q0 177 -19 318l156 24l16 -16v-1532z" />
    <glyph glyph-name="Lcommaaccent" unicode="&#x13b;" horiz-adv-x="1007" 
d="M963 131v-131h-752v1085q0 163 -16 320l157 20l17 -16v-1288zM496 -637q62 105 84 193q-39 3 -65 33.5t-26 72.5q0 46 30.5 82.5t78.5 36.5q47 0 75.5 -33t28.5 -92q0 -145 -149 -332z" />
    <glyph glyph-name="lcommaaccent" unicode="&#x13c;" horiz-adv-x="550" 
d="M350 0h-153v1206q0 177 -19 318l156 24l16 -16v-1532zM176 -637q62 105 84 193q-40 3 -65 33t-25 73q0 46 29.5 82.5t79.5 36.5q47 0 74.5 -33t27.5 -92q0 -140 -148 -332z" />
    <glyph glyph-name="Lcaron" unicode="&#x13d;" horiz-adv-x="1007" 
d="M791 1520l14 -25q-30 -208 -154 -434l-55 10q58 260 61 438zM963 131v-131h-752v1085q0 163 -16 320l157 20l17 -16v-1288z" />
    <glyph glyph-name="lcaron" unicode="&#x13e;" horiz-adv-x="550" 
d="M678 1563l14 -25q-29 -202 -153 -434l-56 10q60 267 60 438zM350 0h-153v1206q0 177 -19 318l156 24l16 -16v-1532z" />
    <glyph glyph-name="Ldot" unicode="&#x13f;" horiz-adv-x="1007" 
d="M864 727q0 -52 -35.5 -88.5t-85.5 -36.5q-48 0 -81 33.5t-33 83.5q0 53 36 90t87 37q49 0 80.5 -33t31.5 -86zM963 131v-131h-752v1085q0 163 -16 320l157 20l17 -16v-1288z" />
    <glyph glyph-name="ldot" unicode="&#x140;" horiz-adv-x="1060" 
d="M350 0h-153v1206q0 177 -19 318l156 24l16 -16v-1532zM928 653q0 -53 -35.5 -89t-85.5 -36q-48 0 -81.5 33.5t-33.5 83.5q0 52 36 88.5t87 36.5q50 0 81.5 -32.5t31.5 -84.5z" />
    <glyph glyph-name="Lslash" unicode="&#x141;" horiz-adv-x="1007" 
d="M963 131v-131h-752v588l-188 -103l-46 82l234 129v389q0 163 -16 320l157 20l17 -16v-625l276 154l47 -84l-323 -178v-555z" />
    <glyph glyph-name="lslash" unicode="&#x142;" horiz-adv-x="550" 
d="M350 0h-153v756l-228 -127l-45 84l273 149v344q0 177 -19 318l156 24l16 -16v-584l242 133l47 -82l-289 -159v-840z" />
    <glyph glyph-name="Nacute" unicode="&#x143;" horiz-adv-x="1439" 
d="M967 1772l-6 -29q-214 -121 -496 -152l-16 47q258 108 417 228zM733 815q17 -27 81.5 -130.5t83.5 -135.5t62 -104.5t70.5 -126.5t54.5 -113h5q-8 135 -10.5 275t-2.5 575q0 176 -16 350l151 20l19 -18v-1407h-160q-95 156 -373 608q-12 19 -59.5 95t-59 94.5t-48 77.5
t-51 85t-41 72.5t-46 84.5t-39.5 79h-2q13 -188 13 -485v-711h-154v1087q0 161 -16 318l165 20q72 -118 197.5 -322.5t175.5 -287.5z" />
    <glyph glyph-name="nacute" unicode="&#x144;" horiz-adv-x="1167" 
d="M750 1524l10 -29q-119 -178 -330 -319l-51 26q161 203 229 350zM358 0h-153v698q0 164 -41 303l141 35q30 -67 47 -151q157 151 342 151q131 0 203 -76.5t72 -222.5v-737h-154v705q0 215 -184 215q-134 0 -273 -121v-799z" />
    <glyph glyph-name="Ncommaaccent" unicode="&#x145;" horiz-adv-x="1439" 
d="M733 815q17 -27 81.5 -130.5t83.5 -135.5t62 -104.5t70.5 -126.5t54.5 -113h5q-8 135 -10.5 275t-2.5 575q0 176 -16 350l151 20l19 -18v-1407h-160q-95 156 -373 608q-12 19 -59.5 95t-59 94.5t-48 77.5t-51 85t-41 72.5t-46 84.5t-39.5 79h-2q13 -188 13 -485v-711
h-154v1087q0 161 -16 318l165 20q72 -118 197.5 -322.5t175.5 -287.5zM631 -637q62 105 84 193q-40 3 -65 33t-25 73q0 46 29.5 82.5t78.5 36.5q47 0 75 -33t28 -92q0 -140 -148 -332z" />
    <glyph glyph-name="ncommaaccent" unicode="&#x146;" horiz-adv-x="1167" 
d="M358 0h-153v698q0 164 -41 303l141 35q30 -67 47 -151q157 151 342 151q131 0 203 -76.5t72 -222.5v-737h-154v705q0 215 -184 215q-134 0 -273 -121v-799zM485 -637q62 105 84 193q-38 3 -64 33t-26 73q0 46 30.5 82.5t78.5 36.5q47 0 75.5 -33t28.5 -92
q0 -145 -149 -332z" />
    <glyph glyph-name="Ncaron" unicode="&#x147;" horiz-adv-x="1439" 
d="M971 1876l43 -39q-113 -100 -236 -244l-125 -12q-113 131 -256 256l45 39q123 -69 273 -178q143 112 256 178zM733 815q17 -27 81.5 -130.5t83.5 -135.5t62 -104.5t70.5 -126.5t54.5 -113h5q-8 135 -10.5 275t-2.5 575q0 176 -16 350l151 20l19 -18v-1407h-160
q-95 156 -373 608q-12 19 -59.5 95t-59 94.5t-48 77.5t-51 85t-41 72.5t-46 84.5t-39.5 79h-2q13 -188 13 -485v-711h-154v1087q0 161 -16 318l165 20q72 -118 197.5 -322.5t175.5 -287.5z" />
    <glyph glyph-name="ncaron" unicode="&#x148;" horiz-adv-x="1167" 
d="M807 1554l49 -38q-129 -172 -213 -320l-125 -12q-99 165 -231 332l49 38q102 -88 244 -241q134 153 227 241zM358 0h-153v698q0 164 -41 303l141 35q30 -67 47 -151q157 151 342 151q131 0 203 -76.5t72 -222.5v-737h-154v705q0 215 -184 215q-134 0 -273 -121v-799z" />
    <glyph glyph-name="Eng" unicode="&#x14a;" horiz-adv-x="1439" 
d="M942 -383l-49 72q78 56 123 129.5t53 185.5l-171 279t-200 325q-12 19 -59.5 95t-59 94.5t-48 77.5t-51 85t-41 72.5t-46 84.5t-39.5 79h-2q13 -188 13 -485v-711h-154v1087q0 161 -16 318l165 20q72 -118 197.5 -322.5t175.5 -287.5q17 -27 81.5 -130.5t83.5 -135.5
t62 -104.5t70.5 -126.5t54.5 -113h5q-8 135 -10.5 275t-2.5 575q0 176 -16 350l151 20l19 -18v-1270q0 -207 -68 -327t-221 -193z" />
    <glyph glyph-name="eng" unicode="&#x14b;" horiz-adv-x="1167" 
d="M358 0h-153v698q0 164 -41 303l141 35q30 -67 47 -151q157 151 342 151q131 0 203 -76.5t72 -222.5v-706q0 -157 -46.5 -266.5t-146.5 -204.5l-63 63q102 183 102 408v674q0 215 -184 215q-134 0 -273 -121v-799z" />
    <glyph glyph-name="Omacron" unicode="&#x14c;" horiz-adv-x="1431" 
d="M457 1665v109h542v-109h-542zM1294 707q0 -173 -46.5 -313t-127.5 -229.5t-187 -137t-228 -47.5q-121 0 -224.5 47t-179.5 135t-119 221.5t-43 298.5q0 169 45.5 310t125 235t188 146t233.5 52q251 0 407 -194t156 -524zM305 698q0 -268 109.5 -430t300.5 -162t302 157
t111 437q0 270 -105 434t-294 164t-306.5 -161t-117.5 -439z" />
    <glyph glyph-name="omacron" unicode="&#x14d;" horiz-adv-x="1144" 
d="M293 1309v102h559v-102h-559zM1012 516q0 -129 -36.5 -233t-99 -169t-143.5 -99.5t-172 -34.5q-190 0 -309 138.5t-119 379.5q0 128 36 232t98 170t143.5 101t173.5 35q192 0 310 -140t118 -380zM295 512q0 -195 70.5 -310.5t203.5 -115.5q129 0 206 109.5t77 308.5
q0 195 -71 310.5t-203 115.5q-129 0 -206 -107.5t-77 -310.5z" />
    <glyph glyph-name="Obreve" unicode="&#x14e;" horiz-adv-x="1431" 
d="M922 1839h69q-19 -111 -91 -176.5t-179 -65.5q-102 0 -172.5 63t-83.5 171l70 10q20 -57 72 -89t124 -32q67 0 118 32t73 87zM1294 707q0 -173 -46.5 -313t-127.5 -229.5t-187 -137t-228 -47.5q-121 0 -224.5 47t-179.5 135t-119 221.5t-43 298.5q0 169 45.5 310t125 235
t188 146t233.5 52q251 0 407 -194t156 -524zM305 698q0 -268 109.5 -430t300.5 -162t302 157t111 437q0 270 -105 434t-294 164t-306.5 -161t-117.5 -439z" />
    <glyph glyph-name="obreve" unicode="&#x14f;" horiz-adv-x="1144" 
d="M764 1509h72q-20 -133 -92.5 -210.5t-180.5 -77.5q-102 0 -171.5 74.5t-84.5 203.5l70 10q20 -78 72.5 -122t125.5 -44q67 0 118 45t71 121zM1012 516q0 -129 -36.5 -233t-99 -169t-143.5 -99.5t-172 -34.5q-190 0 -309 138.5t-119 379.5q0 128 36 232t98 170t143.5 101
t173.5 35q192 0 310 -140t118 -380zM295 512q0 -195 70.5 -310.5t203.5 -115.5q129 0 206 109.5t77 308.5q0 195 -71 310.5t-203 115.5q-129 0 -206 -107.5t-77 -310.5z" />
    <glyph glyph-name="Ohungarumlaut" unicode="&#x150;" horiz-adv-x="1431" 
d="M729 1767l-6 -26q-163 -122 -389 -154l-17 47q199 104 324 226zM1139 1767l-6 -26q-162 -122 -390 -154l-16 47q199 104 324 226zM1294 707q0 -173 -46.5 -313t-127.5 -229.5t-187 -137t-228 -47.5q-121 0 -224.5 47t-179.5 135t-119 221.5t-43 298.5q0 169 45.5 310
t125 235t188 146t233.5 52q251 0 407 -194t156 -524zM305 698q0 -268 109.5 -430t300.5 -162t302 157t111 437q0 270 -105 434t-294 164t-306.5 -161t-117.5 -439z" />
    <glyph glyph-name="ohungarumlaut" unicode="&#x151;" horiz-adv-x="1144" 
d="M600 1532l10 -27q-117 -184 -303 -323l-51 24q152 179 227 350zM874 1532l9 -27q-114 -184 -303 -323l-52 24q153 180 230 350zM1012 516q0 -129 -36.5 -233t-99 -169t-143.5 -99.5t-172 -34.5q-190 0 -309 138.5t-119 379.5q0 128 36 232t98 170t143.5 101t173.5 35
q192 0 310 -140t118 -380zM295 512q0 -195 70.5 -310.5t203.5 -115.5q129 0 206 109.5t77 308.5q0 195 -71 310.5t-203 115.5q-129 0 -206 -107.5t-77 -310.5z" />
    <glyph glyph-name="OE" unicode="&#x152;" horiz-adv-x="1906" 
d="M1825 131v-131h-967q-70 -20 -153 -20q-121 0 -224.5 47t-179.5 135t-119 221.5t-43 298.5q0 169 45.5 310t125 235t188 146t233.5 52q83 0 150 -20h907l18 -16l-2 -115l-712 8q188 -182 200 -526l422 4l-2 -125l-420 6q-17 -335 -213 -518zM305 698q0 -268 109.5 -430
t300.5 -162t302 157t111 437q0 270 -105 434t-294 164t-306.5 -161t-117.5 -439z" />
    <glyph glyph-name="oe" unicode="&#x153;" horiz-adv-x="1763" 
d="M1642 526l-30 -30h-600q6 -196 93.5 -297t233.5 -101q138 0 271 88l10 -112q-47 -37 -131.5 -65.5t-179.5 -28.5q-129 0 -227 59t-154 168q-59 -109 -156.5 -168t-214.5 -59q-186 0 -305 139t-119 379q0 128 36 232t98.5 170t143 101t171.5 35q119 0 210 -60.5
t144 -170.5q58 110 153.5 170.5t208.5 60.5q157 0 252 -106t95 -283q0 -63 -3 -121zM295 512q0 -195 70.5 -310.5t203.5 -115.5q129 0 206 110t77 310q0 194 -71 309t-203 115q-129 0 -206 -107.5t-77 -310.5zM1284 930q-108 0 -184.5 -94t-85.5 -265l475 15q2 23 2 71
q0 126 -55 199.5t-152 73.5z" />
    <glyph glyph-name="Racute" unicode="&#x154;" horiz-adv-x="1202" 
d="M868 1765l-8 -26q-211 -121 -495 -152l-17 47q252 101 418 226zM369 0h-158v1087q0 179 -16 318h364q232 0 368 -116t136 -310q0 -143 -75 -239.5t-204 -139.5l342 -600l-170 -18q-175 316 -309 575h-278v-557zM549 1286h-180v-610h174q172 0 263 76.5t91 222.5
q0 140 -86 225.5t-262 85.5z" />
    <glyph glyph-name="racute" unicode="&#x155;" horiz-adv-x="786" 
d="M610 1524l8 -29q-121 -182 -327 -319l-51 26q162 205 227 350zM358 0h-153v698q0 164 -41 303l143 35q34 -79 49 -180q70 85 147.5 132.5t149.5 47.5q64 0 97 -26l-29 -142q-53 17 -92 17q-57 0 -131 -31t-140 -92v-762z" />
    <glyph glyph-name="Rcommaaccent" unicode="&#x156;" horiz-adv-x="1202" 
d="M369 0h-158v1087q0 179 -16 318h364q232 0 368 -116t136 -310q0 -143 -75 -239.5t-204 -139.5l342 -600l-170 -18q-175 316 -309 575h-278v-557zM549 1286h-180v-610h174q172 0 263 76.5t91 222.5q0 140 -86 225.5t-262 85.5zM516 -637q62 105 84 193q-40 3 -65 33
t-25 73q0 46 29.5 82.5t78.5 36.5q47 0 75 -33t28 -92q0 -140 -148 -332z" />
    <glyph glyph-name="rcommaaccent" unicode="&#x157;" horiz-adv-x="786" 
d="M358 0h-153v698q0 164 -41 303l143 35q34 -79 49 -180q70 85 147.5 132.5t149.5 47.5q64 0 97 -26l-29 -142q-53 17 -92 17q-57 0 -131 -31t-140 -92v-762zM176 -637q62 105 84 193q-38 3 -64 33t-26 73q0 46 30.5 82.5t78.5 36.5q47 0 75.5 -33t28.5 -92
q0 -143 -150 -332z" />
    <glyph glyph-name="Rcaron" unicode="&#x158;" horiz-adv-x="1202" 
d="M870 1872l45 -41q-132 -117 -235 -244l-127 -12q-110 127 -254 256l43 41q134 -77 274 -178q137 107 254 178zM369 0h-158v1087q0 179 -16 318h364q232 0 368 -116t136 -310q0 -143 -75 -239.5t-204 -139.5l342 -600l-170 -18q-175 316 -309 575h-278v-557zM549 1286
h-180v-610h174q172 0 263 76.5t91 222.5q0 140 -86 225.5t-262 85.5z" />
    <glyph glyph-name="rcaron" unicode="&#x159;" horiz-adv-x="786" 
d="M668 1554l49 -38q-129 -172 -213 -320l-125 -12q-109 177 -232 332l50 38q97 -83 243 -241q121 142 228 241zM358 0h-153v698q0 164 -41 303l143 35q34 -79 49 -180q70 85 147.5 132.5t149.5 47.5q64 0 97 -26l-29 -142q-53 17 -92 17q-57 0 -131 -31t-140 -92v-762z" />
    <glyph glyph-name="Sacute" unicode="&#x15a;" horiz-adv-x="1050" 
d="M807 1765l-6 -26q-210 -121 -496 -152l-16 47q252 101 418 226zM932 350q0 -171 -125.5 -270.5t-331.5 -99.5q-87 0 -183.5 18t-170.5 55l16 144q76 -43 172 -64.5t172 -21.5q136 0 211.5 62t75.5 165q0 48 -17.5 90t-42 71.5t-69 60.5t-78 49.5t-90.5 47.5q-3 1 -5 2
t-4.5 2.5t-4.5 2.5q-44 23 -69 37t-64.5 39t-62.5 45t-51 50.5t-43 61.5t-25.5 71t-10.5 85q0 171 127 271.5t332 100.5q85 0 171 -17t144 -46l-22 -145q-131 79 -297 79q-136 0 -213.5 -61t-77.5 -164q0 -38 10 -70.5t33 -61t44.5 -49.5t61 -45t64 -37.5t71.5 -37.5
q24 -12 35 -18q54 -28 91.5 -51t84 -60.5t75 -76.5t48 -94.5t19.5 -119.5z" />
    <glyph glyph-name="sacute" unicode="&#x15b;" horiz-adv-x="899" 
d="M623 1524l10 -29q-118 -177 -328 -319l-51 26q162 205 227 350zM758 975l-19 -131q-131 80 -252 80q-96 0 -152 -43.5t-56 -112.5q0 -47 28 -84.5t72.5 -64t98.5 -51t108.5 -52t99 -60.5t72.5 -83t28 -113q0 -125 -101 -202.5t-267 -77.5q-173 0 -305 69l18 129
q67 -41 147.5 -62.5t147.5 -21.5q98 0 153.5 42.5t55.5 109.5q0 40 -22 73.5t-58 56t-81.5 46t-93.5 43t-93.5 47t-81.5 58.5t-58 77.5t-22 102.5q0 128 101 207t266 79q137 0 266 -61z" />
    <glyph glyph-name="Scircumflex" unicode="&#x15c;" horiz-adv-x="1050" 
d="M283 1573l-43 41q120 107 235 244l125 12q113 -131 256 -256l-45 -41q-150 87 -272 178q-130 -101 -256 -178zM932 350q0 -171 -125.5 -270.5t-331.5 -99.5q-87 0 -183.5 18t-170.5 55l16 144q76 -43 172 -64.5t172 -21.5q136 0 211.5 62t75.5 165q0 48 -17.5 90
t-42 71.5t-69 60.5t-78 49.5t-90.5 47.5q-3 1 -5 2t-4.5 2.5t-4.5 2.5q-44 23 -69 37t-64.5 39t-62.5 45t-51 50.5t-43 61.5t-25.5 71t-10.5 85q0 171 127 271.5t332 100.5q85 0 171 -17t144 -46l-22 -145q-131 79 -297 79q-136 0 -213.5 -61t-77.5 -164q0 -38 10 -70.5
t33 -61t44.5 -49.5t61 -45t64 -37.5t71.5 -37.5q24 -12 35 -18q54 -28 91.5 -51t84 -60.5t75 -76.5t48 -94.5t19.5 -119.5z" />
    <glyph glyph-name="scircumflex" unicode="&#x15d;" horiz-adv-x="899" 
d="M211 1171l-49 39q121 161 211 320l127 12q99 -165 231 -332l-49 -39q-122 105 -246 242q-128 -149 -225 -242zM758 975l-19 -131q-131 80 -252 80q-96 0 -152 -43.5t-56 -112.5q0 -47 28 -84.5t72.5 -64t98.5 -51t108.5 -52t99 -60.5t72.5 -83t28 -113
q0 -125 -101 -202.5t-267 -77.5q-173 0 -305 69l18 129q67 -41 147.5 -62.5t147.5 -21.5q98 0 153.5 42.5t55.5 109.5q0 40 -22 73.5t-58 56t-81.5 46t-93.5 43t-93.5 47t-81.5 58.5t-58 77.5t-22 102.5q0 128 101 207t266 79q137 0 266 -61z" />
    <glyph glyph-name="Scedilla" unicode="&#x15e;" horiz-adv-x="1050" 
d="M733 -266q0 -58 -46.5 -102t-114 -66t-150.5 -29l-6 66q188 36 188 118q0 69 -133 80l-20 31l45 148h-21q-87 0 -183.5 18t-170.5 55l16 144q76 -43 172 -64.5t172 -21.5q136 0 211.5 62t75.5 165q0 48 -17.5 90t-42 71.5t-69 60.5t-78 49.5t-90.5 47.5q-3 1 -5 2
t-4.5 2.5t-4.5 2.5q-44 23 -69 37t-64.5 39t-62.5 45t-51 50.5t-43 61.5t-25.5 71t-10.5 85q0 171 127 271.5t332 100.5q85 0 171 -17t144 -46l-22 -145q-131 79 -297 79q-136 0 -213.5 -61t-77.5 -164q0 -38 10 -70.5t33 -61t44.5 -49.5t61 -45t64 -37.5t71.5 -37.5
q24 -12 35 -18q54 -28 91.5 -51t84 -60.5t75 -76.5t48 -94.5t19.5 -119.5q0 -145 -91 -239t-249 -121l-37 -115q78 -10 128 -45t50 -96z" />
    <glyph glyph-name="scedilla" unicode="&#x15f;" horiz-adv-x="899" 
d="M651 -266q0 -86 -89.5 -135.5t-219.5 -61.5l-6 66q188 37 188 118q0 69 -135 80l-20 31l47 148q-174 0 -303 69l18 129q67 -41 147.5 -62.5t147.5 -21.5q98 0 153.5 42.5t55.5 109.5q0 40 -22 73.5t-58 56t-81.5 46t-93.5 43t-93.5 47t-81.5 58.5t-58 77.5t-22 102.5
q0 128 101 207t266 79q137 0 266 -61l-19 -131q-131 80 -252 80q-96 0 -152 -43.5t-56 -112.5q0 -47 28 -84.5t72.5 -64t98.5 -51t108.5 -52t99 -60.5t72.5 -83t28 -113q0 -106 -74 -179t-202 -93l-35 -113q77 -10 126.5 -45t49.5 -96z" />
    <glyph glyph-name="Scaron" unicode="&#x160;" horiz-adv-x="1050" 
d="M811 1872l45 -41q-124 -108 -238 -244l-124 -12q-110 127 -254 256l43 41q150 -87 272 -178q130 101 256 178zM932 350q0 -171 -125.5 -270.5t-331.5 -99.5q-87 0 -183.5 18t-170.5 55l16 144q76 -43 172 -64.5t172 -21.5q136 0 211.5 62t75.5 165q0 48 -17.5 90
t-42 71.5t-69 60.5t-78 49.5t-90.5 47.5q-3 1 -5 2t-4.5 2.5t-4.5 2.5q-44 23 -69 37t-64.5 39t-62.5 45t-51 50.5t-43 61.5t-25.5 71t-10.5 85q0 171 127 271.5t332 100.5q85 0 171 -17t144 -46l-22 -145q-131 79 -297 79q-136 0 -213.5 -61t-77.5 -164q0 -38 10 -70.5
t33 -61t44.5 -49.5t61 -45t64 -37.5t71.5 -37.5q24 -12 35 -18q54 -28 91.5 -51t84 -60.5t75 -76.5t48 -94.5t19.5 -119.5z" />
    <glyph glyph-name="scaron" unicode="&#x161;" horiz-adv-x="899" 
d="M682 1554l49 -38q-120 -156 -213 -320l-127 -12q-106 176 -229 332l49 38q112 -99 244 -241q125 147 227 241zM758 975l-19 -131q-131 80 -252 80q-96 0 -152 -43.5t-56 -112.5q0 -47 28 -84.5t72.5 -64t98.5 -51t108.5 -52t99 -60.5t72.5 -83t28 -113
q0 -125 -101 -202.5t-267 -77.5q-173 0 -305 69l18 129q67 -41 147.5 -62.5t147.5 -21.5q98 0 153.5 42.5t55.5 109.5q0 40 -22 73.5t-58 56t-81.5 46t-93.5 43t-93.5 47t-81.5 58.5t-58 77.5t-22 102.5q0 128 101 207t266 79q137 0 266 -61z" />
    <glyph glyph-name="Tcedilla" unicode="&#x162;" horiz-adv-x="1099" 
d="M631 0h-29l-41 -125q77 -10 126.5 -45t49.5 -96q0 -86 -89.5 -135.5t-219.5 -61.5l-6 66q188 37 188 118q0 69 -135 80l-20 31l53 168h-37v1282q-215 -3 -428 -12l10 135h994l10 -135q-215 9 -426 12v-1282z" />
    <glyph glyph-name="tcedilla" unicode="&#x163;" horiz-adv-x="739" 
d="M618 -266q0 -58 -46.5 -102t-113.5 -66t-149 -29l-8 66q191 37 191 118q0 69 -136 80l-20 31l49 158q-180 47 -180 323v611l-150 2v69l152 21l37 239l102 11l19 -19l-7 -231h279l12 -17l-6 -79l-285 2v-592q0 -124 39 -178t117 -54q85 0 164 52l20 -107q-99 -63 -223 -63
l-35 -105q78 -10 128 -45t50 -96z" />
    <glyph glyph-name="Tcaron" unicode="&#x164;" horiz-adv-x="1099" 
d="M815 1872l43 -41q-132 -117 -235 -244l-127 -12q-107 128 -254 256l45 41q135 -79 272 -178q130 101 256 178zM631 0h-160v1282q-215 -3 -428 -12l10 135h994l10 -135q-215 9 -426 12v-1282z" />
    <glyph glyph-name="tcaron" unicode="&#x165;" horiz-adv-x="739" 
d="M659 1565l15 -25q-31 -212 -154 -434l-55 10q58 260 61 438zM643 920l-285 2v-592q0 -124 39 -178t117 -54q85 0 164 52l20 -107q-99 -63 -227 -63q-266 0 -266 333v611l-150 2v69l152 21l37 239l102 11l19 -19l-7 -231h279l12 -17z" />
    <glyph glyph-name="Tbar" unicode="&#x166;" horiz-adv-x="1099" 
d="M631 0h-160v657h-295v93h295v532q-215 -3 -428 -12l10 135h994l10 -135q-215 9 -426 12v-532h295v-93h-295v-657z" />
    <glyph glyph-name="tbar" unicode="&#x167;" horiz-adv-x="739" 
d="M641 578h-283v-248q0 -124 39 -178t117 -54q85 0 164 52l20 -107q-99 -63 -227 -63q-266 0 -266 333v265h-148v92h148v254l-150 2v69l152 21l37 239l102 11l19 -19l-7 -231h279l12 -17l-6 -79l-285 2v-252h283v-92z" />
    <glyph glyph-name="Utilde" unicode="&#x168;" horiz-adv-x="1337" 
d="M526 1845q51 0 104.5 -28.5t103 -57t89.5 -28.5q45 0 77 28.5t61 79.5l47 -8q-10 -89 -61 -154t-134 -65q-40 0 -83.5 18.5t-75.5 40t-70.5 40t-69.5 18.5q-77 0 -137 -111l-47 8q7 53 27.5 100t64.5 83t104 36zM182 1087q0 171 -20 322l170 16l10 -10v-950
q0 -168 92.5 -262t237.5 -94q147 0 238 92.5t91 263.5v643q0 164 -20 301l174 16v-964q0 -116 -39 -209t-106.5 -151.5t-157 -89.5t-193.5 -31q-135 0 -241.5 53t-171 163.5t-64.5 264.5v626z" />
    <glyph glyph-name="utilde" unicode="&#x169;" horiz-adv-x="1146" 
d="M432 1481q37 0 78 -18t70.5 -39.5t66 -39.5t66.5 -18q66 0 123 109l49 -9q-10 -90 -58 -158.5t-125 -68.5q-37 0 -79 18t-72.5 39.5t-67.5 39.5t-65 18q-66 0 -121 -111l-49 8q11 90 57.5 160t126.5 70zM197 694q0 162 -15 318l152 24l16 -16v-719q0 -96 44.5 -147.5
t131.5 -51.5q123 0 260 121v793l154 20v-747q0 -158 39 -285l-131 -24q-30 58 -49 153h-4q-153 -153 -328 -153q-129 0 -199.5 72.5t-70.5 203.5v438z" />
    <glyph glyph-name="Umacron" unicode="&#x16a;" horiz-adv-x="1337" 
d="M397 1665v109h543v-109h-543zM182 1087q0 171 -20 322l170 16l10 -10v-950q0 -168 92.5 -262t237.5 -94q147 0 238 92.5t91 263.5v643q0 164 -20 301l174 16v-964q0 -116 -39 -209t-106.5 -151.5t-157 -89.5t-193.5 -31q-135 0 -241.5 53t-171 163.5t-64.5 264.5v626z
" />
    <glyph glyph-name="umacron" unicode="&#x16b;" horiz-adv-x="1146" 
d="M293 1309v102h559v-102h-559zM197 694q0 162 -15 318l152 24l16 -16v-719q0 -96 44.5 -147.5t131.5 -51.5q123 0 260 121v793l154 20v-747q0 -158 39 -285l-131 -24q-30 58 -49 153h-4q-153 -153 -328 -153q-129 0 -199.5 72.5t-70.5 203.5v438z" />
    <glyph glyph-name="Ubreve" unicode="&#x16c;" horiz-adv-x="1337" 
d="M862 1839h70q-19 -111 -91 -176.5t-179 -65.5q-102 0 -172.5 63t-83.5 171l69 10q20 -57 72.5 -89t124.5 -32q67 0 117.5 32t72.5 87zM182 1087q0 171 -20 322l170 16l10 -10v-950q0 -168 92.5 -262t237.5 -94q147 0 238 92.5t91 263.5v643q0 164 -20 301l174 16v-964
q0 -116 -39 -209t-106.5 -151.5t-157 -89.5t-193.5 -31q-135 0 -241.5 53t-171 163.5t-64.5 264.5v626z" />
    <glyph glyph-name="ubreve" unicode="&#x16d;" horiz-adv-x="1146" 
d="M764 1509h70q-19 -133 -91.5 -210.5t-179.5 -77.5q-102 0 -171.5 74.5t-84.5 203.5l70 10q20 -78 72 -122t124 -44q68 0 118.5 45t72.5 121zM197 694q0 162 -15 318l152 24l16 -16v-719q0 -96 44.5 -147.5t131.5 -51.5q123 0 260 121v793l154 20v-747q0 -158 39 -285
l-131 -24q-30 58 -49 153h-4q-153 -153 -328 -153q-129 0 -199.5 72.5t-70.5 203.5v438z" />
    <glyph glyph-name="Uring" unicode="&#x16e;" horiz-adv-x="1337" 
d="M862 1743q0 -74 -56.5 -128t-137.5 -54q-71 0 -122.5 46t-51.5 111q0 75 58 129t140 54q73 0 121.5 -45t48.5 -113zM582 1726q0 -42 26 -68t68 -26q41 0 69.5 30.5t28.5 72.5t-24 69t-66 27q-44 0 -73 -31t-29 -74zM182 1087q0 171 -20 322l170 16l10 -10v-950
q0 -168 92.5 -262t237.5 -94q147 0 238 92.5t91 263.5v643q0 164 -20 301l174 16v-964q0 -116 -39 -209t-106.5 -151.5t-157 -89.5t-193.5 -31q-135 0 -241.5 53t-171 163.5t-64.5 264.5v626z" />
    <glyph glyph-name="uring" unicode="&#x16f;" horiz-adv-x="1146" 
d="M766 1354q0 -74 -57 -128.5t-138 -54.5q-71 0 -123.5 46.5t-52.5 111.5q0 74 59.5 128t139.5 54q75 0 123.5 -44.5t48.5 -112.5zM485 1337q0 -41 26 -67.5t67 -26.5q42 0 71 30.5t29 72.5t-24 69t-66 27q-44 0 -73.5 -31t-29.5 -74zM197 694q0 162 -15 318l152 24l16 -16
v-719q0 -96 44.5 -147.5t131.5 -51.5q123 0 260 121v793l154 20v-747q0 -158 39 -285l-131 -24q-30 58 -49 153h-4q-153 -153 -328 -153q-129 0 -199.5 72.5t-70.5 203.5v438z" />
    <glyph glyph-name="Uhungarumlaut" unicode="&#x170;" horiz-adv-x="1337" 
d="M670 1767l-6 -26q-162 -122 -390 -154l-16 47q199 104 324 226zM1079 1767l-6 -26q-163 -122 -389 -154l-16 47q197 103 323 226zM182 1087q0 171 -20 322l170 16l10 -10v-950q0 -168 92.5 -262t237.5 -94q147 0 238 92.5t91 263.5v643q0 164 -20 301l174 16v-964
q0 -116 -39 -209t-106.5 -151.5t-157 -89.5t-193.5 -31q-135 0 -241.5 53t-171 163.5t-64.5 264.5v626z" />
    <glyph glyph-name="uhungarumlaut" unicode="&#x171;" horiz-adv-x="1146" 
d="M600 1532l8 -27q-114 -184 -303 -323l-51 24q150 177 229 350zM872 1532l11 -27q-117 -184 -303 -323l-52 24q153 180 230 350zM197 694q0 162 -15 318l152 24l16 -16v-719q0 -96 44.5 -147.5t131.5 -51.5q123 0 260 121v793l154 20v-747q0 -158 39 -285l-131 -24
q-30 58 -49 153h-4q-153 -153 -328 -153q-129 0 -199.5 72.5t-70.5 203.5v438z" />
    <glyph glyph-name="Uogonek" unicode="&#x172;" horiz-adv-x="1337" 
d="M942 51q-225 -160 -225 -299q0 -110 106 -110q51 0 115 26l27 -65q-80 -64 -189 -64q-92 0 -145 45t-53 129q0 142 165 273q-41 -6 -84 -6q-135 0 -241.5 53t-171 163.5t-64.5 264.5v626q0 171 -20 322l170 16l10 -10v-950q0 -168 92.5 -262t237.5 -94q147 0 238 92.5
t91 263.5v643q0 164 -20 301l174 16v-964q0 -143 -56.5 -247t-156.5 -163z" />
    <glyph glyph-name="uogonek" unicode="&#x173;" horiz-adv-x="1146" 
d="M197 694q0 162 -15 318l152 24l16 -16v-719q0 -96 44.5 -147.5t131.5 -51.5q123 0 260 121v793l154 20v-747q0 -158 39 -285l-18 -2l4 -2q-230 -127 -230 -256q0 -48 27.5 -75t81.5 -27q51 0 112 26l27 -65q-35 -29 -86 -46.5t-102 -17.5q-91 0 -144 44.5t-53 123.5
t61 154t179 137q-27 68 -39 135h-4q-153 -153 -328 -153q-129 0 -199.5 72.5t-70.5 203.5v438z" />
    <glyph glyph-name="Wcircumflex" unicode="&#x174;" horiz-adv-x="2007" 
d="M737 1573l-43 41q135 120 236 244l127 12q107 -128 254 -256l-45 -41q-140 81 -273 178q-130 -101 -256 -178zM496 -8l-433 1417l162 16l250 -835q86 -286 107 -416q27 148 120 451l236 790l152 10l249 -835q87 -275 109 -416q25 135 119 449l239 802l125 -12l13 -16
l-431 -1405h-143l-272 870q-52 184 -92 344h-2q-32 -138 -95 -346l-270 -868h-143z" />
    <glyph glyph-name="wcircumflex" unicode="&#x175;" horiz-adv-x="1554" 
d="M549 1171l-49 39q129 172 213 320l125 12q99 -165 231 -332l-49 -39q-106 91 -246 242q-128 -149 -225 -242zM375 -8l-326 1032l156 12l143 -481q68 -213 111 -403h2q34 160 108 391l144 489h153l140 -471q5 -18 30 -96t35.5 -114.5t25.5 -95.5t21 -101h2q21 105 111 399
l143 483l119 -12l12 -18l-321 -1014h-150l-155 502q-7 24 -22.5 73.5t-22 70.5t-17.5 58.5t-16.5 61t-12 54t-10.5 58.5h-2q-17 -112 -98 -374l-156 -504h-147z" />
    <glyph glyph-name="Ycircumflex" unicode="&#x176;" horiz-adv-x="1146" 
d="M319 1573l-43 41q135 120 236 244l127 12q107 -128 254 -256l-45 -41q-140 81 -273 178q-130 -101 -256 -178zM494 504l-447 907l170 14l240 -497q87 -178 127 -289h4q72 165 133 291l235 495l131 -12l13 -16l-447 -899v-498h-159v504z" />
    <glyph glyph-name="ycircumflex" unicode="&#x177;" horiz-adv-x="946" 
d="M254 1171l-49 39q129 172 213 320l125 12q113 -183 231 -332l-49 -39q-113 97 -244 242q-139 -159 -227 -242zM913 1006l-352 -986q-176 -507 -502 -544l-24 149q134 15 234.5 112.5t172.5 291.5h-43l-350 995l158 12l162 -491q61 -168 85.5 -247.5t37.5 -162.5h2
q16 80 40 155.5t87 254.5l161 491l119 -12z" />
    <glyph glyph-name="Ydieresis" unicode="&#x178;" horiz-adv-x="1146" 
d="M897 1729q0 -49 -30 -84t-81 -35q-44 0 -71 28t-27 70q0 45 33.5 80t81.5 35q42 0 68 -26t26 -68zM483 1729q0 -49 -30 -84t-82 -35q-44 0 -71.5 28t-27.5 70q0 45 33.5 80t81.5 35q43 0 69.5 -26.5t26.5 -67.5zM494 504l-447 907l170 14l240 -497q87 -178 127 -289h4
q72 165 133 291l235 495l131 -12l13 -16l-447 -899v-498h-159v504z" />
    <glyph glyph-name="Zacute" unicode="&#x179;" horiz-adv-x="1064" 
d="M793 1765l-9 -26q-211 -121 -495 -152l-17 47q252 101 418 226zM88 0l-27 100l746 1174l-721 -8l10 139h854l39 -98l-741 -1176l749 10l-10 -141h-899z" />
    <glyph glyph-name="zacute" unicode="&#x17a;" horiz-adv-x="888" 
d="M629 1524l10 -29q-119 -178 -330 -319l-51 26q161 203 229 350zM70 885l10 131h715l16 -96l-578 -799l283 4q208 4 309 12l-10 -137h-735l-17 98l584 797z" />
    <glyph glyph-name="Zdotaccent" unicode="&#x17b;" horiz-adv-x="1064" 
d="M647 1741q0 -50 -33 -85.5t-88 -35.5q-49 0 -78.5 29t-29.5 73q0 47 36 83t89 36q47 0 75.5 -27.5t28.5 -72.5zM88 0l-27 100l746 1174l-721 -8l10 139h854l39 -98l-741 -1176l749 10l-10 -141h-899z" />
    <glyph glyph-name="zdotaccent" unicode="&#x17c;" horiz-adv-x="888" 
d="M557 1372q0 -53 -31.5 -91t-83.5 -38q-46 0 -74 32.5t-28 80.5q0 52 34.5 89.5t84.5 37.5q44 0 71 -30.5t27 -80.5zM70 885l10 131h715l16 -96l-578 -799l283 4q208 4 309 12l-10 -137h-735l-17 98l584 797z" />
    <glyph glyph-name="Zcaron" unicode="&#x17d;" horiz-adv-x="1064" 
d="M795 1872l45 -41q-135 -120 -236 -244l-127 -12q-110 127 -254 256l43 41q139 -79 275 -178q137 107 254 178zM88 0l-27 100l746 1174l-721 -8l10 139h854l39 -98l-741 -1176l749 10l-10 -141h-899z" />
    <glyph glyph-name="zcaron" unicode="&#x17e;" horiz-adv-x="888" 
d="M686 1554l49 -38q-129 -172 -213 -320l-125 -12q-99 165 -231 332l49 38q102 -88 244 -241q134 153 227 241zM70 885l10 131h715l16 -96l-578 -799l283 4q208 4 309 12l-10 -137h-735l-17 98l584 797z" />
    <glyph glyph-name="Schwa" unicode="&#x18f;" horiz-adv-x="1327" 
d="M152 760l36 39h828q-24 252 -145.5 375.5t-313.5 123.5q-174 0 -342 -104l-8 127q54 40 158 72t227 32q276 0 436 -183.5t160 -534.5q0 -180 -43.5 -320.5t-120.5 -228.5t-177 -133t-218 -45q-218 0 -354 146.5t-136 412.5q0 78 13 221zM303 539q0 -211 92.5 -324
t247.5 -113q182 0 280.5 153t98.5 425v22l-713 -22q-6 -64 -6 -141z" />
    <glyph glyph-name="florin" unicode="&#x192;" horiz-adv-x="1087" 
d="M397 608l-231 6l14 72l228 21h4l22 176q15 126 43 220.5t75.5 169t122.5 113.5t175 39q138 0 229 -57l-57 -131q-37 29 -84 48.5t-88 19.5q-116 0 -173.5 -99.5t-88.5 -339.5l-21 -159h363l10 -17l-22 -82h-365l-84 -667q-5 -35 -8 -57t-11.5 -63.5t-17.5 -69.5t-25 -67
t-35 -65.5t-47.5 -55.5t-61.5 -46.5t-77.5 -29t-95.5 -11.5q-111 0 -203 47l41 133q80 -59 170 -59q47 0 83.5 19t58 47t37 72.5t22 82.5t12.5 90l88 700h-2z" />
    <glyph glyph-name="Nhookleft" unicode="&#x19d;" horiz-adv-x="1421" 
d="M61 -383l-49 72q178 138 178 448v950q0 187 -16 318l166 20q72 -118 197.5 -322.5t175.5 -287.5q20 -33 82 -131.5t83 -134t63 -106t70 -125t56 -113.5h2q-8 130 -10 267.5t-2 582.5q0 196 -17 350l152 20l18 -18v-1407h-157q-146 235 -375 608q-12 19 -59.5 95t-59 94.5
t-48 77.5t-51 85t-41 72.5t-46 84.5t-39.5 79h-2q12 -174 12 -485v-574q0 -206 -67 -326.5t-216 -193.5z" />
    <glyph glyph-name="Acaron" unicode="&#x1cd;" horiz-adv-x="1253" 
d="M891 1876l43 -39q-113 -100 -236 -244l-125 -12q-113 131 -256 256l45 39q123 -69 273 -178q143 112 256 178zM201 0h-152l420 1206q52 148 68 211l155 8l23 -20l489 -1405h-162l-143 408h-555zM492 827l-105 -297h469l-102 297q-104 314 -129 428h-4q-24 -104 -129 -428
z" />
    <glyph glyph-name="acaron" unicode="&#x1ce;" horiz-adv-x="1032" 
d="M727 1554l49 -38q-129 -172 -213 -320l-125 -12q-99 165 -231 332l49 38q102 -88 244 -241q134 153 227 241zM829 295q0 -159 50 -295l-138 -20q-34 70 -49 143h-2q-45 -59 -130 -101t-183 -42q-122 0 -193 66.5t-71 174.5q0 84 45.5 150t126 107t179 64.5t214.5 30.5
v136q0 206 -211 206q-156 0 -311 -96l-9 131q176 86 353 86q163 0 248.5 -79t85.5 -218q0 -76 -2.5 -239t-2.5 -205zM268 244q0 -66 41.5 -112t120.5 -46q64 0 134 33t114 82v295q-115 -8 -205 -37t-147.5 -84.5t-57.5 -130.5z" />
    <glyph glyph-name="Icaron" unicode="&#x1cf;" horiz-adv-x="579" 
d="M545 1876l43 -39q-113 -100 -236 -244l-125 -12q-113 131 -256 256l45 39q123 -69 273 -178q143 112 256 178zM369 0h-158v1083q0 165 -16 322l157 20l17 -16v-1409z" />
    <glyph glyph-name="icaron" unicode="&#x1d0;" horiz-adv-x="550" 
d="M440 1556l49 -26q-80 -171 -137 -328l-151 -12q-66 162 -156 340l49 26q99 -113 180 -237q81 133 166 237zM197 0v694q0 192 -19 318l156 24l16 -16v-1020h-153z" />
    <glyph glyph-name="Ocaron" unicode="&#x1d1;" horiz-adv-x="1431" 
d="M991 1872l45 -41q-120 -105 -237 -244l-125 -12q-110 127 -254 256l43 41q150 -87 272 -178q130 101 256 178zM1294 707q0 -173 -46.5 -313t-127.5 -229.5t-187 -137t-228 -47.5q-121 0 -224.5 47t-179.5 135t-119 221.5t-43 298.5q0 169 45.5 310t125 235t188 146
t233.5 52q251 0 407 -194t156 -524zM305 698q0 -268 109.5 -430t300.5 -162t302 157t111 437q0 270 -105 434t-294 164t-306.5 -161t-117.5 -439z" />
    <glyph glyph-name="ocaron" unicode="&#x1d2;" horiz-adv-x="1144" 
d="M811 1554l49 -38q-129 -172 -213 -320l-125 -12q-113 183 -231 332l49 38q102 -88 244 -241q125 147 227 241zM1012 516q0 -129 -36.5 -233t-99 -169t-143.5 -99.5t-172 -34.5q-190 0 -309 138.5t-119 379.5q0 128 36 232t98 170t143.5 101t173.5 35q192 0 310 -140
t118 -380zM295 512q0 -195 70.5 -310.5t203.5 -115.5q129 0 206 109.5t77 308.5q0 195 -71 310.5t-203 115.5q-129 0 -206 -107.5t-77 -310.5z" />
    <glyph glyph-name="Ucaron" unicode="&#x1d3;" horiz-adv-x="1337" 
d="M932 1872l45 -41q-124 -108 -238 -244l-125 -12q-110 127 -254 256l43 41q155 -90 273 -178q130 101 256 178zM182 1087q0 171 -20 322l170 16l10 -10v-950q0 -168 92.5 -262t237.5 -94q147 0 238 92.5t91 263.5v643q0 164 -20 301l174 16v-964q0 -116 -39 -209
t-106.5 -151.5t-157 -89.5t-193.5 -31q-135 0 -241.5 53t-171 163.5t-64.5 264.5v626z" />
    <glyph glyph-name="ucaron" unicode="&#x1d4;" horiz-adv-x="1146" 
d="M811 1554l49 -38q-120 -156 -213 -320l-127 -12q-106 176 -229 332l49 38q112 -99 244 -241q125 147 227 241zM197 694q0 162 -15 318l152 24l16 -16v-719q0 -96 44.5 -147.5t131.5 -51.5q123 0 260 121v793l154 20v-747q0 -158 39 -285l-131 -24q-30 58 -49 153h-4
q-153 -153 -328 -153q-129 0 -199.5 72.5t-70.5 203.5v438z" />
    <glyph glyph-name="Udieresismacron" unicode="&#x1d5;" horiz-adv-x="1337" 
d="M397 2081v110h543v-110h-543zM981 1729q0 -48 -30.5 -83.5t-80.5 -35.5q-44 0 -71 28t-27 70q0 46 32.5 80.5t80.5 34.5q44 0 70 -26t26 -68zM565 1729q0 -49 -29.5 -84t-80.5 -35q-44 0 -71.5 28t-27.5 70q0 45 33.5 80t81.5 35q42 0 68 -26t26 -68zM182 1087
q0 171 -20 322l170 16l10 -10v-950q0 -168 92.5 -262t237.5 -94q147 0 238 92.5t91 263.5v643q0 164 -20 301l174 16v-964q0 -116 -39 -209t-106.5 -151.5t-157 -89.5t-193.5 -31q-135 0 -241.5 53t-171 163.5t-64.5 264.5v626z" />
    <glyph glyph-name="udieresismacron" unicode="&#x1d6;" horiz-adv-x="1146" 
d="M293 1769v101h559v-101h-559zM469 1370q0 -52 -30 -89.5t-79 -37.5q-43 0 -69.5 31.5t-26.5 75.5q0 51 33 89t78 38q42 0 68 -29.5t26 -77.5zM881 1370q0 -52 -30 -89.5t-79 -37.5q-43 0 -69.5 31.5t-26.5 75.5q0 52 31.5 89.5t78.5 37.5q43 0 69 -30t26 -77zM197 694
q0 162 -15 318l152 24l16 -16v-719q0 -96 44.5 -147.5t131.5 -51.5q123 0 260 121v793l154 20v-747q0 -158 39 -285l-131 -24q-30 58 -49 153h-4q-153 -153 -328 -153q-129 0 -199.5 72.5t-70.5 203.5v438z" />
    <glyph glyph-name="Udieresisacute" unicode="&#x1d7;" horiz-adv-x="1337" 
d="M928 2183l-6 -26q-215 -123 -496 -154l-16 47q257 106 417 227zM981 1729q0 -48 -30.5 -83.5t-80.5 -35.5q-44 0 -71 28t-27 70q0 46 32.5 80.5t80.5 34.5q44 0 70 -26t26 -68zM565 1729q0 -49 -29.5 -84t-80.5 -35q-44 0 -71.5 28t-27.5 70q0 45 33.5 80t81.5 35
q42 0 68 -26t26 -68zM182 1087q0 171 -20 322l170 16l10 -10v-950q0 -168 92.5 -262t237.5 -94q147 0 238 92.5t91 263.5v643q0 164 -20 301l174 16v-964q0 -116 -39 -209t-106.5 -151.5t-157 -89.5t-193.5 -31q-135 0 -241.5 53t-171 163.5t-64.5 264.5v626z" />
    <glyph glyph-name="udieresisacute" unicode="&#x1d8;" horiz-adv-x="1146" 
d="M752 1982l10 -26q-123 -184 -328 -320l-51 25q166 213 227 350zM469 1370q0 -52 -30 -89.5t-79 -37.5q-43 0 -69.5 31.5t-26.5 75.5q0 51 33 89t78 38q42 0 68 -29.5t26 -77.5zM881 1370q0 -52 -30 -89.5t-79 -37.5q-43 0 -69.5 31.5t-26.5 75.5q0 52 31.5 89.5
t78.5 37.5q43 0 69 -30t26 -77zM197 694q0 162 -15 318l152 24l16 -16v-719q0 -96 44.5 -147.5t131.5 -51.5q123 0 260 121v793l154 20v-747q0 -158 39 -285l-131 -24q-30 58 -49 153h-4q-153 -153 -328 -153q-129 0 -199.5 72.5t-70.5 203.5v438z" />
    <glyph glyph-name="Udieresiscaron" unicode="&#x1d9;" horiz-adv-x="1337" 
d="M932 2290l45 -41q-113 -99 -238 -244l-125 -12q-110 127 -254 256l43 41q136 -79 273 -181q147 115 256 181zM981 1729q0 -48 -30.5 -83.5t-80.5 -35.5q-44 0 -71 28t-27 70q0 46 32.5 80.5t80.5 34.5q44 0 70 -26t26 -68zM565 1729q0 -49 -29.5 -84t-80.5 -35
q-44 0 -71.5 28t-27.5 70q0 45 33.5 80t81.5 35q42 0 68 -26t26 -68zM182 1087q0 171 -20 322l170 16l10 -10v-950q0 -168 92.5 -262t237.5 -94q147 0 238 92.5t91 263.5v643q0 164 -20 301l174 16v-964q0 -116 -39 -209t-106.5 -151.5t-157 -89.5t-193.5 -31
q-135 0 -241.5 53t-171 163.5t-64.5 264.5v626z" />
    <glyph glyph-name="udieresiscaron" unicode="&#x1da;" horiz-adv-x="1146" 
d="M811 2013l49 -37q-124 -161 -213 -321l-127 -13q-96 162 -229 334l49 37q123 -108 244 -239q117 137 227 239zM469 1370q0 -52 -30 -89.5t-79 -37.5q-43 0 -69.5 31.5t-26.5 75.5q0 51 33 89t78 38q42 0 68 -29.5t26 -77.5zM881 1370q0 -52 -30 -89.5t-79 -37.5
q-43 0 -69.5 31.5t-26.5 75.5q0 52 31.5 89.5t78.5 37.5q43 0 69 -30t26 -77zM197 694q0 162 -15 318l152 24l16 -16v-719q0 -96 44.5 -147.5t131.5 -51.5q123 0 260 121v793l154 20v-747q0 -158 39 -285l-131 -24q-30 58 -49 153h-4q-153 -153 -328 -153
q-129 0 -199.5 72.5t-70.5 203.5v438z" />
    <glyph glyph-name="Udieresisgrave" unicode="&#x1db;" horiz-adv-x="1337" 
d="M911 2003q-277 30 -495 154l-6 26l100 94q155 -116 418 -227zM981 1729q0 -48 -30.5 -83.5t-80.5 -35.5q-44 0 -71 28t-27 70q0 46 32.5 80.5t80.5 34.5q44 0 70 -26t26 -68zM565 1729q0 -49 -29.5 -84t-80.5 -35q-44 0 -71.5 28t-27.5 70q0 45 33.5 80t81.5 35
q42 0 68 -26t26 -68zM182 1087q0 171 -20 322l170 16l10 -10v-950q0 -168 92.5 -262t237.5 -94q147 0 238 92.5t91 263.5v643q0 164 -20 301l174 16v-964q0 -116 -39 -209t-106.5 -151.5t-157 -89.5t-193.5 -31q-135 0 -241.5 53t-171 163.5t-64.5 264.5v626z" />
    <glyph glyph-name="udieresisgrave" unicode="&#x1dc;" horiz-adv-x="1146" 
d="M711 1640q-206 138 -328 320l8 27l144 28q63 -140 227 -350zM469 1370q0 -52 -30 -89.5t-79 -37.5q-43 0 -69.5 31.5t-26.5 75.5q0 51 33 89t78 38q42 0 68 -29.5t26 -77.5zM881 1370q0 -52 -30 -89.5t-79 -37.5q-43 0 -69.5 31.5t-26.5 75.5q0 52 31.5 89.5t78.5 37.5
q43 0 69 -30t26 -77zM197 694q0 162 -15 318l152 24l16 -16v-719q0 -96 44.5 -147.5t131.5 -51.5q123 0 260 121v793l154 20v-747q0 -158 39 -285l-131 -24q-30 58 -49 153h-4q-153 -153 -328 -153q-129 0 -199.5 72.5t-70.5 203.5v438z" />
    <glyph glyph-name="Gcaron" unicode="&#x1e6;" horiz-adv-x="1327" 
d="M975 1876l43 -39q-126 -112 -236 -244l-127 -12q-107 128 -254 256l45 39q123 -69 273 -178q143 112 256 178zM1153 612l16 -16l-4 -518q-82 -46 -200.5 -72t-225.5 -26q-279 0 -439.5 184t-160.5 512q0 346 175.5 547.5t471.5 201.5q201 0 342 -77l-28 -144
q-131 90 -305 90q-223 0 -356.5 -157t-133.5 -443q0 -173 50 -302.5t154 -205t253 -75.5q121 0 252 39v102q0 161 -19 340z" />
    <glyph glyph-name="gcaron" unicode="&#x1e7;" horiz-adv-x="1003" 
d="M719 1554l49 -38q-121 -161 -211 -320l-127 -12q-99 165 -231 332l49 38q92 -79 246 -241q123 144 225 241zM236 156q3 96 83 166q-96 39 -152 124.5t-56 204.5q0 164 99 274.5t271 110.5q130 0 211 -63q38 39 101.5 62.5t126.5 23.5l22 -8l-4 -127h-197q99 -99 99 -254
q0 -161 -98.5 -269t-266.5 -108q-37 0 -78 6q-32 -43 -32 -96q0 -47 27.5 -71t90.5 -30l174 -12q83 -5 147 -30.5t107 -82.5t43 -139q0 -150 -130.5 -256t-354.5 -106q-192 0 -307 76.5t-115 193.5q0 69 38.5 121t86.5 74l66 -31q-52 -56 -52 -123q0 -89 80 -153t219 -64
q140 0 227 65.5t87 165.5q0 76 -53 120t-144 50l-156 13q-105 9 -156.5 53.5t-53.5 118.5zM688 662q0 130 -54.5 204t-156.5 74q-106 0 -160.5 -71.5t-54.5 -202.5q0 -130 56 -203.5t161 -73.5q103 0 156 71t53 202z" />
    <glyph glyph-name="Oogonek" unicode="&#x1ea;" horiz-adv-x="1431" 
d="M1294 707q0 -231 -79.5 -396t-217.5 -250q-121 -94 -174 -165t-53 -144q0 -53 28.5 -81.5t82.5 -28.5q44 0 112 26l27 -65q-80 -64 -193 -64q-89 0 -141.5 48t-52.5 134q0 140 172 267q-44 -8 -100 -8q-121 0 -224.5 47t-179.5 135t-119 221.5t-43 298.5q0 169 45.5 310
t125 235t188 146t233.5 52q251 0 407 -194t156 -524zM305 698q0 -268 109.5 -430t300.5 -162t302 157t111 437q0 270 -105 434t-294 164t-306.5 -161t-117.5 -439z" />
    <glyph glyph-name="oogonek" unicode="&#x1eb;" horiz-adv-x="1144" 
d="M1012 516q0 -162 -54 -278.5t-149 -182.5q-201 -160 -201 -299q0 -110 109 -110q49 0 112 24l27 -63q-76 -66 -190 -66q-89 0 -142 45.5t-53 126.5q0 140 158 271q-46 -4 -68 -4q-190 0 -309 138.5t-119 379.5q0 128 36 232t98 170t143.5 101t173.5 35q192 0 310 -140
t118 -380zM295 512q0 -195 70.5 -310.5t203.5 -115.5q129 0 206 109.5t77 308.5q0 195 -71 310.5t-203 115.5q-129 0 -206 -107.5t-77 -310.5z" />
    <glyph glyph-name="Gacute" unicode="&#x1f4;" horiz-adv-x="1327" 
d="M971 1772l-6 -29q-213 -121 -496 -152l-18 47q252 104 419 228zM1153 612l16 -16l-4 -518q-82 -46 -200.5 -72t-225.5 -26q-279 0 -439.5 184t-160.5 512q0 346 175.5 547.5t471.5 201.5q201 0 342 -77l-28 -144q-131 90 -305 90q-223 0 -356.5 -157t-133.5 -443
q0 -173 50 -302.5t154 -205t253 -75.5q121 0 252 39v102q0 161 -19 340z" />
    <glyph glyph-name="gacute" unicode="&#x1f5;" horiz-adv-x="1003" 
d="M662 1524l10 -29q-119 -178 -330 -319l-51 26q156 193 229 350zM236 156q3 96 83 166q-96 39 -152 124.5t-56 204.5q0 164 99 274.5t271 110.5q130 0 211 -63q38 39 101.5 62.5t126.5 23.5l22 -8l-4 -127h-197q99 -99 99 -254q0 -161 -98.5 -269t-266.5 -108q-37 0 -78 6
q-32 -43 -32 -96q0 -47 27.5 -71t90.5 -30l174 -12q83 -5 147 -30.5t107 -82.5t43 -139q0 -150 -130.5 -256t-354.5 -106q-192 0 -307 76.5t-115 193.5q0 69 38.5 121t86.5 74l66 -31q-52 -56 -52 -123q0 -89 80 -153t219 -64q140 0 227 65.5t87 165.5q0 76 -53 120t-144 50
l-156 13q-105 9 -156.5 53.5t-53.5 118.5zM688 662q0 130 -54.5 204t-156.5 74q-106 0 -160.5 -71.5t-54.5 -202.5q0 -130 56 -203.5t161 -73.5q103 0 156 71t53 202z" />
    <glyph glyph-name="Aringacute" unicode="&#x1fa;" horiz-adv-x="1253" 
d="M887 2253l-6 -29q-212 -120 -496 -151l-16 47q261 110 417 227zM813 1735q0 -75 -57.5 -129t-137.5 -54q-73 0 -124.5 45.5t-51.5 112.5q0 75 58.5 128.5t140.5 53.5q75 0 123.5 -44.5t48.5 -112.5zM530 1718q0 -41 27 -68.5t68 -27.5q42 0 70 30.5t28 73.5
q0 42 -24 69.5t-66 27.5q-44 0 -73.5 -31t-29.5 -74zM201 0h-152l420 1206q52 148 68 211l155 8l23 -20l489 -1405h-162l-143 408h-555zM492 827l-105 -297h469l-102 297q-104 314 -129 428h-4q-24 -104 -129 -428z" />
    <glyph glyph-name="aringacute" unicode="&#x1fb;" horiz-adv-x="1032" 
d="M678 2017l10 -26q-120 -180 -330 -320l-51 25q160 201 230 350zM682 1354q0 -74 -57 -128.5t-138 -54.5q-71 0 -122.5 46t-51.5 112q0 75 58.5 128.5t140.5 53.5q73 0 121.5 -44.5t48.5 -112.5zM401 1337q0 -41 27 -67.5t68 -26.5q42 0 70 30.5t28 72.5t-24 69t-66 27
q-44 0 -73.5 -31t-29.5 -74zM829 295q0 -159 50 -295l-138 -20q-34 70 -49 143h-2q-45 -59 -130 -101t-183 -42q-122 0 -193 66.5t-71 174.5q0 84 45.5 150t126 107t179 64.5t214.5 30.5v136q0 206 -211 206q-156 0 -311 -96l-9 131q176 86 353 86q163 0 248.5 -79
t85.5 -218q0 -76 -2.5 -239t-2.5 -205zM268 244q0 -66 41.5 -112t120.5 -46q64 0 134 33t114 82v295q-115 -8 -205 -37t-147.5 -84.5t-57.5 -130.5z" />
    <glyph glyph-name="AEacute" unicode="&#x1fc;" horiz-adv-x="1744" 
d="M1202 1765l-6 -26q-213 -121 -496 -152l-18 47q250 100 420 226zM201 0h-152l572 1206q18 37 50 104t46 95h727l18 -16l-2 -115l-545 10l76 -528l459 4l-2 -125l-440 6l73 -520l582 10v-131h-725l-57 408h-488zM590 827l-139 -297h413l-41 297q-35 300 -41 428h-4
q-31 -79 -188 -428z" />
    <glyph glyph-name="aeacute" unicode="&#x1fd;" horiz-adv-x="1591" 
d="M981 1524l10 -29q-120 -179 -329 -319l-52 26q159 196 230 350zM1470 526l-30 -30h-600q6 -196 93.5 -297t233.5 -101q136 0 269 88l12 -112q-52 -37 -135 -65.5t-180 -28.5q-129 0 -228 53.5t-157 156.5q-57 -86 -159.5 -148t-217.5 -62q-119 0 -188.5 67t-69.5 176
q0 67 30.5 123t82.5 95t125 67.5t154 43.5t173 21v136q0 206 -213 206q-157 0 -309 -96l-9 131q176 86 355 86q226 0 299 -149q125 149 319 149q161 0 257 -106t96 -283q0 -63 -3 -121zM1112 930q-109 0 -185.5 -93.5t-86.5 -265.5l477 15q0 11 1 34.5t1 36.5
q0 126 -55 199.5t-152 73.5zM268 244q0 -66 41.5 -112t120.5 -46q84 0 164.5 48.5t124.5 119.5q-41 103 -41 242q-115 -8 -205 -37t-147.5 -84.5t-57.5 -130.5z" />
    <glyph glyph-name="Oslashacute" unicode="&#x1fe;" horiz-adv-x="1431" 
d="M987 1765l-6 -26q-210 -121 -496 -152l-16 47q252 101 418 226zM1294 707q0 -173 -46.5 -313t-127.5 -229.5t-187 -137t-228 -47.5q-251 0 -404 182l-145 -170l-72 63l160 187q-105 180 -105 440q0 169 45.5 310t125 235t188 146t233.5 52q240 0 391 -174l144 164l73 -61
l-159 -183q114 -188 114 -464zM305 698q0 -191 55 -325l662 762q-107 163 -293 163q-189 0 -306.5 -161t-117.5 -439zM1128 700q0 202 -59 344l-663 -763q114 -175 309 -175q191 0 302 157t111 437z" />
    <glyph glyph-name="oslashacute" unicode="&#x1ff;" horiz-adv-x="1144" 
d="M754 1524l8 -29q-120 -181 -328 -319l-51 26q162 205 227 350zM1012 516q0 -129 -36.5 -233t-99 -169t-143.5 -99.5t-172 -34.5q-184 0 -301 129l-113 -121l-65 63l125 133q-74 129 -74 314q0 128 36 232t98 170t143.5 101t173.5 35q181 0 299 -127l112 121l68 -61
l-127 -135q76 -130 76 -318zM295 512q-3 -106 24 -205l467 498q-73 125 -208 125q-129 0 -206 -107.5t-77 -310.5zM852 504q0 109 -27 209l-467 -498q71 -129 211 -129q129 0 206 109.5t77 308.5z" />
    <glyph glyph-name="Scommaaccent" unicode="&#x218;" horiz-adv-x="1050" 
d="M932 350q0 -171 -125.5 -270.5t-331.5 -99.5q-87 0 -183.5 18t-170.5 55l16 144q76 -43 172 -64.5t172 -21.5q136 0 211.5 62t75.5 165q0 48 -17.5 90t-42 71.5t-69 60.5t-78 49.5t-90.5 47.5q-3 1 -5 2t-4.5 2.5t-4.5 2.5q-44 23 -69 37t-64.5 39t-62.5 45t-51 50.5
t-43 61.5t-25.5 71t-10.5 85q0 171 127 271.5t332 100.5q85 0 171 -17t144 -46l-22 -145q-131 79 -297 79q-136 0 -213.5 -61t-77.5 -164q0 -38 10 -70.5t33 -61t44.5 -49.5t61 -45t64 -37.5t71.5 -37.5q24 -12 35 -18q54 -28 91.5 -51t84 -60.5t75 -76.5t48 -94.5
t19.5 -119.5zM442 -637q64 116 84 193q-40 3 -66 33t-26 73q0 46 30.5 82.5t80.5 36.5q45 0 73.5 -33t28.5 -92q0 -145 -149 -332z" />
    <glyph glyph-name="scommaaccent" unicode="&#x219;" horiz-adv-x="899" 
d="M758 975l-19 -131q-131 80 -252 80q-96 0 -152 -43.5t-56 -112.5q0 -47 28 -84.5t72.5 -64t98.5 -51t108.5 -52t99 -60.5t72.5 -83t28 -113q0 -125 -101 -202.5t-267 -77.5q-173 0 -305 69l18 129q67 -41 147.5 -62.5t147.5 -21.5q98 0 153.5 42.5t55.5 109.5
q0 40 -22 73.5t-58 56t-81.5 46t-93.5 43t-93.5 47t-81.5 58.5t-58 77.5t-22 102.5q0 128 101 207t266 79q137 0 266 -61zM360 -637q62 105 84 193q-38 3 -64 33t-26 73q0 46 29.5 82.5t79.5 36.5q47 0 75.5 -33t28.5 -92q0 -145 -149 -332z" />
    <glyph glyph-name="Tcommaaccent" unicode="&#x21a;" horiz-adv-x="1099" 
d="M631 0h-160v1282q-215 -3 -428 -12l10 135h994l10 -135q-215 9 -426 12v-1282zM446 -637q62 105 84 193q-38 3 -64 33t-26 73q0 46 29.5 82.5t79.5 36.5q47 0 75.5 -33t28.5 -92q0 -145 -149 -332z" />
    <glyph glyph-name="tcommaaccent" unicode="&#x21b;" horiz-adv-x="739" 
d="M643 920l-285 2v-592q0 -124 39 -178t117 -54q85 0 164 52l20 -107q-99 -63 -227 -63q-266 0 -266 333v611l-150 2v69l152 21l37 239l102 11l19 -19l-7 -231h279l12 -17zM328 -637q62 105 84 193q-40 3 -65 33t-25 73q0 46 29.5 82.5t78.5 36.5q47 0 74.5 -33t27.5 -92
q0 -142 -147 -332z" />
    <glyph glyph-name="Ymacron" unicode="&#x232;" horiz-adv-x="1146" 
d="M313 1665v109h543v-109h-543zM494 504l-447 907l170 14l240 -497q87 -178 127 -289h4q72 165 133 291l235 495l131 -12l13 -16l-447 -899v-498h-159v504z" />
    <glyph glyph-name="ymacron" unicode="&#x233;" horiz-adv-x="946" 
d="M209 1309v102h557v-102h-557zM913 1006l-352 -986q-176 -507 -502 -544l-24 149q134 15 234.5 112.5t172.5 291.5h-43l-350 995l158 12l162 -491q61 -168 85.5 -247.5t37.5 -162.5h2q16 80 40 155.5t87 254.5l161 491l119 -12z" />
    <glyph glyph-name="dotlessj" unicode="&#x237;" horiz-adv-x="552" 
d="M86 -524l-53 69q166 134 166 385v764q0 150 -19 318l154 24l18 -16v-1073q0 -179 -65.5 -290t-200.5 -181z" />
    <glyph glyph-name="schwa" unicode="&#x259;" horiz-adv-x="1046" 
d="M121 489l31 31h600v2q0 195 -67 294t-216 99q-154 0 -313 -92l-13 119q50 34 151.5 64t205.5 30q208 0 310.5 -128t102.5 -361q0 -141 -35.5 -252t-97.5 -178.5t-140.5 -102t-168.5 -34.5q-161 0 -256.5 106.5t-95.5 284.5q0 79 2 118zM272 360q0 -126 55 -200t154 -74
q107 0 181 89t88 271l-476 -14q-2 -23 -2 -72z" />
    <glyph glyph-name="nhookleft" unicode="&#x272;" horiz-adv-x="1161" 
d="M86 -524l-53 69q166 134 166 385v768q0 164 -41 303l141 35q30 -67 47 -151q157 151 342 151q131 0 203 -76.5t72 -222.5v-737h-154v705q0 215 -184 215q-134 0 -273 -121v-852q0 -179 -65.5 -290t-200.5 -181z" />
    <glyph glyph-name="circumflex" unicode="&#x2c6;" horiz-adv-x="770" 
d="M150 1174l-50 36q129 172 213 320l125 14q94 -159 232 -334l-49 -36q-92 77 -246 239q-125 -147 -225 -239z" />
    <glyph glyph-name="caron" unicode="&#x2c7;" horiz-adv-x="770" 
d="M621 1569l49 -37q-129 -172 -213 -320l-125 -14q-106 175 -232 334l50 37q92 -77 243 -240q117 137 228 240z" />
    <glyph glyph-name="breve" unicode="&#x2d8;" horiz-adv-x="727" 
d="M557 1513h70q-19 -133 -91.5 -210.5t-179.5 -77.5q-103 0 -173 74.5t-83 203.5l70 10q20 -77 72.5 -121t124.5 -44q67 0 117.5 44.5t72.5 120.5z" />
    <glyph glyph-name="dotaccent" unicode="&#x2d9;" horiz-adv-x="417" 
d="M317 1368q0 -52 -31 -90.5t-83 -38.5q-46 0 -74.5 33t-28.5 80q0 52 34.5 90.5t84.5 38.5q45 0 71.5 -31.5t26.5 -81.5z" />
    <glyph glyph-name="ring" unicode="&#x2da;" horiz-adv-x="569" 
d="M469 1372q0 -75 -57 -128.5t-138 -53.5q-71 0 -122.5 45.5t-51.5 112.5q0 75 58.5 128.5t140.5 53.5q73 0 121.5 -45t48.5 -113zM188 1356q0 -41 27 -68.5t68 -27.5q42 0 70 30.5t28 73.5q0 42 -24 69t-66 27q-44 0 -73.5 -30.5t-29.5 -73.5z" />
    <glyph glyph-name="ogonek" unicode="&#x2db;" horiz-adv-x="747" 
d="M569 0q-229 -127 -229 -256q0 -48 28 -75t81 -27q51 0 112 26l27 -65q-35 -29 -85.5 -46.5t-101.5 -17.5q-91 0 -144.5 44.5t-53.5 123.5q0 89 75 171t220 147z" />
    <glyph glyph-name="tilde" unicode="&#x2dc;" horiz-adv-x="835" 
d="M285 1481q37 0 77.5 -18t70 -39.5t65.5 -39.5t65 -18q68 0 125 109l49 -9q-10 -90 -58.5 -158.5t-125.5 -68.5q-37 0 -78 18t-72 39.5t-68 39.5t-65 18q-65 0 -123 -111l-49 8q8 56 28 105.5t62 87t97 37.5z" />
    <glyph glyph-name="hungarumlaut" unicode="&#x2dd;" horiz-adv-x="786" 
d="M444 1532l11 -27q-117 -184 -303 -323l-52 24q154 182 228 350zM719 1532l8 -27q-114 -184 -303 -323l-51 24q150 177 229 350z" />
    <glyph glyph-name="Delta" unicode="&#x394;" horiz-adv-x="1224" 
d="M532 1413h160l484 -1372l-5 -41h-1118l-4 41zM219 119h760l-379 1085z" />
    <glyph glyph-name="Omega" unicode="&#x3a9;" horiz-adv-x="1515" 
d="M625 0h-523l-20 119l18 18l426 -55q-149 99 -245.5 289t-96.5 401q0 182 75 331.5t208 235.5t295 86q163 0 293.5 -86t203 -234.5t72.5 -330.5q0 -213 -97 -403t-247 -289l428 55l19 -18l-21 -119h-522l-14 76q130 115 209 295t79 379q0 232 -114 390t-291 158
q-118 0 -212 -72t-146 -197.5t-52 -280.5q0 -195 80 -374.5t209 -297.5z" />
    <glyph glyph-name="mu" unicode="&#x3bc;" horiz-adv-x="1146" 
d="M197 698q0 158 -15 314l152 24l16 -16v-719q0 -97 43.5 -148t126.5 -51q129 0 266 121v793l154 20v-747q0 -158 39 -285l-131 -24q-30 58 -49 153h-4q-150 -150 -322 -153q-98 0 -158 51q19 -93 33.5 -288.5t20.5 -236.5l-154 -26l-18 18v1200z" />
    <glyph glyph-name="pi" unicode="&#x3c0;" horiz-adv-x="1261" 
d="M250 0v915l-227 -2l26 113l1159 10l13 -16l-27 -96l-186 -2v-711q0 -51 15 -74.5t54 -23.5q33 0 84 14l-6 -127q-68 -20 -127 -20q-79 0 -126.5 47.5t-47.5 144.5v750l-451 -4v-918h-153z" />
    <glyph glyph-name="Ddotbelow" unicode="&#x1e0c;" horiz-adv-x="1394" 
d="M1255 709q0 -220 -89.5 -382t-247 -244.5t-365.5 -82.5h-342v1087q0 179 -16 318h385q192 0 344.5 -82t241.5 -241.5t89 -372.5zM565 1284h-196v-1161h190q259 0 395 151.5t136 425.5q0 268 -141.5 426t-383.5 158zM811 -324q0 -52 -32 -90.5t-85 -38.5q-46 0 -74 33
t-28 80q0 52 34.5 90.5t84.5 38.5q45 0 72.5 -31.5t27.5 -81.5z" />
    <glyph glyph-name="ddotbelow" unicode="&#x1e0d;" horiz-adv-x="1157" 
d="M786 1524l154 24l18 -16v-1247q0 -155 50 -285l-140 -20q-26 53 -49 141h-2q-44 -63 -115 -102t-167 -39q-179 0 -290.5 137t-111.5 370q0 132 38 237.5t105 173t155 103t190 35.5q97 0 184 -32v202q0 177 -19 318zM295 504q0 -194 78 -306t211 -112q129 0 221 111v706
q-94 33 -178 33q-147 0 -239.5 -110t-92.5 -322zM686 -324q0 -52 -32 -90.5t-85 -38.5q-46 0 -74 33t-28 80q0 52 34.5 90.5t84.5 38.5q45 0 72.5 -31.5t27.5 -81.5z" />
    <glyph glyph-name="Hdotbelow" unicode="&#x1e24;" horiz-adv-x="1443" 
d="M369 0h-158v1083q0 165 -16 322l157 20l17 -16v-649h704v323q0 185 -14 322l155 20l19 -16v-1409h-160v639h-704v-639zM831 -324q0 -52 -31 -90.5t-83 -38.5q-46 0 -74.5 33t-28.5 80q0 52 34.5 90.5t84.5 38.5q44 0 71 -31.5t27 -81.5z" />
    <glyph glyph-name="hdotbelow" unicode="&#x1e25;" horiz-adv-x="1157" 
d="M348 0h-153v1206q0 174 -19 318l154 24l18 -16v-641q157 145 336 145q131 0 202.5 -76.5t71.5 -222.5v-737h-153v705q0 215 -184 215q-133 0 -273 -119v-801zM698 -324q0 -52 -31 -90.5t-83 -38.5q-46 0 -74.5 33t-28.5 80q0 52 34.5 90.5t84.5 38.5q44 0 71 -31.5
t27 -81.5z" />
    <glyph glyph-name="Ndotaccent" unicode="&#x1e44;" horiz-adv-x="1439" 
d="M821 1745q0 -50 -32.5 -84.5t-88.5 -34.5q-48 0 -77 29.5t-29 73.5q0 47 35.5 81.5t87.5 34.5q47 0 75.5 -27.5t28.5 -72.5zM733 815q17 -27 81.5 -130.5t83.5 -135.5t62 -104.5t70.5 -126.5t54.5 -113h5q-8 135 -10.5 275t-2.5 575q0 176 -16 350l151 20l19 -18v-1407
h-160q-95 156 -373 608q-12 19 -59.5 95t-59 94.5t-48 77.5t-51 85t-41 72.5t-46 84.5t-39.5 79h-2q13 -188 13 -485v-711h-154v1087q0 161 -16 318l165 20q72 -118 197.5 -322.5t175.5 -287.5z" />
    <glyph glyph-name="ndotaccent" unicode="&#x1e45;" horiz-adv-x="1167" 
d="M678 1372q0 -53 -31.5 -91t-83.5 -38q-46 0 -74 32.5t-28 80.5q0 52 34.5 89.5t84.5 37.5q44 0 71 -30.5t27 -80.5zM358 0h-153v698q0 164 -41 303l141 35q30 -67 47 -151q157 151 342 151q131 0 203 -76.5t72 -222.5v-737h-154v705q0 215 -184 215q-134 0 -273 -121
v-799z" />
    <glyph glyph-name="Rdotbelow" unicode="&#x1e5a;" horiz-adv-x="1202" 
d="M369 0h-158v1087q0 179 -16 318h364q232 0 368 -116t136 -310q0 -143 -75 -239.5t-204 -139.5l342 -600l-170 -18q-175 316 -309 575h-278v-557zM549 1286h-180v-610h174q172 0 263 76.5t91 222.5q0 140 -86 225.5t-262 85.5zM733 -324q0 -52 -32 -90.5t-85 -38.5
q-46 0 -74 33t-28 80q0 52 34.5 90.5t84.5 38.5q45 0 72.5 -31.5t27.5 -81.5z" />
    <glyph glyph-name="rdotbelow" unicode="&#x1e5b;" horiz-adv-x="786" 
d="M358 0h-153v698q0 164 -41 303l143 35q34 -79 49 -180q70 85 147.5 132.5t149.5 47.5q64 0 97 -26l-29 -142q-53 17 -92 17q-57 0 -131 -31t-140 -92v-762zM393 -324q0 -52 -31 -90.5t-83 -38.5q-46 0 -74.5 33t-28.5 80q0 52 34.5 90.5t84.5 38.5q44 0 71 -31.5
t27 -81.5z" />
    <glyph glyph-name="Sdotbelow" unicode="&#x1e62;" horiz-adv-x="1050" 
d="M932 350q0 -171 -125.5 -270.5t-331.5 -99.5q-87 0 -183.5 18t-170.5 55l16 144q76 -43 172 -64.5t172 -21.5q136 0 211.5 62t75.5 165q0 48 -17.5 90t-42 71.5t-69 60.5t-78 49.5t-90.5 47.5q-3 1 -5 2t-4.5 2.5t-4.5 2.5q-44 23 -69 37t-64.5 39t-62.5 45t-51 50.5
t-43 61.5t-25.5 71t-10.5 85q0 171 127 271.5t332 100.5q85 0 171 -17t144 -46l-22 -145q-131 79 -297 79q-136 0 -213.5 -61t-77.5 -164q0 -38 10 -70.5t33 -61t44.5 -49.5t61 -45t64 -37.5t71.5 -37.5q24 -12 35 -18q54 -28 91.5 -51t84 -60.5t75 -76.5t48 -94.5
t19.5 -119.5zM657 -324q0 -52 -31 -90.5t-83 -38.5q-46 0 -74.5 33t-28.5 80q0 52 34.5 90.5t84.5 38.5q45 0 71.5 -31.5t26.5 -81.5z" />
    <glyph glyph-name="sdotbelow" unicode="&#x1e63;" horiz-adv-x="899" 
d="M758 975l-19 -131q-131 80 -252 80q-96 0 -152 -43.5t-56 -112.5q0 -47 28 -84.5t72.5 -64t98.5 -51t108.5 -52t99 -60.5t72.5 -83t28 -113q0 -125 -101 -202.5t-267 -77.5q-173 0 -305 69l18 129q67 -41 147.5 -62.5t147.5 -21.5q98 0 153.5 42.5t55.5 109.5
q0 40 -22 73.5t-58 56t-81.5 46t-93.5 43t-93.5 47t-81.5 58.5t-58 77.5t-22 102.5q0 128 101 207t266 79q137 0 266 -61zM578 -324q0 -52 -31.5 -90.5t-83.5 -38.5q-46 0 -75.5 33t-29.5 80q0 52 34.5 90.5t84.5 38.5q45 0 73 -31.5t28 -81.5z" />
    <glyph glyph-name="Tdotbelow" unicode="&#x1e6c;" horiz-adv-x="1099" 
d="M631 0h-160v1282q-215 -3 -428 -12l10 135h994l10 -135q-215 9 -426 12v-1282zM664 -324q0 -52 -31.5 -90.5t-83.5 -38.5q-46 0 -75.5 33t-29.5 80q0 52 34.5 90.5t84.5 38.5q45 0 73 -31.5t28 -81.5z" />
    <glyph glyph-name="tdotbelow" unicode="&#x1e6d;" horiz-adv-x="739" 
d="M643 920l-285 2v-592q0 -124 39 -178t117 -54q85 0 164 52l20 -107q-99 -63 -227 -63q-266 0 -266 333v611l-150 2v69l152 21l37 239l102 11l19 -19l-7 -231h279l12 -17zM545 -324q0 -52 -32 -90.5t-85 -38.5q-46 0 -74 33t-28 80q0 52 34 90.5t84 38.5q45 0 73 -31.5
t28 -81.5z" />
    <glyph glyph-name="Wgrave" unicode="&#x1e80;" horiz-adv-x="2007" 
d="M1245 1587q-282 31 -495 152l-7 26l101 95q170 -126 420 -226zM496 -8l-433 1417l162 16l250 -835q86 -286 107 -416q27 148 120 451l236 790l152 10l249 -835q87 -275 109 -416q25 135 119 449l239 802l125 -12l13 -16l-431 -1405h-143l-272 870q-52 184 -92 344h-2
q-32 -138 -95 -346l-270 -868h-143z" />
    <glyph glyph-name="wgrave" unicode="&#x1e81;" horiz-adv-x="1554" 
d="M920 1182q-209 138 -328 317l10 29l141 28q63 -142 228 -350zM375 -8l-326 1032l156 12l143 -481q68 -213 111 -403h2q34 160 108 391l144 489h153l140 -471q5 -18 30 -96t35.5 -114.5t25.5 -95.5t21 -101h2q21 105 111 399l143 483l119 -12l12 -18l-321 -1014h-150
l-155 502q-7 24 -22.5 73.5t-22 70.5t-17.5 58.5t-16.5 61t-12 54t-10.5 58.5h-2q-17 -112 -98 -374l-156 -504h-147z" />
    <glyph glyph-name="Wacute" unicode="&#x1e82;" horiz-adv-x="2007" 
d="M1264 1765l-9 -26q-211 -121 -495 -152l-17 47q252 101 418 226zM496 -8l-433 1417l162 16l250 -835q86 -286 107 -416q27 148 120 451l236 790l152 10l249 -835q87 -275 109 -416q25 135 119 449l239 802l125 -12l13 -16l-431 -1405h-143l-272 870q-52 184 -92 344h-2
q-32 -138 -95 -346l-270 -868h-143z" />
    <glyph glyph-name="wacute" unicode="&#x1e83;" horiz-adv-x="1554" 
d="M963 1524l8 -29q-120 -181 -328 -319l-51 26q162 205 227 350zM375 -8l-326 1032l156 12l143 -481q68 -213 111 -403h2q34 160 108 391l144 489h153l140 -471q5 -18 30 -96t35.5 -114.5t25.5 -95.5t21 -101h2q21 105 111 399l143 483l119 -12l12 -18l-321 -1014h-150
l-155 502q-7 24 -22.5 73.5t-22 70.5t-17.5 58.5t-16.5 61t-12 54t-10.5 58.5h-2q-17 -112 -98 -374l-156 -504h-147z" />
    <glyph glyph-name="Wdieresis" unicode="&#x1e84;" horiz-adv-x="2007" 
d="M1315 1729q0 -49 -30 -84t-81 -35q-44 0 -71 28t-27 70q0 45 33.5 80t81.5 35q42 0 68 -26t26 -68zM901 1729q0 -48 -30.5 -83.5t-82.5 -35.5q-44 0 -71 28t-27 70q0 45 33.5 80t81.5 35q43 0 69.5 -26.5t26.5 -67.5zM496 -8l-433 1417l162 16l250 -835q86 -286 107 -416
q27 148 120 451l236 790l152 10l249 -835q87 -275 109 -416q25 135 119 449l239 802l125 -12l13 -16l-431 -1405h-143l-272 870q-52 184 -92 344h-2q-32 -138 -95 -346l-270 -868h-143z" />
    <glyph glyph-name="wdieresis" unicode="&#x1e85;" horiz-adv-x="1554" 
d="M678 1370q0 -52 -30 -89.5t-79 -37.5q-43 0 -69.5 31.5t-26.5 75.5q0 51 33 89t80 38q41 0 66.5 -30t25.5 -77zM1090 1370q0 -52 -30 -89.5t-79 -37.5q-43 0 -69.5 31.5t-26.5 75.5q0 51 32.5 89t77.5 38q43 0 69 -30t26 -77zM375 -8l-326 1032l156 12l143 -481
q68 -213 111 -403h2q34 160 108 391l144 489h153l140 -471q5 -18 30 -96t35.5 -114.5t25.5 -95.5t21 -101h2q21 105 111 399l143 483l119 -12l12 -18l-321 -1014h-150l-155 502q-7 24 -22.5 73.5t-22 70.5t-17.5 58.5t-16.5 61t-12 54t-10.5 58.5h-2q-17 -112 -98 -374
l-156 -504h-147z" />
    <glyph glyph-name="Zdotbelow" unicode="&#x1e92;" horiz-adv-x="1064" 
d="M88 0l-27 100l746 1174l-721 -8l10 139h854l39 -98l-741 -1176l749 10l-10 -141h-899zM659 -324q0 -52 -31 -90.5t-83 -38.5q-46 0 -74.5 33t-28.5 80q0 52 34.5 90.5t84.5 38.5q44 0 71 -31.5t27 -81.5z" />
    <glyph glyph-name="zdotbelow" unicode="&#x1e93;" horiz-adv-x="888" 
d="M70 885l10 131h715l16 -96l-578 -799l283 4q208 4 309 12l-10 -137h-735l-17 98l584 797zM555 -324q0 -52 -32 -90.5t-85 -38.5q-46 0 -74 33t-28 80q0 52 34.5 90.5t84.5 38.5q45 0 72.5 -31.5t27.5 -81.5z" />
    <glyph glyph-name="Germandbls" unicode="&#x1e9e;" horiz-adv-x="1290" 
d="M190 215v729q0 230 134.5 355.5t349.5 125.5q144 0 254 -59.5t162 -171.5l-342 -401q74 -29 131.5 -58t114 -69.5t93.5 -85.5t59.5 -105.5t22.5 -130.5q0 -165 -111 -264.5t-286 -99.5q-142 0 -254 53v143q110 -65 240 -65q117 0 182.5 62.5t65.5 168.5q0 67 -27 121
t-84.5 99t-130 81t-180.5 76v55l325 404q-75 118 -229 118q-152 0 -241 -96t-89 -258v-762q0 -54 -11 -111t-30 -89l-147 20q28 89 28 215z" />
    <glyph glyph-name="Adotbelow" unicode="&#x1ea0;" horiz-adv-x="1253" 
d="M201 0h-152l420 1206q52 148 68 211l155 8l23 -20l489 -1405h-162l-143 408h-555zM492 827l-105 -297h469l-102 297q-104 314 -129 428h-4q-24 -104 -129 -428zM737 -324q0 -52 -31.5 -90.5t-84.5 -38.5q-46 0 -74.5 33t-28.5 80q0 52 34.5 90.5t84.5 38.5
q45 0 72.5 -31.5t27.5 -81.5z" />
    <glyph glyph-name="adotbelow" unicode="&#x1ea1;" horiz-adv-x="1032" 
d="M829 295q0 -159 50 -295l-138 -20q-34 70 -49 143h-2q-45 -59 -130 -101t-183 -42q-122 0 -193 66.5t-71 174.5q0 84 45.5 150t126 107t179 64.5t214.5 30.5v136q0 206 -211 206q-156 0 -311 -96l-9 131q176 86 353 86q163 0 248.5 -79t85.5 -218q0 -76 -2.5 -239
t-2.5 -205zM268 244q0 -66 41.5 -112t120.5 -46q64 0 134 33t114 82v295q-115 -8 -205 -37t-147.5 -84.5t-57.5 -130.5zM621 -324q0 -52 -32 -90.5t-85 -38.5q-46 0 -74.5 33t-28.5 80q0 52 34.5 90.5t84.5 38.5q45 0 73 -31.5t28 -81.5z" />
    <glyph glyph-name="Edotbelow" unicode="&#x1eb8;" horiz-adv-x="1067" 
d="M985 131v-131h-774v1087q0 179 -16 318h755l17 -16l-2 -115l-596 12v-532l505 6l-2 -125l-503 6v-520zM735 -324q0 -52 -31 -90.5t-83 -38.5q-46 0 -74.5 33t-28.5 80q0 52 34.5 90.5t84.5 38.5q45 0 71.5 -31.5t26.5 -81.5z" />
    <glyph glyph-name="edotbelow" unicode="&#x1eb9;" horiz-adv-x="1046" 
d="M926 526l-31 -30h-600q6 -195 94 -296.5t234 -101.5q135 0 268 88l12 -112q-52 -37 -135 -65.5t-180 -28.5q-207 0 -331 136t-124 380q0 127 35.5 231t97 170.5t141 102.5t168.5 36q161 0 257 -106t96 -283q0 -82 -2 -121zM567 930q-109 0 -185.5 -93.5t-86.5 -265.5
l477 15q0 11 1 35t1 38q0 123 -55 197t-152 74zM680 -324q0 -52 -31.5 -90.5t-83.5 -38.5q-46 0 -74 33t-28 80q0 52 34.5 90.5t84.5 38.5q44 0 71 -31.5t27 -81.5z" />
    <glyph glyph-name="Etilde" unicode="&#x1ebc;" horiz-adv-x="1067" 
d="M444 1849q41 0 83.5 -18t73 -39t69 -39t71.5 -18q80 0 136 110l47 -8q-8 -90 -58.5 -154.5t-134.5 -64.5q-40 0 -83.5 18t-75.5 39.5t-71 39.5t-71 18q-76 0 -135 -109l-47 8q9 84 59 150.5t137 66.5zM985 131v-131h-774v1087q0 179 -16 318h755l17 -16l-2 -115l-596 12
v-532l505 6l-2 -125l-503 6v-520z" />
    <glyph glyph-name="etilde" unicode="&#x1ebd;" horiz-adv-x="1046" 
d="M410 1481q38 0 79 -18t70.5 -39.5t65.5 -39.5t65 -18q39 0 67.5 28.5t55.5 80.5l51 -9q-10 -90 -58.5 -158.5t-125.5 -68.5q-37 0 -78.5 18t-72.5 39.5t-67.5 39.5t-64.5 18q-68 0 -123 -111l-49 8q8 56 28 105.5t61.5 87t95.5 37.5zM926 526l-31 -30h-600
q6 -195 94 -296.5t234 -101.5q135 0 268 88l12 -112q-52 -37 -135 -65.5t-180 -28.5q-207 0 -331 136t-124 380q0 127 35.5 231t97 170.5t141 102.5t168.5 36q161 0 257 -106t96 -283q0 -82 -2 -121zM567 930q-109 0 -185.5 -93.5t-86.5 -265.5l477 15q0 11 1 35t1 38
q0 123 -55 197t-152 74z" />
    <glyph glyph-name="Idotbelow" unicode="&#x1eca;" horiz-adv-x="579" 
d="M369 0h-158v1083q0 165 -16 322l157 20l17 -16v-1409zM399 -324q0 -52 -31 -90.5t-83 -38.5q-46 0 -74.5 33t-28.5 80q0 52 34.5 90.5t84.5 38.5q44 0 71 -31.5t27 -81.5z" />
    <glyph glyph-name="idotbelow" unicode="&#x1ecb;" horiz-adv-x="550" 
d="M377 1372q0 -53 -31.5 -91t-83.5 -38q-46 0 -74 32.5t-28 80.5q0 52 34.5 89.5t84.5 37.5q44 0 71 -30.5t27 -80.5zM197 0v694q0 192 -19 318l156 24l16 -16v-1020h-153zM389 -324q0 -52 -32 -90.5t-85 -38.5q-46 0 -74 33t-28 80q0 52 34.5 90.5t84.5 38.5
q45 0 72.5 -31.5t27.5 -81.5z" />
    <glyph glyph-name="Odotbelow" unicode="&#x1ecc;" horiz-adv-x="1431" 
d="M1294 707q0 -173 -46.5 -313t-127.5 -229.5t-187 -137t-228 -47.5q-121 0 -224.5 47t-179.5 135t-119 221.5t-43 298.5q0 169 45.5 310t125 235t188 146t233.5 52q251 0 407 -194t156 -524zM305 698q0 -268 109.5 -430t300.5 -162t302 157t111 437q0 270 -105 434
t-294 164t-306.5 -161t-117.5 -439zM842 -324q0 -52 -31.5 -90.5t-83.5 -38.5q-46 0 -75 33t-29 80q0 52 34 90.5t84 38.5q45 0 73 -31.5t28 -81.5z" />
    <glyph glyph-name="odotbelow" unicode="&#x1ecd;" horiz-adv-x="1144" 
d="M1012 516q0 -129 -36.5 -233t-99 -169t-143.5 -99.5t-172 -34.5q-190 0 -309 138.5t-119 379.5q0 128 36 232t98 170t143.5 101t173.5 35q192 0 310 -140t118 -380zM295 512q0 -195 70.5 -310.5t203.5 -115.5q129 0 206 109.5t77 308.5q0 195 -71 310.5t-203 115.5
q-129 0 -206 -107.5t-77 -310.5zM682 -324q0 -52 -31.5 -90.5t-83.5 -38.5q-46 0 -75 33t-29 80q0 52 34.5 90.5t84.5 38.5q45 0 72.5 -31.5t27.5 -81.5z" />
    <glyph glyph-name="Udotbelow" unicode="&#x1ee4;" horiz-adv-x="1337" 
d="M182 1087q0 171 -20 322l170 16l10 -10v-950q0 -168 92.5 -262t237.5 -94q147 0 238 92.5t91 263.5v643q0 164 -20 301l174 16v-964q0 -116 -39 -209t-106.5 -151.5t-157 -89.5t-193.5 -31q-135 0 -241.5 53t-171 163.5t-64.5 264.5v626zM778 -324q0 -52 -31 -90.5
t-83 -38.5q-46 0 -75.5 33t-29.5 80q0 52 34.5 90.5t84.5 38.5q45 0 72.5 -31.5t27.5 -81.5z" />
    <glyph glyph-name="udotbelow" unicode="&#x1ee5;" horiz-adv-x="1146" 
d="M197 694q0 162 -15 318l152 24l16 -16v-719q0 -96 44.5 -147.5t131.5 -51.5q123 0 260 121v793l154 20v-747q0 -158 39 -285l-131 -24q-30 58 -49 153h-4q-153 -153 -328 -153q-129 0 -199.5 72.5t-70.5 203.5v438zM682 -324q0 -52 -32 -90.5t-85 -38.5q-46 0 -74 33
t-28 80q0 52 34.5 90.5t84.5 38.5q45 0 72.5 -31.5t27.5 -81.5z" />
    <glyph glyph-name="Ygrave" unicode="&#x1ef2;" horiz-adv-x="1146" 
d="M827 1587q-282 31 -495 152l-6 26l100 95q170 -126 420 -226zM494 504l-447 907l170 14l240 -497q87 -178 127 -289h4q72 165 133 291l235 495l131 -12l13 -16l-447 -899v-498h-159v504z" />
    <glyph glyph-name="ygrave" unicode="&#x1ef3;" horiz-adv-x="946" 
d="M627 1182q-210 137 -330 317l10 29l142 28q73 -157 229 -350zM913 1006l-352 -986q-176 -507 -502 -544l-24 149q134 15 234.5 112.5t172.5 291.5h-43l-350 995l158 12l162 -491q61 -168 85.5 -247.5t37.5 -162.5h2q16 80 40 155.5t87 254.5l161 491l119 -12z" />
    <glyph glyph-name="Ytilde" unicode="&#x1ef8;" horiz-adv-x="1146" 
d="M442 1845q51 0 104.5 -28.5t103 -57t89.5 -28.5q45 0 77 28.5t61 79.5l47 -8q-8 -88 -59 -153.5t-136 -65.5q-40 0 -83.5 18.5t-75 40t-70 40t-70.5 18.5q-79 0 -135 -111l-47 8q6 53 26 100t64 83t104 36zM494 504l-447 907l170 14l240 -497q87 -178 127 -289h4
q72 165 133 291l235 495l131 -12l13 -16l-447 -899v-498h-159v504z" />
    <glyph glyph-name="ytilde" unicode="&#x1ef9;" horiz-adv-x="946" 
d="M346 1481q38 0 79 -18t71 -39.5t66 -39.5t65 -18q39 0 67.5 28.5t55.5 80.5l51 -9q-10 -90 -59 -158.5t-126 -68.5q-37 0 -78.5 18t-72 39.5t-67 39.5t-64.5 18q-68 0 -123 -111l-49 8q8 56 28 105.5t61 87t95 37.5zM913 1006l-352 -986q-176 -507 -502 -544l-24 149
q134 15 234.5 112.5t172.5 291.5h-43l-350 995l158 12l162 -491q61 -168 85.5 -247.5t37.5 -162.5h2q16 80 40 155.5t87 254.5l161 491l119 -12z" />
    <glyph glyph-name="figurespace" unicode="&#x2007;" 
 />
    <glyph glyph-name="endash" unicode="&#x2013;" horiz-adv-x="1056" 
d="M61 557v80h934v-80h-934z" />
    <glyph glyph-name="emdash" unicode="&#x2014;" horiz-adv-x="1632" 
d="M61 557v80h1510v-80h-1510z" />
    <glyph glyph-name="quoteleft" unicode="&#x2018;" horiz-adv-x="473" 
d="M377 1518q-96 -183 -119 -328q43 -4 70.5 -36.5t27.5 -76.5q0 -53 -35.5 -91t-87.5 -38q-51 0 -81.5 35t-30.5 100q0 100 64 237t139 236z" />
    <glyph glyph-name="quoteright" unicode="&#x2019;" horiz-adv-x="473" 
d="M94 983q99 190 119 328q-43 3 -70.5 34.5t-27.5 77.5q0 53 36.5 91t88.5 38q51 0 80.5 -35t29.5 -100q0 -100 -63 -237.5t-137 -235.5z" />
    <glyph glyph-name="quotesinglbase" unicode="&#x201a;" horiz-adv-x="473" 
d="M94 -348q99 190 119 328q-43 4 -70.5 36t-27.5 76q0 53 36.5 91t88.5 38q51 0 80.5 -35t29.5 -100q0 -99 -62.5 -236t-137.5 -237z" />
    <glyph glyph-name="quotedblleft" unicode="&#x201c;" horiz-adv-x="851" 
d="M377 1518q-96 -183 -119 -328q43 -4 70.5 -36.5t27.5 -76.5q0 -53 -35.5 -91t-87.5 -38q-51 0 -81.5 35t-30.5 100q0 100 64 237t139 236zM756 1518q-96 -183 -119 -328q43 -5 71.5 -37t28.5 -76q0 -53 -36.5 -91t-88.5 -38q-51 0 -80.5 35t-29.5 100q0 100 63 237.5
t137 235.5z" />
    <glyph glyph-name="quotedblright" unicode="&#x201d;" horiz-adv-x="851" 
d="M475 985q96 183 119 328q-43 3 -70.5 34.5t-27.5 75.5q0 53 35 92t87 39q51 0 82 -35.5t31 -101.5q0 -98 -63.5 -235t-139.5 -238zM94 985q99 190 119 328q-43 3 -70.5 34.5t-27.5 75.5q0 53 36.5 92t88.5 39q51 0 80.5 -35.5t29.5 -101.5q0 -99 -62.5 -236t-137.5 -237z
" />
    <glyph glyph-name="quotedblbase" unicode="&#x201e;" horiz-adv-x="847" 
d="M94 -348q99 190 119 328q-43 4 -70.5 36t-27.5 76q0 53 36.5 91t88.5 38q51 0 80.5 -35t29.5 -100q0 -99 -62.5 -236t-137.5 -237zM471 -348q99 190 119 328q-43 4 -70.5 36t-27.5 76q0 53 35.5 91t88.5 38q51 0 81 -35t30 -100q0 -99 -63.5 -236.5t-139.5 -236.5z" />
    <glyph glyph-name="dagger" unicode="&#x2020;" horiz-adv-x="1034" 
d="M557 0l-76 -4l-14 18l-35 326l41 608l-340 -18l-6 6q-8 58 -8 102l18 15l334 -19l-31 377l6 6q55 8 132 8l14 -14l-33 -377l340 19l8 -6q8 -58 8 -103l-18 -14l-338 18l41 -608l-35 -328z" />
    <glyph glyph-name="daggerdbl" unicode="&#x2021;" horiz-adv-x="1034" 
d="M449 -10l-15 16l39 383l-336 -31l-18 15q0 61 8 119l6 6l340 -33q-2 16 -7.5 61t-8.5 68.5t-5.5 59t-2.5 63.5q0 33 4 70.5t11.5 90.5t10.5 76l-342 -30l-6 6q-8 58 -8 119l18 14l338 -33l-41 381l6 6q63 8 144 8l14 -14l-41 -383l342 35l8 -6q8 -58 8 -119l-18 -14
l-338 30q2 -19 10 -75t11.5 -92.5t3.5 -69.5q0 -28 -2.5 -63t-6 -60t-9 -67t-7.5 -62l338 33l18 -15q0 -60 -8 -118l-8 -7l-342 31l41 -383l-6 -8q-16 -1 -65.5 -4t-77.5 -4z" />
    <glyph glyph-name="bullet" unicode="&#x2022;" horiz-adv-x="874" 
d="M430 291q-99 0 -161 65t-64 158q-2 107 71 186.5t181 79.5q94 0 152.5 -62.5t60.5 -160.5q2 -107 -64 -186.5t-176 -79.5z" />
    <glyph glyph-name="ellipsis" unicode="&#x2026;" horiz-adv-x="1286" 
d="M358 104q0 -53 -36 -88.5t-84 -35.5t-81.5 33t-33.5 83q0 52 36 88.5t87 36.5q48 0 80 -32.5t32 -84.5zM760 104q0 -53 -35.5 -88.5t-83.5 -35.5t-82.5 33t-34.5 83q0 52 37 88.5t88 36.5q48 0 79.5 -32.5t31.5 -84.5zM1163 104q0 -53 -35.5 -88.5t-85.5 -35.5
q-48 0 -81 33t-33 83q0 52 37 88.5t88 36.5q48 0 79 -32.5t31 -84.5z" />
    <glyph glyph-name="perthousand" unicode="&#x2030;" horiz-adv-x="2938" 
d="M856 1020q0 -100 -30 -181t-81.5 -132t-118 -78t-141.5 -27q-156 0 -254 108.5t-98 295.5q0 198 106.5 309.5t264.5 111.5t255 -109.5t97 -297.5zM1509 1425l-866 -1445h-94l862 1445h98zM268 1018q0 -150 58 -239t168 -89q104 0 166.5 85t62.5 237q0 151 -58 240
t-165 89q-106 0 -169 -83t-63 -240zM1851 258q0 -100 -30 -181t-81.5 -132t-117.5 -78t-141 -27q-157 0 -255 108.5t-98 295.5q0 198 106.5 310t264.5 112q157 0 254.5 -110t97.5 -298zM2806 258q0 -100 -30 -181t-81.5 -132t-118 -78t-141.5 -27q-157 0 -254.5 108.5
t-97.5 295.5q0 198 106.5 310t264.5 112q157 0 254.5 -110t97.5 -298zM1262 256q0 -150 58.5 -239t166.5 -89q105 0 167 84.5t62 237.5q0 152 -57.5 241t-165.5 89q-105 0 -168 -83.5t-63 -240.5zM2216 256q0 -150 58.5 -239t166.5 -89q105 0 167.5 84.5t62.5 237.5
q0 151 -58 240.5t-166 89.5q-105 0 -168 -83.5t-63 -240.5z" />
    <glyph glyph-name="guilsinglleft" unicode="&#x2039;" horiz-adv-x="579" 
d="M111 578v43q142 124 346 395l41 -21q-80 -197 -234 -397q153 -195 234 -395l-41 -23q-203 273 -346 398z" />
    <glyph glyph-name="guilsinglright" unicode="&#x203a;" horiz-adv-x="579" 
d="M469 578q-82 -71 -160.5 -164t-185.5 -234l-41 23q82 203 233 395q-152 197 -233 397l41 21q107 -140 186 -232t160 -163v-43z" />
    <glyph glyph-name="fraction" unicode="&#x2044;" horiz-adv-x="1189" 
d="M1077 1434l-870 -1454h-94l868 1454h96z" />
    <glyph glyph-name="zerosuperior" unicode="&#x2070;" horiz-adv-x="954" 
d="M829 1139q0 -105 -29 -189t-79 -137t-114.5 -80.5t-137.5 -27.5q-153 0 -248.5 112.5t-95.5 310.5q0 206 103 323.5t257 117.5t249 -116.5t95 -313.5zM258 1139q0 -164 55 -259.5t162 -95.5q105 0 163 92t58 259q0 164 -55 259t-162 95q-102 0 -161.5 -90t-59.5 -260z
" />
    <glyph glyph-name="foursuperior" unicode="&#x2074;" horiz-adv-x="825" 
d="M80 1022l369 534l137 13l14 -13v-526q51 2 129 10l-14 -102h-115v-217h-121v217h-383zM188 1028v-2q80 2 267 2h24v225q0 148 4 209h-2z" />
    <glyph glyph-name="fivesuperior" unicode="&#x2075;" horiz-adv-x="774" 
d="M115 733l14 90q88 -30 195 -30q97 0 158 47.5t61 130.5q0 82 -56.5 124t-144.5 42q-96 0 -174 -29l-21 14v430h287q125 0 213 13l-8 -111h-385v-246q69 15 133 15q123 0 205 -63.5t82 -180.5q0 -126 -96 -200t-252 -74q-111 0 -211 28z" />
    <glyph glyph-name="sixsuperior" unicode="&#x2076;" horiz-adv-x="837" 
d="M438 705q-144 0 -228.5 96.5t-84.5 273.5q0 223 123 358.5t321 135.5q74 0 113 -17l-12 -92q-44 19 -99 19q-125 0 -214 -89.5t-99 -259.5h4q38 37 97.5 56.5t119.5 19.5q118 0 189 -64.5t71 -172.5q0 -122 -86.5 -193t-214.5 -71zM444 1128q-55 0 -109.5 -24t-76.5 -62
q6 -124 48.5 -189t129.5 -65q77 0 124.5 47.5t47.5 125.5q0 75 -43 121t-121 46z" />
    <glyph glyph-name="sevensuperior" unicode="&#x2077;" horiz-adv-x="718" 
d="M78 1438l14 114h553l14 -14v-70q-152 -160 -252 -356t-110 -391h-131q6 97 41.5 204.5t89.5 203.5t115.5 178.5t124.5 144.5v2h-220q-143 0 -239 -16z" />
    <glyph glyph-name="eightsuperior" unicode="&#x2078;" horiz-adv-x="817" 
d="M403 705q-134 0 -219.5 57.5t-85.5 148.5q0 79 62 139.5t153 90.5v2q-184 94 -184 217q0 89 82.5 149t204.5 60q121 0 196.5 -59.5t75.5 -143.5q0 -65 -51 -123t-135 -92v-4q219 -85 219 -221q0 -93 -89 -157t-229 -64zM414 1491q-69 0 -116.5 -34t-47.5 -91
q0 -52 47 -97t127 -77q64 32 104.5 78.5t40.5 95.5q0 55 -44.5 90t-110.5 35zM391 1094q-71 -29 -120.5 -77t-49.5 -104q0 -58 52.5 -95.5t132.5 -37.5q82 0 134.5 37.5t55.5 97.5q1 58 -50.5 99t-154.5 80z" />
    <glyph glyph-name="ninesuperior" unicode="&#x2079;" horiz-adv-x="837" 
d="M98 1288q0 126 87 203.5t214 77.5q138 0 226 -96t88 -269q0 -139 -55 -252.5t-157.5 -180t-232.5 -66.5q-55 0 -100 10v88q50 -8 92 -8q131 0 216 86.5t104 240.5q-75 -78 -209 -78q-124 0 -198.5 65.5t-74.5 178.5zM231 1296q0 -78 44.5 -125t125.5 -47q56 0 104.5 21.5
t74.5 66.5q-6 125 -53 198t-132 73q-72 0 -118 -52.5t-46 -134.5z" />
    <glyph glyph-name="zeroinferior" unicode="&#x2080;" horiz-adv-x="954" 
d="M829 270q0 -105 -29 -189t-79 -137t-114.5 -80.5t-137.5 -27.5q-153 0 -248.5 113t-95.5 311q0 206 103 323t257 117t249 -116.5t95 -313.5zM258 270q0 -164 55 -259t162 -95q105 0 163 91.5t58 258.5q0 164 -55 259.5t-162 95.5q-102 0 -161.5 -90.5t-59.5 -260.5z" />
    <glyph glyph-name="oneinferior" unicode="&#x2081;" horiz-adv-x="505" 
d="M209 575h-2l-148 -28l-20 74l280 84l15 -13v-835h-127v544q0 125 2 174z" />
    <glyph glyph-name="twoinferior" unicode="&#x2082;" horiz-adv-x="751" 
d="M90 -143l-16 94q53 40 80.5 60.5t76 59t75.5 63.5t65 61t59 64.5t42.5 62t30.5 66t9 63.5q0 74 -50 118.5t-130 44.5q-121 0 -244 -90l-12 97q50 37 128 60.5t156 23.5q122 0 202.5 -64t80.5 -168q0 -56 -28.5 -116t-69.5 -110.5t-105 -107t-117 -96t-124 -88.5h243
q110 0 215 12l-14 -110h-553z" />
    <glyph glyph-name="threeinferior" unicode="&#x2083;" horiz-adv-x="731" 
d="M98 633q43 27 115 47t141 20q109 0 181.5 -50t72.5 -132q0 -72 -60.5 -133.5t-168.5 -93.5q124 -9 197 -63t73 -148q0 -108 -95 -176t-251 -68q-118 0 -221 29l12 86q103 -29 205 -29q96 0 157.5 42t61.5 112q0 73 -68.5 107t-173.5 34q-55 0 -96 -8v86q140 25 217.5 78
t77.5 123q0 52 -40.5 83t-112.5 31q-116 0 -216 -63z" />
    <glyph glyph-name="fourinferior" unicode="&#x2084;" horiz-adv-x="825" 
d="M80 158l369 534l137 13l14 -13v-526q51 2 129 10l-14 -102h-115v-217h-121v217h-383zM188 164v-2q80 2 267 2h24v225q0 148 4 209h-2z" />
    <glyph glyph-name="fiveinferior" unicode="&#x2085;" horiz-adv-x="774" 
d="M115 -135l14 90q91 -31 195 -31q97 0 158 47.5t61 130.5q0 82 -56.5 124t-144.5 42q-99 0 -174 -28l-21 14v430h287q131 0 213 12l-8 -110h-385v-246q65 14 133 14q123 0 205 -63t82 -180q0 -126 -96 -200.5t-252 -74.5q-108 0 -211 29z" />
    <glyph glyph-name="sixinferior" unicode="&#x2086;" horiz-adv-x="837" 
d="M438 -164q-144 0 -228.5 97t-84.5 274q0 223 123 358t321 135q76 0 113 -16l-12 -92q-41 18 -99 18q-125 0 -214 -89t-99 -259h4q38 37 97.5 56.5t119.5 19.5q117 0 188.5 -65t71.5 -173q0 -122 -86.5 -193t-214.5 -71zM444 260q-55 0 -109.5 -24t-76.5 -62
q6 -124 48.5 -189t129.5 -65q77 0 124.5 47t47.5 125q0 75 -43 121.5t-121 46.5z" />
    <glyph glyph-name="seveninferior" unicode="&#x2087;" horiz-adv-x="718" 
d="M78 573l14 115h553l14 -14v-70q-152 -160 -252 -356t-110 -391h-131q6 97 41.5 204.5t89.5 203.5t115.5 178.5t124.5 144.5v2h-220q-137 0 -239 -17z" />
    <glyph glyph-name="eightinferior" unicode="&#x2088;" horiz-adv-x="817" 
d="M403 -164q-134 0 -219.5 58t-85.5 149q0 79 61.5 138.5t153.5 90.5v2q-184 94 -184 218q0 89 82.5 148.5t204.5 59.5q121 0 196.5 -59t75.5 -143q0 -65 -51 -123t-135 -92v-4q219 -85 219 -222q0 -93 -89 -157t-229 -64zM414 623q-69 0 -116.5 -34t-47.5 -91
q0 -52 47 -97t127 -77q64 32 104.5 78.5t40.5 95.5q0 55 -44.5 90t-110.5 35zM391 225q-72 -29 -121 -76.5t-49 -103.5q0 -58 52.5 -95.5t132.5 -37.5q82 0 134.5 37.5t55.5 97.5q1 58 -50.5 98.5t-154.5 79.5z" />
    <glyph glyph-name="nineinferior" unicode="&#x2089;" horiz-adv-x="837" 
d="M98 420q0 126 87 203t214 77q139 0 226.5 -95.5t87.5 -268.5q0 -213 -124.5 -356.5t-320.5 -143.5q-55 0 -100 10v88q50 -8 92 -8q131 0 216 86.5t104 241.5q-75 -78 -209 -78q-124 0 -198.5 65.5t-74.5 178.5zM231 428q0 -78 44.5 -125t125.5 -47q56 0 104.5 21.5
t74.5 66.5q-6 125 -53 197.5t-132 72.5q-72 0 -118 -52t-46 -134z" />
    <glyph glyph-name="euro" unicode="&#x20ac;" horiz-adv-x="1214" 
d="M98 510l8 78h125q-4 58 -4 92q0 38 4 108h-104l10 78h105q40 260 185.5 409.5t360.5 149.5q84 0 169 -23t145 -65l-31 -145q-58 45 -131.5 71.5t-144.5 26.5q-149 0 -253 -111t-136 -313h501l-6 -78h-504q-4 -58 -4 -90q0 -58 6 -110h478l-7 -78h-460q34 -187 133 -291
t248 -104q81 0 162 29.5t141 78.5l20 -133q-67 -54 -158.5 -82t-187.5 -28q-213 0 -353 138.5t-175 391.5h-142z" />
    <glyph glyph-name="trademark" unicode="&#x2122;" horiz-adv-x="1208" 
d="M1006 1411l10 -8l53 -461h-80l-18 174q-16 123 -21 205h-2q-19 -93 -55 -207l-51 -172h-92l-52 172q-38 119 -57 209h-2q-11 -147 -18 -209l-23 -172h-68l56 465l104 4l66 -197q36 -142 45 -194h2q29 150 45 194l63 193zM342 942h-84v401q-49 0 -139 -4l4 66h354l6 -66
q-90 4 -141 4v-401z" />
    <glyph glyph-name="partialdiff" unicode="&#x2202;" horiz-adv-x="1286" 
d="M582 1548q108 0 198 -40.5t154.5 -113.5t109.5 -173t67 -218.5t22 -250.5q0 -120 -17.5 -228.5t-59 -209t-103 -174t-157 -117t-214.5 -43.5q-209 0 -326 123.5t-117 320.5q0 220 143 355.5t384 135.5q158 0 299 -67q-19 265 -130.5 421t-279.5 156q-75 0 -153.5 -29.5
t-131.5 -74.5l-59 109q68 51 167 84.5t204 33.5zM301 434q0 -152 77.5 -241t209.5 -89q173 0 277 153.5t104 442.5v13q-132 78 -287 78q-188 0 -284.5 -95.5t-96.5 -261.5z" />
    <glyph glyph-name="product" unicode="&#x220f;" horiz-adv-x="1519" 
d="M1399 1389l-8 -113h-236v-1563h-154v1563h-489v-1563h-154v1563h-235l-2 123l1261 6z" />
    <glyph glyph-name="summation" unicode="&#x2211;" horiz-adv-x="1163" 
d="M119 -143l516 725l-516 725l31 98h931l19 -16l-8 -113l-805 12l495 -684v-45l-495 -684l807 12l-2 -131h-942z" />
    <glyph glyph-name="minus" unicode="&#x2212;" 
d="M1044 659h-921v97q348 10 921 10l11 -10z" />
    <glyph glyph-name="radical" unicode="&#x221a;" horiz-adv-x="1232" 
d="M1182 1520l-459 -1520h-174l-338 897h-178v119h289l317 -893l405 1425l125 -12z" />
    <glyph glyph-name="infinity" unicode="&#x221e;" horiz-adv-x="1726" 
d="M1567 557q0 -156 -95 -255t-245 -99q-65 0 -120.5 19.5t-100 57t-77.5 77t-69 94.5q-155 -248 -371 -248q-147 0 -238 96t-91 250q0 157 95.5 255.5t242.5 98.5q116 0 201.5 -64t164.5 -182q152 246 373 246q146 0 238 -96t92 -250zM1219 803q-175 0 -301 -234
q23 -40 34 -57.5t34 -52t38 -51t40 -40.5t47.5 -35t52.5 -19.5t63 -8.5q101 0 165 68.5t64 177.5q0 110 -67.5 181t-169.5 71zM270 561q0 -113 67.5 -183.5t170.5 -70.5q86 0 164 60.5t137 164.5l-2 5q-32 53 -51 82.5t-51.5 70t-60 61.5t-66 36.5t-80.5 15.5
q-101 0 -164.5 -68t-63.5 -174z" />
    <glyph glyph-name="integral" unicode="&#x222b;" horiz-adv-x="978" 
d="M371 -410q170 0 170 185q0 70 -24.5 212t-81.5 428q-13 62 -19 95q-42 203 -60.5 298.5t-38.5 223.5t-20 193q0 158 86.5 240.5t237.5 82.5q126 0 251 -61l-18 -131q-124 80 -238 80q-170 0 -170 -187q0 -99 101 -607q13 -67 20 -103q46 -222 63.5 -309t38.5 -221.5
t21 -203.5q0 -164 -86 -246.5t-237 -82.5q-127 0 -252 61l16 131q126 -78 240 -78z" />
    <glyph glyph-name="approxequal" unicode="&#x2248;" 
d="M852 657q-53 0 -279.5 72t-250.5 72q-31 0 -132 -139q-13 -18 -20 -27l-66 45q125 231 224 231q52 0 278 -71.5t250 -71.5q7 0 15.5 4t19 13.5t20 19.5t23 27t23.5 29.5t27 34.5t28 36l61 -43q-25 -45 -45 -77.5t-50 -72t-62 -61t-64 -21.5zM852 246q-53 0 -279.5 70.5
t-250.5 70.5q-22 0 -55 -38t-88 -115q-6 -9 -9 -13l-66 45q126 232 224 232q52 0 278 -71t250 -71q6 0 12.5 2.5t14 8.5t14.5 12t16.5 16.5t17 19.5t19 23.5t19.5 25t21.5 28t21.5 28.5l61 -43q-24 -45 -44.5 -77.5t-50.5 -71.5t-62 -60.5t-64 -21.5z" />
    <glyph glyph-name="notequal" unicode="&#x2260;" 
d="M295 248l108 229h-280v96q140 7 332 7l133 282h-465v96q259 9 516 9l125 262l16 4l78 -41l-106 -223q63 0 161.5 1t130.5 1l11 -13l-11 -96h-344l-135 -280q364 4 479 4l11 -13l-11 -96h-528l-127 -264l-16 -4z" />
    <glyph glyph-name="lessequal" unicode="&#x2264;" 
d="M281 895l761 -285v-106l-925 354v66l10 16q142 54 444 161t469 163v-109zM1042 197h-921v98q348 10 919 10l13 -12z" />
    <glyph glyph-name="greaterequal" unicode="&#x2265;" 
d="M135 504v106l762 285l-760 260v109q169 -56 471 -163t443 -161l10 -16v-66zM1047 197h-922v98q348 10 922 10l12 -12z" />
    <glyph glyph-name="lozenge" unicode="&#x25ca;" horiz-adv-x="1251" 
d="M150 670v63l438 680l123 21l454 -703v-63l-446 -668l-121 -20zM647 1329l-389 -629l391 -612h13l397 612l-397 629h-15z" />
    <glyph glyph-name="fi" unicode="&#xfb01;" horiz-adv-x="1110" 
d="M367 0h-154v911l-154 7v67l154 21q-1 31 -3.5 98.5t-2.5 87.5q0 168 93.5 262t264.5 94q197 0 328 -106l-76 -107q-118 92 -254 92q-107 0 -156 -60t-49 -177q0 -74 4 -184h373l154 30l18 -16v-1020h-153v694q0 112 -9 211l-378 6v-911z" />
    <glyph glyph-name="fl" unicode="&#xfb02;" horiz-adv-x="1105" 
d="M367 0h-154v911l-154 7v67l154 21q-1 29 -3.5 97.5t-2.5 90.5q0 168 99 261t286 93q88 0 168 -22l143 22l19 -16v-1532h-154v905l-401 6v-911zM358 1196q0 -80 4 -190h400l6 -7v207q0 100 -6 185q-85 36 -178 36q-226 0 -226 -231z" />
    <glyph glyph-name="a.inferior" horiz-adv-x="862" 
d="M690 86q0 -132 39 -229l-113 -17q-26 53 -41 113h-2q-35 -46 -105.5 -79.5t-152.5 -33.5q-100 0 -157.5 52t-57.5 137q0 66 37.5 117.5t103.5 84t147 51t177 23.5v101q0 159 -174 159q-133 0 -256 -73l-6 106q140 68 291 68q133 0 203.5 -62.5t70.5 -173.5
q0 -60 -2 -184.5t-2 -159.5zM229 49q0 -51 34.5 -86t98.5 -35q53 0 109.5 24.5t93.5 61.5v228q-146 -10 -241 -59t-95 -134z" />
    <glyph glyph-name="b.inferior" horiz-adv-x="968" 
d="M844 256q0 -199 -99 -307.5t-262 -108.5q-99 0 -200 33l-115 -33v955q0 118 -16 249l129 21l14 -14v-467q88 82 221 82q149 0 238.5 -110t89.5 -300zM479 575q-109 0 -184 -69v-553q76 -29 174 -29q114 0 178 83t64 241q0 153 -60 240t-172 87z" />
    <glyph glyph-name="c.inferior" horiz-adv-x="829" 
d="M741 612l-32 -108q-84 61 -195 61q-118 0 -188 -79t-70 -226q0 -148 68.5 -233.5t193.5 -85.5q110 0 207 59l12 -94q-103 -66 -243 -66q-167 0 -269 107.5t-102 298.5q0 196 108 308t283 112q127 0 227 -54z" />
    <glyph glyph-name="d.inferior" horiz-adv-x="972" 
d="M659 1044l127 21l15 -14v-973q0 -116 41 -221l-115 -17q-18 33 -41 111h-2q-81 -111 -231 -111q-147 0 -238.5 107.5t-91.5 288.5q0 204 113.5 317t285.5 113q80 0 150 -25v154q0 142 -13 249zM256 250q0 -149 65 -235.5t173 -88.5q106 0 178 84v549q-80 25 -144 25
q-120 0 -196 -85.5t-76 -248.5z" />
    <glyph glyph-name="e.inferior" horiz-adv-x="880" 
d="M774 266l-24 -24h-492q6 -149 77.5 -225t190.5 -76q115 0 219 65l11 -92q-42 -30 -110 -52t-148 -22q-170 0 -272.5 107.5t-102.5 296.5q0 196 105 309t259 113q131 0 210 -84.5t79 -223.5q0 -61 -2 -92zM479 580q-89 0 -151.5 -73t-69.5 -204l387 10q2 18 2 58
q0 94 -45 151.5t-123 57.5z" />
    <glyph glyph-name="f.inferior" horiz-adv-x="569" 
d="M309 -143h-127v706l-125 6v56l125 16q-4 110 -4 143q0 133 71.5 207t205.5 74q113 0 192 -45l-29 -107q-83 52 -167 52q-148 0 -148 -179q0 -16 2 -70t2 -75h223l11 -14l-4 -68l-228 4v-706z" />
    <glyph glyph-name="g.inferior" horiz-adv-x="841" 
d="M203 -25q0 74 67 131q-78 30 -124 97t-46 159q0 130 81 217t222 87q106 0 172 -52q32 33 84 52.5t105 19.5l16 -8l-2 -103h-162q82 -78 82 -194q0 -127 -81 -212t-218 -85q-45 0 -65 4q-25 -31 -25 -70q0 -38 22 -56t75 -21l141 -11q109 -7 177.5 -54t68.5 -140
q0 -117 -107.5 -201t-294.5 -84q-156 0 -250 59.5t-94 149.5q0 52 31 92t69 58l56 -25q-41 -46 -41 -92q0 -67 66 -115.5t180 -48.5t185 49.5t71 124.5q0 57 -43.5 90t-118.5 39l-129 10q-170 15 -170 133zM571 373q0 102 -43.5 157.5t-128.5 55.5q-86 0 -130 -55t-44 -156
q0 -100 45 -156.5t131 -56.5q84 0 127 55t43 156z" />
    <glyph glyph-name="h.inferior" horiz-adv-x="964" 
d="M295 -143h-127v938q0 137 -16 249l129 21l14 -14v-500q127 115 276 115q105 0 164.5 -60.5t59.5 -173.5v-575h-127v546q0 82 -38.5 124t-111.5 42q-110 0 -223 -90v-622z" />
    <glyph glyph-name="i.inferior" horiz-adv-x="468" 
d="M317 981q0 -43 -26.5 -75t-67.5 -32q-37 0 -60.5 26.5t-23.5 64.5q0 42 29 73t68 31q38 0 59.5 -24t21.5 -64zM170 -143v538q0 138 -16 250l129 21l14 -15v-794h-127z" />
    <glyph glyph-name="j.inferior" horiz-adv-x="468" 
d="M315 981q0 -43 -25.5 -75t-66.5 -32q-38 0 -61 26.5t-23 64.5q0 42 28 73t69 31q38 0 58.5 -24t20.5 -64zM141 -549l-55 51q84 137 84 324v569q0 132 -14 250l127 21l16 -15v-825q0 -126 -38 -213.5t-120 -161.5z" />
    <glyph glyph-name="k.inferior" horiz-adv-x="872" 
d="M168 795q0 118 -16 249l129 21l14 -14v-746h129q51 66 254 361l96 -19l10 -14l-252 -334q47 -72 302 -442l-142 -17q-111 154 -260 385h-137v-368h-127v938z" />
    <glyph glyph-name="l.inferior" horiz-adv-x="456" 
d="M285 -143h-127v938q0 110 -17 249l129 21l15 -14v-1194z" />
    <glyph glyph-name="m.inferior" horiz-adv-x="1443" 
d="M303 -143h-127v542q0 113 -33 238l117 29q24 -55 37 -119q128 119 270 119q160 0 205 -129q132 129 281 129q105 0 163 -59t58 -165v-585h-129v559q0 74 -37 113.5t-107 39.5q-104 0 -217 -94q2 -10 2 -33v-585h-127v559q0 153 -143 153q-104 0 -213 -92v-620z" />
    <glyph glyph-name="n.inferior" horiz-adv-x="972" 
d="M303 -143h-127v542q0 113 -33 238l117 29q23 -54 37 -121q130 121 283 121q105 0 164 -60.5t59 -173.5v-575h-127v546q0 82 -38.5 124t-111.5 42q-108 0 -223 -92v-620z" />
    <glyph glyph-name="o.inferior" horiz-adv-x="968" 
d="M846 258q0 -100 -30 -181t-81.5 -132t-118 -78t-141.5 -27q-157 0 -254.5 108.5t-97.5 295.5q0 198 106.5 310t264.5 112q157 0 254.5 -110t97.5 -298zM256 256q0 -150 58.5 -239t166.5 -89q105 0 167.5 84.5t62.5 237.5q0 151 -58 240.5t-166 89.5q-105 0 -168 -83.5
t-63 -240.5z" />
    <glyph glyph-name="p.inferior" horiz-adv-x="976" 
d="M176 -532v931q0 106 -33 238l117 29q24 -59 31 -93q41 41 104 67t131 26q140 0 233 -108.5t93 -295.5q0 -190 -95.5 -306t-262.5 -116q-105 0 -191 39v-164q0 -125 14 -243l-127 -21zM483 575q-108 0 -180 -75v-535q80 -41 170 -41q119 0 183.5 87t64.5 243
q0 158 -65 239.5t-173 81.5z" />
    <glyph glyph-name="q.inferior" horiz-adv-x="972" 
d="M672 -532v456q-90 -84 -219 -84q-148 0 -239 109t-91 297q0 200 114 310t298 110q73 0 161 -25l105 25v-945q0 -131 14 -249l-127 -21zM256 256q0 -150 61 -239.5t172 -90.5q48 0 98 19.5t85 52.5v571q-77 15 -119 15q-140 0 -218.5 -85.5t-78.5 -242.5z" />
    <glyph glyph-name="r.inferior" horiz-adv-x="661" 
d="M303 -143h-127v542q0 113 -33 238l117 29q32 -80 41 -144q127 144 244 144q46 0 80 -21l-25 -121q-50 15 -76 15q-46 0 -105.5 -24t-115.5 -69v-589z" />
    <glyph glyph-name="s.inferior" horiz-adv-x="755" 
d="M629 618l-15 -108q-99 61 -206 61q-78 0 -124 -32t-46 -86q0 -41 31 -74t77 -53.5t100.5 -45.5t100.5 -50.5t77 -69.5t31 -101q0 -97 -84 -158t-221 -61q-144 0 -250 56l15 106q118 -68 243 -68q81 0 125.5 32t44.5 83q0 48 -43 83.5t-104 61t-122.5 54t-104.5 78
t-43 116.5q0 99 83 161.5t220 62.5q111 0 215 -48z" />
    <glyph glyph-name="t.inferior" horiz-adv-x="622" 
d="M537 571l-234 2v-456q0 -94 32 -135t97 -41q72 0 133 39l17 -89q-85 -51 -187 -51q-219 0 -219 266v467l-123 2v58l125 16l31 189l84 8l16 -17l-6 -180h227l13 -14z" />
    <glyph glyph-name="u.inferior" horiz-adv-x="958" 
d="M170 395q0 86 -12 250l125 21l14 -15v-555q0 -153 143 -153q102 0 211 92v614l127 17v-584q0 -112 33 -221l-109 -21q-30 65 -38 121h-7q-124 -121 -266 -121q-105 0 -163 57t-58 160v338z" />
    <glyph glyph-name="v.inferior" horiz-adv-x="806" 
d="M758 641l-297 -791h-115l-297 805l131 11l133 -387q50 -131 69.5 -191t29.5 -121h2q21 99 102 312l133 387l99 -11z" />
    <glyph glyph-name="w.inferior" horiz-adv-x="1292" 
d="M313 -150l-264 805l129 11l117 -377q61 -178 90 -309h2q22 110 88 301l117 381h129l113 -369q3 -9 14.5 -41.5t16.5 -47t14.5 -44t15 -48.5t12.5 -44t11.5 -46t7.5 -40h2q18 95 90 305l117 379l98 -11l10 -14l-262 -791h-125l-127 390q-62 187 -76 256l-6 34h-4l-6 -38
t-9 -42t-9.5 -37.5t-12.5 -43t-12 -39t-14.5 -46t-14.5 -44.5l-127 -390h-125z" />
    <glyph glyph-name="x.inferior" horiz-adv-x="808" 
d="M610 -143l-219 333l-215 -333h-108l-7 14l258 381l-258 395l127 19l228 -355l219 355l108 -11l5 -14l-261 -387l261 -397h-138z" />
    <glyph glyph-name="y.inferior" horiz-adv-x="794" 
d="M758 641l-289 -762q-143 -399 -412 -428l-22 123q111 12 194 85t142 218h-37l-285 778l131 11l133 -387q50 -131 69.5 -191t29.5 -121h2q21 99 102 312l133 387l99 -11z" />
    <glyph glyph-name="z.inferior" horiz-adv-x="745" 
d="M66 541l8 108h585l15 -80l-471 -610l229 4q170 0 254 8l-10 -114h-602l-13 82l476 610z" />
    <glyph glyph-name="a.superior" horiz-adv-x="862" 
d="M690 823q0 -132 39 -229l-113 -16q-26 54 -41 112h-2q-35 -46 -105.5 -79t-152.5 -33q-100 0 -157.5 51.5t-57.5 136.5q0 66 37.5 117.5t103.5 84t147 51t177 23.5v101q0 160 -174 160q-131 0 -256 -74l-6 106q140 68 291 68q133 0 203.5 -62.5t70.5 -173.5
q0 -60 -2 -184.5t-2 -159.5zM229 786q0 -51 34.5 -86t98.5 -36q53 1 109.5 26t93.5 62v227q-146 -10 -241 -59t-95 -134z" />
    <glyph glyph-name="b.superior" horiz-adv-x="968" 
d="M844 993q0 -199 -99 -307t-262 -108q-102 0 -200 32l-115 -32v954q0 119 -16 250l129 20l14 -14v-467q88 82 221 82q149 0 238.5 -110t89.5 -300zM479 1313q-107 0 -184 -70v-553q73 -28 174 -28q114 0 178 83t64 240q0 153 -60 240.5t-172 87.5z" />
    <glyph glyph-name="c.superior" horiz-adv-x="829" 
d="M741 1350l-32 -109q-85 62 -195 62q-118 0 -188 -79.5t-70 -226.5q0 -148 68.5 -233.5t193.5 -85.5q110 0 207 59l12 -94q-102 -65 -243 -65q-167 0 -269 107t-102 298q0 196 108 308t283 112q129 0 227 -53z" />
    <glyph glyph-name="d.superior" horiz-adv-x="972" 
d="M659 1782l127 20l15 -14v-973q0 -116 41 -221l-115 -16q-19 34 -41 110h-2q-80 -110 -231 -110q-147 0 -238.5 107t-91.5 288q0 204 113.5 317t285.5 113q80 0 150 -25v154q0 143 -13 250zM256 987q0 -149 65 -235t173 -86q107 0 178 82v548q-80 25 -144 25
q-120 0 -196 -85.5t-76 -248.5z" />
    <glyph glyph-name="e.superior" horiz-adv-x="880" 
d="M774 1004l-24 -25h-492q6 -149 77.5 -225t190.5 -76q115 0 219 65l11 -92q-42 -29 -110 -51t-148 -22q-170 0 -272.5 107t-102.5 296q0 196 105 309t259 113q132 0 210.5 -84t78.5 -223q0 -61 -2 -92zM479 1317q-89 0 -151.5 -73t-69.5 -204l387 11q2 18 2 57
q0 94 -45 151.5t-123 57.5z" />
    <glyph glyph-name="f.superior" horiz-adv-x="569" 
d="M309 594h-127v706l-125 7v55l125 16q-4 110 -4 144q0 133 71.5 206.5t205.5 73.5q113 0 192 -45l-29 -106q-81 51 -167 51q-148 0 -148 -178q0 -16 2 -70t2 -76h223l11 -14l-4 -68l-228 4v-706z" />
    <glyph glyph-name="g.superior" horiz-adv-x="841" 
d="M203 711q0 76 67 133q-78 30 -124 97t-46 159q0 130 81 216.5t222 86.5q107 0 172 -51q32 33 83.5 52t105.5 19l16 -8l-2 -102h-162q82 -78 82 -195q0 -127 -81 -212.5t-218 -86.5q-62 5 -65 6q-25 -31 -25 -69t22 -56.5t75 -21.5l141 -10q108 -7 177 -54.5t69 -140.5
q0 -117 -107.5 -201t-294.5 -84q-156 0 -250 59.5t-94 149.5q0 52 31 92t69 58l56 -25q-41 -46 -41 -92q0 -67 66 -115.5t180 -48.5t185 49.5t71 124.5q0 57 -43.5 90t-118.5 39l-129 11q-170 15 -170 131zM571 1110q0 102 -43.5 157.5t-128.5 55.5q-86 0 -130 -55t-44 -156
q0 -100 45 -156.5t131 -56.5q84 0 127 55t43 156z" />
    <glyph glyph-name="h.superior" horiz-adv-x="964" 
d="M295 594h-127v938q0 138 -16 250l129 20l14 -14v-500q127 115 276 115q105 0 164.5 -60.5t59.5 -173.5v-575h-127v547q0 82 -38.5 124t-111.5 42q-110 0 -223 -90v-623z" />
    <glyph glyph-name="i.superior" horiz-adv-x="468" 
d="M317 1718q0 -43 -26.5 -74.5t-67.5 -31.5q-37 0 -60.5 26t-23.5 64q0 42 29 73t68 31q38 0 59.5 -24t21.5 -64zM170 594v539q0 137 -16 249l129 21l14 -14v-795h-127z" />
    <glyph glyph-name="j.superior" horiz-adv-x="468" 
d="M315 1718q0 -43 -25.5 -74.5t-66.5 -31.5q-39 0 -61.5 26t-22.5 64q0 42 28 73t69 31q38 0 58.5 -24t20.5 -64zM141 188l-55 52q84 137 84 323v570q0 131 -14 249l127 21l16 -14v-826q0 -126 -38 -213.5t-120 -161.5z" />
    <glyph glyph-name="k.superior" horiz-adv-x="872" 
d="M168 1532q0 119 -16 250l129 20l14 -14v-746h129q51 66 254 361l96 -19l10 -14l-252 -334q47 -72 302 -442l-142 -16q-111 154 -260 385h-137v-369h-127v938z" />
    <glyph glyph-name="l.superior" horiz-adv-x="456" 
d="M285 594h-127v938q0 111 -17 250l129 20l15 -14v-1194z" />
    <glyph glyph-name="m.superior" horiz-adv-x="1443" 
d="M303 594h-127v543q0 112 -33 237l117 29q24 -55 37 -119q128 119 270 119q160 0 205 -129q132 129 281 129q106 0 163.5 -58.5t57.5 -164.5v-586h-129v559q0 74 -37 114t-107 40q-102 0 -217 -95q2 -10 2 -32v-586h-127v559q0 75 -36 114.5t-107 39.5q-103 0 -213 -93
v-620z" />
    <glyph glyph-name="n.superior" horiz-adv-x="972" 
d="M303 594h-127v543q0 112 -33 237l117 29q23 -54 37 -121q130 121 283 121q105 0 164 -60.5t59 -173.5v-575h-127v547q0 82 -38.5 124t-111.5 42q-106 0 -223 -93v-620z" />
    <glyph glyph-name="o.superior" horiz-adv-x="968" 
d="M846 995q0 -100 -30 -181t-81.5 -131.5t-118 -77.5t-141.5 -27q-157 0 -254.5 108t-97.5 295q0 198 106.5 310t264.5 112q157 0 254.5 -110t97.5 -298zM256 993q0 -150 58.5 -238.5t166.5 -88.5q105 0 167.5 84.5t62.5 236.5q0 151 -58 240.5t-166 89.5
q-105 0 -168 -83.5t-63 -240.5z" />
    <glyph glyph-name="p.superior" horiz-adv-x="976" 
d="M176 205v932q0 105 -33 237l117 29q25 -60 31 -92q41 41 104 66.5t131 25.5q140 0 233 -108.5t93 -295.5q0 -189 -95.5 -305t-262.5 -116q-107 0 -191 38v-163q0 -126 14 -244l-127 -21zM483 1313q-107 0 -180 -76v-535q78 -40 170 -40q119 0 183.5 86.5t64.5 242.5
q0 158 -65 240t-173 82z" />
    <glyph glyph-name="q.superior" horiz-adv-x="972" 
d="M672 205v457q-90 -84 -219 -84q-148 0 -239 108.5t-91 296.5q0 200 114 310t298 110q73 0 161 -25l105 25v-944q0 -132 14 -250l-127 -21zM256 993q0 -150 61 -238.5t172 -88.5q49 0 99 18t84 51v572q-72 14 -119 14q-140 0 -218.5 -85.5t-78.5 -242.5z" />
    <glyph glyph-name="r.superior" horiz-adv-x="661" 
d="M303 594h-127v543q0 112 -33 237l117 29q32 -81 41 -143q126 143 244 143q46 0 80 -21l-25 -120q-47 14 -76 14q-46 0 -105.5 -23.5t-115.5 -68.5v-590z" />
    <glyph glyph-name="s.superior" horiz-adv-x="755" 
d="M629 1356l-15 -109q-100 62 -206 62q-78 0 -124 -32.5t-46 -86.5q0 -49 43 -85t104 -61.5t122.5 -54t104.5 -77t43 -115.5q0 -97 -84 -158t-221 -61q-146 0 -250 55l15 106q116 -67 243 -67q81 0 125.5 31.5t44.5 82.5q0 47 -43 83t-104 61.5t-122.5 54.5t-104.5 78.5
t-43 116.5q0 99 83 161t220 62q113 0 215 -47z" />
    <glyph glyph-name="t.superior" horiz-adv-x="622" 
d="M537 1309l-234 2v-457q0 -94 32 -135t97 -41q72 0 133 39l17 -88q-85 -51 -187 -51q-219 0 -219 266v467l-123 2v57l125 16l31 189l84 8l16 -16l-6 -181h227l13 -14z" />
    <glyph glyph-name="u.superior" horiz-adv-x="958" 
d="M170 1133q0 85 -12 249l125 21l14 -14v-555q0 -75 36 -114.5t107 -39.5q102 0 211 92v614l127 17v-584q0 -112 33 -221l-109 -20q-30 66 -38 120h-7q-123 -120 -266 -120q-105 0 -163 57t-58 160v338z" />
    <glyph glyph-name="v.superior" horiz-adv-x="806" 
d="M758 1378l-297 -790h-115l-297 805l131 10l133 -387q51 -133 70 -192t29 -119h2q20 96 102 311l133 387l99 -10z" />
    <glyph glyph-name="w.superior" horiz-adv-x="1292" 
d="M313 588l-264 805l129 10l117 -377q61 -178 90 -309h2q22 110 88 301l117 381h129l113 -369q3 -9 14.5 -41.5t16.5 -47t14.5 -44t15 -48.5t12.5 -44t11.5 -46t7.5 -40h2q18 95 90 305l117 379l98 -10l10 -15l-262 -790h-125l-127 389q-69 207 -82 291h-4
q-2 -17 -5.5 -35.5t-6.5 -33t-9 -36.5t-9 -33.5t-11 -37.5t-11 -35.5t-13 -40.5t-13 -39l-127 -389h-125z" />
    <glyph glyph-name="x.superior" horiz-adv-x="808" 
d="M610 594l-219 334l-215 -334h-108l-7 14l258 381l-258 395l127 19l228 -354l219 354l108 -10l5 -15l-261 -387l261 -397h-138z" />
    <glyph glyph-name="y.superior" horiz-adv-x="794" 
d="M758 1378l-289 -762q-143 -399 -412 -428l-22 123q111 12 194 85t142 218h-37l-285 779l131 10l133 -387q51 -133 70 -192t29 -119h2q20 96 102 311l133 387l99 -10z" />
    <glyph glyph-name="z.superior" horiz-adv-x="745" 
d="M66 1278l8 108h585l15 -79l-471 -611l229 4q160 0 254 9l-10 -115h-602l-13 82l476 610z" />
    <glyph glyph-name="c_h" horiz-adv-x="2138" 
d="M1329 0h-153v1206q0 130 -7 207q-40 6 -79 6q-141 0 -225.5 -59.5t-84.5 -161.5q0 -53 25 -115t80 -114l-39 -129q-105 75 -238 75q-143 0 -228 -103.5t-85 -295.5q0 -193 83.5 -305.5t235.5 -112.5q126 0 252 78l13 -113q-120 -83 -293 -83q-204 0 -328.5 136.5
t-124.5 383.5q0 252 130.5 394t344.5 142q56 0 121 -10q-72 92 -72 201q0 141 132 231t354 90q85 0 186 -16v-641q157 145 338 145q129 0 200.5 -76.5t71.5 -222.5v-737h-153v705q0 215 -184 215q-133 0 -273 -119v-801z" />
    <glyph glyph-name="c_t" horiz-adv-x="1699" 
d="M1169 1016q27 75 27 170q0 110 -47.5 171.5t-138.5 61.5q-94 0 -151.5 -59t-57.5 -164q0 -118 84 -227l-39 -129q-105 75 -238 75q-144 0 -228.5 -103.5t-84.5 -297.5q0 -192 83.5 -304t233.5 -112q128 0 254 78l13 -113q-120 -83 -291 -83q-207 0 -331 136t-124 382
q0 253 131 395.5t346 142.5q66 0 127 -12q-45 83 -45 186q0 141 95 229.5t243 88.5q141 0 231.5 -84t90.5 -236q0 -86 -33 -192h278l15 -17l-8 -79l-285 2v-592q0 -232 160 -232q79 0 161 52l19 -107q-99 -63 -225 -63q-67 0 -117.5 22.5t-78.5 56.5t-45 81t-22.5 87.5
t-5.5 85.5v611l-143 2v69z" />
    <glyph glyph-name="s_h" horiz-adv-x="2035" 
d="M1227 0h-154v1206q0 108 -6 207q-43 6 -80 6q-142 0 -226.5 -59.5t-84.5 -165.5q0 -49 19.5 -108.5t62.5 -110.5l-19 -131q-131 80 -252 80q-96 0 -152 -43.5t-56 -112.5q0 -47 28 -84.5t72.5 -64t98.5 -51t108.5 -52t99 -60.5t72.5 -83t28 -113q0 -125 -101 -202.5
t-267 -77.5q-173 0 -305 69l18 129q67 -41 147.5 -62.5t147.5 -21.5q98 0 153.5 42.5t55.5 109.5q0 40 -22 73.5t-58 56t-81.5 46t-93.5 43t-93.5 47t-81.5 58.5t-58 77.5t-22 102.5q0 128 101 207t266 79q74 0 131 -14q-70 96 -70 201q0 144 131.5 234.5t353.5 90.5
q88 0 189 -16v-641q154 145 336 145q129 0 200.5 -76.5t71.5 -222.5v-737h-154v705q0 215 -182 215q-132 0 -272 -119v-801z" />
    <glyph glyph-name="s_t" horiz-adv-x="1599" 
d="M758 975l-19 -131q-131 80 -252 80q-96 0 -152 -43.5t-56 -112.5q0 -47 28 -84.5t72.5 -64t98.5 -51t108.5 -52t99 -60.5t72.5 -83t28 -113q0 -125 -101 -202.5t-267 -77.5q-173 0 -305 69l18 129q67 -41 147.5 -62.5t147.5 -21.5q98 0 153.5 42.5t55.5 109.5
q0 40 -22 73.5t-58 56t-81.5 46t-93.5 43t-93.5 47t-81.5 58.5t-58 77.5t-22 102.5q0 128 101 207t266 79q78 0 145 -18q-45 86 -45 190q0 141 95 230.5t241 89.5q141 0 232 -84.5t91 -233.5q0 -82 -30 -194h276l14 -17l-8 -79l-282 2v-592q0 -33 2 -58.5t11 -60.5t25 -57.5
t46.5 -39t72.5 -16.5q80 0 162 52l19 -107q-99 -63 -226 -63q-66 0 -116 22.5t-78 56.5t-45 81t-22 87.5t-5 85.5v611l-145 2v69l147 21q27 75 27 170q0 111 -47.5 172t-141.5 61q-93 0 -150 -59.5t-57 -169.5q0 -108 58 -215z" />
    <glyph glyph-name="a.sc" horiz-adv-x="1077" 
d="M188 0h-147l350 946q10 30 30.5 86.5t27.5 79.5l157 8l23 -20l407 -1100h-155l-115 303h-465zM424 625l-80 -209h379l-78 209q-77 219 -108 344h-5q-31 -123 -108 -344z" />
    <glyph glyph-name="aacute.sc" horiz-adv-x="1077" 
d="M721 1606l8 -27q-120 -181 -328 -319l-51 24q166 213 228 350zM188 0h-147l350 946q10 30 30.5 86.5t27.5 79.5l157 8l23 -20l407 -1100h-155l-115 303h-465zM424 625l-80 -209h379l-78 209q-77 219 -108 344h-5q-31 -123 -108 -344z" />
    <glyph glyph-name="abreve.sc" horiz-adv-x="1077" 
d="M731 1591h72q-20 -133 -92.5 -209.5t-180.5 -76.5q-102 0 -171.5 74.5t-84.5 203.5l70 10q20 -78 73 -123t126 -45q66 0 116.5 45.5t71.5 120.5zM188 0h-147l350 946q10 30 30.5 86.5t27.5 79.5l157 8l23 -20l407 -1100h-155l-115 303h-465zM424 625l-80 -209h379
l-78 209q-77 219 -108 344h-5q-31 -123 -108 -344z" />
    <glyph glyph-name="acaron.sc" horiz-adv-x="1077" 
d="M778 1636l49 -37q-131 -175 -213 -319l-125 -14q-107 176 -231 333l49 37q100 -84 244 -239q117 137 227 239zM188 0h-147l350 946q10 30 30.5 86.5t27.5 79.5l157 8l23 -20l407 -1100h-155l-115 303h-465zM424 625l-80 -209h379l-78 209q-77 219 -108 344h-5
q-31 -123 -108 -344z" />
    <glyph glyph-name="acircumflex.sc" horiz-adv-x="1077" 
d="M307 1255l-49 37q130 174 213 322l125 12q97 -161 231 -334l-49 -37q-98 84 -246 240q-119 -139 -225 -240zM188 0h-147l350 946q10 30 30.5 86.5t27.5 79.5l157 8l23 -20l407 -1100h-155l-115 303h-465zM424 625l-80 -209h379l-78 209q-77 219 -108 344h-5
q-31 -123 -108 -344z" />
    <glyph glyph-name="adieresis.sc" horiz-adv-x="1077" 
d="M436 1454q0 -52 -29.5 -89.5t-78.5 -37.5q-43 0 -70 31.5t-27 75.5q0 51 33 89t80 38q41 0 66.5 -30t25.5 -77zM848 1454q0 -52 -30 -89.5t-79 -37.5q-43 0 -69.5 31.5t-26.5 75.5q0 51 33 89t78 38q42 0 68 -29.5t26 -77.5zM188 0h-147l350 946q10 30 30.5 86.5
t27.5 79.5l157 8l23 -20l407 -1100h-155l-115 303h-465zM424 625l-80 -209h379l-78 209q-77 219 -108 344h-5q-31 -123 -108 -344z" />
    <glyph glyph-name="adotbelow.sc" horiz-adv-x="1077" 
d="M188 0h-147l350 946q10 30 30.5 86.5t27.5 79.5l157 8l23 -20l407 -1100h-155l-115 303h-465zM424 625l-80 -209h379l-78 209q-77 219 -108 344h-5q-31 -123 -108 -344zM649 -326q0 -52 -31 -90.5t-83 -38.5q-46 0 -75.5 33t-29.5 80q0 52 34.5 90.5t84.5 38.5
q45 0 72.5 -31.5t27.5 -81.5z" />
    <glyph glyph-name="agrave.sc" horiz-adv-x="1077" 
d="M678 1264q-210 142 -328 319l10 29l142 28q65 -145 227 -350zM188 0h-147l350 946q10 30 30.5 86.5t27.5 79.5l157 8l23 -20l407 -1100h-155l-115 303h-465zM424 625l-80 -209h379l-78 209q-77 219 -108 344h-5q-31 -123 -108 -344z" />
    <glyph glyph-name="amacron.sc" horiz-adv-x="1077" 
d="M260 1393v100h559v-100h-559zM188 0h-147l350 946q10 30 30.5 86.5t27.5 79.5l157 8l23 -20l407 -1100h-155l-115 303h-465zM424 625l-80 -209h379l-78 209q-77 219 -108 344h-5q-31 -123 -108 -344z" />
    <glyph glyph-name="aogonek.sc" horiz-adv-x="1077" 
d="M188 0h-147l350 946q10 30 30.5 86.5t27.5 79.5l157 8l23 -20l407 -1100q-229 -127 -229 -256q0 -102 108 -102q52 0 113 26l27 -65q-35 -29 -86.5 -46.5t-102.5 -17.5q-91 0 -143.5 44.5t-52.5 123.5q0 81 61.5 156t181.5 137h-32l-115 303h-465zM424 625l-80 -209h379
l-78 209q-77 219 -108 344h-5q-31 -123 -108 -344z" />
    <glyph glyph-name="aring.sc" horiz-adv-x="1077" 
d="M733 1438q0 -75 -56.5 -129t-137.5 -54q-71 0 -122.5 45.5t-51.5 112.5q0 75 58 128.5t140 53.5q73 0 121.5 -44.5t48.5 -112.5zM453 1421q0 -42 26 -69t68 -27q41 0 69.5 31t28.5 74q0 42 -24 69t-66 27q-44 0 -73 -31t-29 -74zM188 0h-147l350 946q10 30 30.5 86.5
t27.5 79.5l157 8l23 -20l407 -1100h-155l-115 303h-465zM424 625l-80 -209h379l-78 209q-77 219 -108 344h-5q-31 -123 -108 -344z" />
    <glyph glyph-name="aringacute.sc" horiz-adv-x="1077" 
d="M729 2101l10 -26q-124 -187 -329 -320l-52 25q168 216 230 350zM733 1438q0 -75 -56.5 -129t-137.5 -54q-71 0 -122.5 45.5t-51.5 112.5q0 75 58 128.5t140 53.5q73 0 121.5 -44.5t48.5 -112.5zM453 1421q0 -42 26 -69t68 -27q41 0 69.5 31t28.5 74q0 42 -24 69t-66 27
q-44 0 -73 -31t-29 -74zM188 0h-147l350 946q10 30 30.5 86.5t27.5 79.5l157 8l23 -20l407 -1100h-155l-115 303h-465zM424 625l-80 -209h379l-78 209q-77 219 -108 344h-5q-31 -123 -108 -344z" />
    <glyph glyph-name="atilde.sc" horiz-adv-x="1077" 
d="M399 1565q37 0 78 -18t71 -39.5t66.5 -39.5t65.5 -18q66 0 123 109l49 -9q-6 -57 -27 -107t-62 -86t-93 -36q-37 0 -78.5 18.5t-72.5 40t-67.5 40t-64.5 18.5q-67 0 -123 -111l-49 8q8 57 27.5 106t60.5 86.5t96 37.5zM188 0h-147l350 946q10 30 30.5 86.5t27.5 79.5
l157 8l23 -20l407 -1100h-155l-115 303h-465zM424 625l-80 -209h379l-78 209q-77 219 -108 344h-5q-31 -123 -108 -344z" />
    <glyph glyph-name="ae.sc" horiz-adv-x="1392" 
d="M188 0h-147l414 944q39 90 59 160h690l19 -17l-4 -106l-474 10l54 -391l391 6l-4 -114l-373 4l51 -383l455 10v-123h-594q-6 49 -19 152t-18 151h-364q-18 -41 -63.5 -142t-72.5 -161zM602 967q-57 -165 -227 -551h299q-47 411 -58 553z" />
    <glyph glyph-name="aeacute.sc" horiz-adv-x="1392" 
d="M901 1606l10 -27q-120 -179 -329 -319l-52 24q160 201 230 350zM188 0h-147l414 944q39 90 59 160h690l19 -17l-4 -106l-474 10l54 -391l391 6l-4 -114l-373 4l51 -383l455 10v-123h-594q-6 49 -19 152t-18 151h-364q-18 -41 -63.5 -142t-72.5 -161zM602 967
q-57 -165 -227 -551h299q-47 411 -58 553z" />
    <glyph glyph-name="b.sc" horiz-adv-x="1017" 
d="M473 0h-317v850q0 128 -15 254h340q180 0 286.5 -78.5t106.5 -206.5q0 -88 -52.5 -150t-145.5 -94q122 -27 186 -98.5t64 -173.5q0 -140 -123.5 -221.5t-329.5 -81.5zM461 993h-152v-375h148q127 0 194.5 48.5t67.5 134.5q0 89 -66 140.5t-192 51.5zM467 510h-158v-397
h164q142 0 217.5 52t75.5 146q0 93 -73 146t-226 53z" />
    <glyph glyph-name="c.sc" horiz-adv-x="1040" 
d="M942 193l19 -125q-131 -84 -330 -84q-231 0 -369.5 147t-138.5 406q0 265 146.5 424t377.5 159q183 0 303 -69l-30 -133q-115 75 -267 75q-164 0 -267 -119t-103 -329q0 -195 98 -313.5t274 -118.5q161 0 287 80z" />
    <glyph glyph-name="cacute.sc" horiz-adv-x="1040" 
d="M772 1606l10 -27q-119 -178 -327 -319l-52 24q166 213 228 350zM942 193l19 -125q-131 -84 -330 -84q-231 0 -369.5 147t-138.5 406q0 265 146.5 424t377.5 159q183 0 303 -69l-30 -133q-115 75 -267 75q-164 0 -267 -119t-103 -329q0 -195 98 -313.5t274 -118.5
q161 0 287 80z" />
    <glyph glyph-name="ccaron.sc" horiz-adv-x="1040" 
d="M831 1636l50 -37q-122 -158 -213 -319l-127 -14q-98 166 -230 333l49 37q109 -94 244 -239q117 137 227 239zM942 193l19 -125q-131 -84 -330 -84q-231 0 -369.5 147t-138.5 406q0 265 146.5 424t377.5 159q183 0 303 -69l-30 -133q-115 75 -267 75q-164 0 -267 -119
t-103 -329q0 -195 98 -313.5t274 -118.5q161 0 287 80z" />
    <glyph glyph-name="ccedilla.sc" horiz-adv-x="1040" 
d="M819 -268q0 -58 -46.5 -102t-113.5 -66t-149 -29l-8 66q190 37 190 118q0 69 -135 80l-20 31l49 156q-214 14 -338.5 159t-124.5 392q0 265 146.5 424t377.5 159q183 0 303 -69l-30 -133q-115 75 -267 75q-164 0 -267 -119t-103 -329q0 -195 98 -313.5t274 -118.5
q161 0 287 80l19 -125q-112 -72 -283 -82l-37 -113q78 -10 128 -45t50 -96z" />
    <glyph glyph-name="ccircumflex.sc" horiz-adv-x="1040" 
d="M360 1255l-49 37q123 164 211 322l127 12q93 -155 232 -334l-52 -37q-112 99 -243 240q-114 -134 -226 -240zM942 193l19 -125q-131 -84 -330 -84q-231 0 -369.5 147t-138.5 406q0 265 146.5 424t377.5 159q183 0 303 -69l-30 -133q-115 75 -267 75q-164 0 -267 -119
t-103 -329q0 -195 98 -313.5t274 -118.5q161 0 287 80z" />
    <glyph glyph-name="cdotaccent.sc" horiz-adv-x="1040" 
d="M702 1456q0 -54 -31.5 -91.5t-84.5 -37.5q-46 0 -74.5 32t-28.5 79q0 52 34.5 90.5t84.5 38.5q45 0 72.5 -30.5t27.5 -80.5zM942 193l19 -125q-131 -84 -330 -84q-231 0 -369.5 147t-138.5 406q0 265 146.5 424t377.5 159q183 0 303 -69l-30 -133q-115 75 -267 75
q-164 0 -267 -119t-103 -329q0 -195 98 -313.5t274 -118.5q161 0 287 80z" />
    <glyph glyph-name="d.sc" horiz-adv-x="1173" 
d="M1051 557q0 -129 -46.5 -235.5t-127 -176t-188 -107.5t-230.5 -38h-303v850q0 128 -15 254h332q166 0 296 -64t206 -189.5t76 -293.5zM459 991h-150v-876h156q198 0 311 116.5t113 319.5q0 200 -115 320t-315 120z" />
    <glyph glyph-name="eth.sc" horiz-adv-x="1173" 
d="M1051 557q0 -129 -46.5 -235.5t-127 -176t-188 -107.5t-230.5 -38h-303v498h-162v92h162v260q0 128 -15 254h332q166 0 296 -64t206 -189.5t76 -293.5zM631 498h-322v-383h156q198 0 311 116.5t113 319.5q0 200 -115 320t-315 120h-150v-401h322v-92z" />
    <glyph glyph-name="dcaron.sc" horiz-adv-x="1173" 
d="M803 1636l49 -37q-131 -175 -213 -319l-125 -14q-107 176 -231 333l49 37q96 -80 243 -239q113 133 228 239zM1051 557q0 -129 -46.5 -235.5t-127 -176t-188 -107.5t-230.5 -38h-303v850q0 128 -15 254h332q166 0 296 -64t206 -189.5t76 -293.5zM459 991h-150v-876h156
q198 0 311 116.5t113 319.5q0 200 -115 320t-315 120z" />
    <glyph glyph-name="dcroat.sc" horiz-adv-x="1173" 
d="M1051 557q0 -129 -46.5 -235.5t-127 -176t-188 -107.5t-230.5 -38h-303v498h-162v92h162v260q0 128 -15 254h332q166 0 296 -64t206 -189.5t76 -293.5zM631 498h-322v-383h156q198 0 311 116.5t113 319.5q0 200 -115 320t-315 120h-150v-401h322v-92z" />
    <glyph glyph-name="ddotbelow.sc" horiz-adv-x="1173" 
d="M1051 557q0 -129 -46.5 -235.5t-127 -176t-188 -107.5t-230.5 -38h-303v850q0 128 -15 254h332q166 0 296 -64t206 -189.5t76 -293.5zM459 991h-150v-876h156q198 0 311 116.5t113 319.5q0 200 -115 320t-315 120zM682 -326q0 -52 -32 -90.5t-85 -38.5q-46 0 -74 33
t-28 80q0 52 34.5 90.5t84.5 38.5q45 0 72.5 -31.5t27.5 -81.5z" />
    <glyph glyph-name="e.sc" horiz-adv-x="903" 
d="M829 123v-123h-673v850q0 128 -15 254h656l18 -17l-4 -106l-502 12v-393l424 6l-2 -114l-422 6v-385z" />
    <glyph glyph-name="eacute.sc" horiz-adv-x="903" 
d="M657 1606l11 -27q-118 -177 -328 -319l-51 24q164 210 227 350zM829 123v-123h-673v850q0 128 -15 254h656l18 -17l-4 -106l-502 12v-393l424 6l-2 -114l-422 6v-385z" />
    <glyph glyph-name="ebreve.sc" horiz-adv-x="903" 
d="M670 1591h69q-19 -132 -91 -209t-179 -77q-102 0 -171.5 74.5t-84.5 203.5l70 10q20 -78 72 -123t124 -45q68 0 118.5 45.5t72.5 120.5zM829 123v-123h-673v850q0 128 -15 254h656l18 -17l-4 -106l-502 12v-393l424 6l-2 -114l-422 6v-385z" />
    <glyph glyph-name="ecaron.sc" horiz-adv-x="903" 
d="M717 1636l49 -37q-122 -158 -213 -319l-127 -14q-101 171 -229 333l49 37q105 -90 243 -239q113 133 228 239zM829 123v-123h-673v850q0 128 -15 254h656l18 -17l-4 -106l-502 12v-393l424 6l-2 -114l-422 6v-385z" />
    <glyph glyph-name="ecircumflex.sc" horiz-adv-x="903" 
d="M246 1255l-49 37q123 164 211 322l127 12q97 -161 231 -334l-49 -37q-116 100 -246 240q-119 -139 -225 -240zM829 123v-123h-673v850q0 128 -15 254h656l18 -17l-4 -106l-502 12v-393l424 6l-2 -114l-422 6v-385z" />
    <glyph glyph-name="edieresis.sc" horiz-adv-x="903" 
d="M375 1454q0 -52 -30 -89.5t-79 -37.5q-43 0 -69.5 31.5t-26.5 75.5q0 51 33 89t78 38q42 0 68 -29.5t26 -77.5zM786 1454q0 -52 -29.5 -89.5t-78.5 -37.5q-43 0 -69.5 31.5t-26.5 75.5q0 52 31.5 89.5t78.5 37.5q42 0 68 -29.5t26 -77.5zM829 123v-123h-673v850
q0 128 -15 254h656l18 -17l-4 -106l-502 12v-393l424 6l-2 -114l-422 6v-385z" />
    <glyph glyph-name="edotaccent.sc" horiz-adv-x="903" 
d="M588 1456q0 -53 -32 -91t-85 -38q-46 0 -74 32t-28 79q0 52 34 90.5t84 38.5q46 0 73.5 -30.5t27.5 -80.5zM829 123v-123h-673v850q0 128 -15 254h656l18 -17l-4 -106l-502 12v-393l424 6l-2 -114l-422 6v-385z" />
    <glyph glyph-name="edotbelow.sc" horiz-adv-x="903" 
d="M829 123v-123h-673v850q0 128 -15 254h656l18 -17l-4 -106l-502 12v-393l424 6l-2 -114l-422 6v-385zM614 -326q0 -52 -31 -90.5t-83 -38.5q-46 0 -75.5 33t-29.5 80q0 52 34.5 90.5t84.5 38.5q45 0 72.5 -31.5t27.5 -81.5z" />
    <glyph glyph-name="egrave.sc" horiz-adv-x="903" 
d="M616 1264q-206 137 -327 319l8 29l143 28q63 -142 228 -350zM829 123v-123h-673v850q0 128 -15 254h656l18 -17l-4 -106l-502 12v-393l424 6l-2 -114l-422 6v-385z" />
    <glyph glyph-name="emacron.sc" horiz-adv-x="903" 
d="M199 1393v100h559v-100h-559zM829 123v-123h-673v850q0 128 -15 254h656l18 -17l-4 -106l-502 12v-393l424 6l-2 -114l-422 6v-385z" />
    <glyph glyph-name="eogonek.sc" horiz-adv-x="903" 
d="M829 0q-229 -125 -229 -256q0 -48 27 -75t80 -27q50 0 114 26l27 -65q-80 -64 -189 -64q-91 0 -144.5 44.5t-53.5 123.5q0 80 62.5 155t183.5 138h-551v850q0 128 -15 254h656l18 -17l-4 -106l-502 12v-393l424 6l-2 -114l-422 6v-385l520 10v-123z" />
    <glyph glyph-name="etilde.sc" horiz-adv-x="903" 
d="M338 1565q37 0 77.5 -18t70 -39.5t66 -39.5t66.5 -18q66 0 123 109l50 -9q-10 -90 -58 -159.5t-125 -69.5q-47 0 -100 29.5t-101 58.5t-83 29q-65 0 -121 -111l-49 8q11 90 57.5 160t126.5 70zM829 123v-123h-673v850q0 128 -15 254h656l18 -17l-4 -106l-502 12v-393
l424 6l-2 -114l-422 6v-385z" />
    <glyph glyph-name="schwa.sc" horiz-adv-x="1153" 
d="M131 489l31 31h706v17q0 228 -109 346t-296 118q-159 0 -303 -86l-10 113q55 37 146.5 65.5t199.5 28.5q243 0 388.5 -148t145.5 -411t-145 -423t-373 -160q-182 0 -285.5 107t-103.5 314q0 49 8 88zM279 381q0 -145 63 -220t180 -75q133 0 227 93.5t115 266.5l-583 -16
q-2 -14 -2 -49z" />
    <glyph glyph-name="f.sc" horiz-adv-x="849" 
d="M309 0h-153v850q0 128 -15 254h643l19 -17l-2 -106l-492 12v-413l414 4l-2 -117l-412 8v-475z" />
    <glyph glyph-name="g.sc" horiz-adv-x="1136" 
d="M995 489l17 -16l-4 -414q-70 -34 -170.5 -54.5t-192.5 -20.5q-244 0 -383 144.5t-139 401.5q0 271 152 430.5t409 159.5q171 0 293 -61l-27 -135q-118 73 -260 73q-186 0 -296.5 -117.5t-110.5 -334.5q0 -199 98 -319t283 -120q96 0 198 27v57q0 133 -16 283z" />
    <glyph glyph-name="gacute.sc" horiz-adv-x="1136" 
d="M758 1606l8 -27q-120 -181 -328 -319l-51 24q164 210 227 350zM995 489l17 -16l-4 -414q-70 -34 -170.5 -54.5t-192.5 -20.5q-244 0 -383 144.5t-139 401.5q0 271 152 430.5t409 159.5q171 0 293 -61l-27 -135q-118 73 -260 73q-186 0 -296.5 -117.5t-110.5 -334.5
q0 -199 98 -319t283 -120q96 0 198 27v57q0 133 -16 283z" />
    </font>
</defs>
</svg>
