<?xml version="1.0" standalone="no"?>
<!DOCTYPE svg PUBLIC "-//W3C//DTD SVG 1.1//EN" "http://www.w3.org/Graphics/SVG/1.1/DTD/svg11.dtd" >
<svg xmlns="http://www.w3.org/2000/svg" xmlns:xlink="http://www.w3.org/1999/xlink" version="1.1">
<metadata>
Created by FontForge 20170731 at Sat Sep  3 03:34:02 2022
 By Aleksey,,,
Universidad La Salle A.C.
</metadata>
<defs>
<font id="IndivisaTextSans-BoldItalic" horiz-adv-x="1216" >
  <font-face 
    font-family="Indivisa Text Sans"
    font-weight="600"
    font-style="italic"
    font-stretch="normal"
    units-per-em="2048"
    panose-1="0 0 0 0 0 0 0 0 0 0"
    ascent="1638"
    descent="-410"
    x-height="1040"
    cap-height="1430"
    bbox="-281 -711 11129 2425"
    underline-thickness="135"
    underline-position="-593"
    slope="-12"
    unicode-range="U+0020-FB02"
  />
<missing-glyph horiz-adv-x="1394" 
d="M180 0l328 1536h983l-328 -1536h-983zM647 1454l207 -600l459 600h-666zM883 770l223 -657l278 1314zM565 1425l-278 -1310l504 655zM354 82h670l-207 604z" />
    <glyph glyph-name="f_f" unicode="ff" horiz-adv-x="1339" 
d="M551 1130q-6 -23 -13.5 -68.5t-11.5 -64.5h353q22 137 28 164q11 64 41 125q-70 60 -172 60q-182 0 -225 -216zM-27 -471l-77 88q144 207 194 453l170 798l-147 9l20 90l154 30q1 5 22 136q40 187 174 282.5t322 95.5q152 0 268 -61q127 102 318 102q152 0 249 -63
l-92 -186q-94 67 -194 67q-159 0 -205 -194q-8 -46 -31 -179h262l15 -26l-33 -111l-268 8l-156 -743q-48 -227 -131.5 -367t-243.5 -239l-80 88q146 210 195 450l172 811h-346l-156 -731q-46 -227 -129.5 -367t-245.5 -241z" />
    <glyph glyph-name="f_f_i" unicode="ffi" horiz-adv-x="1753" 
d="M551 1130q-6 -23 -13.5 -68.5t-11.5 -64.5h346q21 121 27 160q14 70 47 137q-72 52 -166 52q-90 0 -147.5 -51t-81.5 -165zM-27 -471l-77 88q144 207 194 453l170 798l-147 9l20 90l154 30q4 26 11 70.5t11 65.5q30 128 102.5 214.5t171.5 125t222 38.5q149 0 270 -57
q131 98 318 98q116 0 209.5 -33t152.5 -89l-149 -154q-108 94 -242 94q-93 0 -146 -51t-75 -154q-25 -121 -31 -168h305l264 43q0 -96 -23.5 -238t-52 -266.5t-52 -275t-23.5 -260.5h-246q0 196 76 547l41 188l8 125l-319 8l-156 -731q-48 -229 -130.5 -368t-244.5 -240
l-80 88q143 201 197 453l170 798h-342l-156 -731q-46 -227 -129.5 -367t-245.5 -241z" />
    <glyph glyph-name="f_f_l" unicode="ffl" horiz-adv-x="1759" 
d="M1149 1165q-25 -121 -31 -168h350l54 250l4 84q-76 39 -158 39q-93 0 -145.5 -51.5t-73.5 -153.5zM551 1130q-6 -23 -13.5 -68.5t-11.5 -64.5h353q5 33 15 93t11 67q14 66 43 129q-74 60 -168 60q-90 0 -147 -50.5t-82 -165.5zM-27 -471l-77 88q144 207 194 453l170 798
l-147 9l20 90l154 30q4 26 11 70.5t11 65.5q30 128 102.5 214.5t171.5 125t222 38.5q155 0 268 -63q132 104 326 104q72 0 157 -18l244 18q0 -129 -40.5 -348.5t-89.5 -419t-89.5 -423.5t-40.5 -361h-244q0 111 26.5 276.5t98.5 501.5l19 82l-344 8l-156 -731
q-49 -229 -132 -368t-243 -240l-80 88q143 201 197 453l168 798h-346l-156 -731q-46 -227 -129.5 -367t-245.5 -241z" />
    <glyph glyph-name="f_i" unicode="fi" horiz-adv-x="1167" 
d="M-27 -471l-77 88q144 207 194 453l170 798l-147 9l20 90l154 30q3 20 9.5 58t11 64t7.5 38q37 187 167.5 291t326.5 104q115 0 208 -33t152 -89l-147 -154q-112 94 -244 94q-93 0 -146 -51t-75 -154q-14 -66 -31 -168h308l262 43q0 -96 -24 -238t-52 -266.5t-52 -275
t-24 -260.5h-244q0 196 76 547l41 188l8 125l-321 8l-156 -731q-48 -229 -130.5 -368t-244.5 -240z" />
    <glyph glyph-name="f_l" unicode="fl" horiz-adv-x="1169" 
d="M557 1165q-14 -66 -31 -168h351l55 250l4 84q-76 39 -158 39q-93 0 -146 -51t-75 -154zM-27 -471l-77 88q144 207 194 453l170 798l-147 9l20 90l154 30q3 20 9.5 58t11 64t7.5 38q37 187 167.5 291t326.5 104q71 0 156 -18l245 18q0 -129 -40.5 -348.5t-89.5 -419
t-89.5 -423.5t-40.5 -361h-243q0 112 26.5 278.5t97.5 499.5l17 82l-344 8l-156 -731q-48 -229 -130.5 -368t-244.5 -240z" />
    <glyph glyph-name="symbol1" unicode="&#x2f;symbol&#x31;&#x2f;" horiz-adv-x="11333" 
d="M3820 844q-52 0 -83.5 29t-31.5 77q0 71 67 131t144 60q50 0 80 -28t30 -77q0 -74 -63.5 -133t-142.5 -59zM2630 844q-54 0 -85.5 29t-31.5 77q0 71 68 131t145 60q50 0 79 -28t29 -77q0 -73 -63 -132.5t-141 -59.5zM1964 0q0 80 23 221q-33 -103 -105.5 -169t-161.5 -66
q-84 0 -129 60.5t-45 168.5q0 74 20 150t62 146t100 124.5t140 87.5t176 33q35 0 51 -2l33 149l12 209l279 14q0 -92 -29.5 -252t-65 -306.5t-65 -309t-29.5 -258.5h-266zM205 0l160 745q36 182 43 279l262 14l22 -30l-213 -1008h-274zM7174 1008l-117 -1008h-268l41 358
q7 72 68 441h-6q-64 -206 -166 -441l-156 -358h-305l-4 358q-3 249 18 441h-4q-66 -269 -121 -441l-108 -358h-224l316 1024l377 12l2 -280q4 -279 -31 -531h4q78 253 193 531l114 268l346 14zM10887 614q-16 -79 -31.5 -151t-22.5 -104.5t-13 -60.5t-7.5 -38.5t-1.5 -19.5
q0 -34 19.5 -52t54.5 -18q52 0 121 37l-18 -162q-105 -59 -234 -59q-104 0 -159.5 51.5t-55.5 152.5q0 13 1 24.5t4 31.5t6 36t10.5 53.5t14 68.5t20.5 95.5t26 121.5l-96 2l18 90l111 28l108 195l166 12l27 -30l-41 -177h203l12 -28l-35 -105zM688 0q0 157 84 532l12 209
l281 15q0 -64 -14 -183h4q55 94 128 138.5t146 44.5q69 0 108.5 -40t39.5 -106q0 -55 -54 -301q-22 -102 -29.5 -165t-7.5 -144h-268q0 115 39 307q5 28 12 63t10.5 52t6 34.5t2.5 28.5q0 50 -35 50q-46 0 -91.5 -79t-74.5 -204t-31 -252h-268zM2396 0q0 150 55 395l29 137
l12 209l281 15q0 -94 -55.5 -362.5t-55.5 -393.5h-266zM2865 741l287 15q27 -273 -10 -592h4q70 139 121.5 298t64.5 283q50 11 102 11q66 0 100 -17t34 -69q0 -95 -104.5 -302.5t-237.5 -367.5h-306q-9 470 -55 741zM3588 0q0 144 53 395l31 137l12 209l281 15
q0 -94 -55.5 -362.5t-55.5 -393.5h-266zM9658 0q0 157 84 532l13 209l280 15q0 -24 -14 -183h4q55 94 127.5 138.5t146.5 44.5q69 0 108.5 -40t39.5 -106q0 -60 -53 -301q-23 -106 -31 -168t-8 -141h-267q0 115 39 307q5 28 12 63t10.5 52t6 34.5t2.5 28.5q0 50 -35 50
q-47 0 -92 -79t-74 -203.5t-32 -252.5h-267zM4598 524q-50 29 -105 45.5t-94 16.5q-36 0 -61 -15t-25 -39t27 -43.5t65.5 -37.5t77 -40.5t65.5 -64t27 -96.5q0 -118 -108.5 -191t-261.5 -73q-69 0 -137.5 15.5t-104.5 41.5l55 190q53 -35 118 -56t110 -21q38 0 59.5 15
t21.5 38t-27 43t-65.5 38.5t-77 42t-65.5 63.5t-27 93q0 115 111.5 191t263.5 76q119 0 213 -37zM5171 756q72 0 155.5 -16.5t143.5 -49.5l-59 -262q-64 -300 -64 -428h-266q0 69 25 229q-32 -106 -106 -174.5t-165 -68.5q-84 0 -128 60.5t-44 170.5q0 74 20 149t62 145.5
t100.5 124.5t143 87t182.5 33zM9529 104q-65 -57 -150.5 -87.5t-174.5 -30.5q-133 0 -212 71t-79 209q0 125 61.5 237t174 182.5t247.5 70.5q111 0 177.5 -48t66.5 -133q0 -118 -123 -197.5t-330 -88.5v-2q0 -131 129 -131q89 0 185 57zM8061 0q0 84 19 201.5t67 330.5
l10 209l281 15q0 -56 -15 -183h5q56 94 129 138.5t145 44.5q70 0 108.5 -40t38.5 -106q0 -60 -53 -301q-22 -102 -29.5 -165t-7.5 -144h-268q0 115 39 307q31 149 31 178q0 50 -35 50q-46 0 -91.5 -79t-74.5 -204t-31 -252h-268zM7717 756q72 0 154.5 -16.5t142.5 -49.5
l-58 -262q-63 -296 -63 -428h-266q0 91 24 229q-32 -106 -105.5 -174.5t-164.5 -68.5q-84 0 -129 60.5t-45 170.5q0 93 33 186.5t94.5 173t161.5 129.5t221 50zM9196 362q95 21 148.5 70t53.5 121q0 63 -45 63q-57 0 -99 -78.5t-58 -175.5zM7530 207q48 0 97.5 88.5
t77.5 206.5q2 17 9.5 50t8.5 40q-32 16 -55 16q-46 0 -91 -55.5t-70.5 -129.5t-25.5 -134q0 -38 13 -60t36 -22zM1870 207q45 0 91.5 81t76.5 193q2 16 16 82l6 29q-29 16 -55 16q-45 0 -89 -55.5t-69.5 -129.5t-25.5 -134q0 -38 13 -60t36 -22zM4987 207q47 0 96.5 89
t75.5 206q9 44 18 90q-29 16 -55 16q-46 0 -90 -55.5t-69 -129.5t-25 -134q0 -82 49 -82z" />
    <glyph glyph-name="symbol2" unicode="&#x2f;symbol&#x32;&#x2f;" horiz-adv-x="1908" 
d="M1012 1167l106 -184l-280 -491h-211l280 491l-106 184h211zM731 1167l107 -184l-283 -491h-211l283 491l-107 184h211zM1540 246h-211l-280 491l104 185l281 -492h211zM1399 0h-211l-281 492l105 184l282 -492h211zM205 246l104 184h563l105 -184h-561l-107 -185zM344 0
l107 184h561l106 -184h-563l-104 -184zM1616 180q37 0 62.5 -26.5t25.5 -63.5t-25.5 -63.5t-62.5 -26.5t-62.5 26.5t-25.5 63.5t25.5 63.5t62.5 26.5zM1698 90q0 34 -24 58t-58 24t-58 -24t-24 -58t24 -58t58 -24t58 24t24 58zM1579 141h37q14 0 22 -4q11 -8 11 -22
q0 -10 -7 -17q-2 -3 -12 -8q14 -3 17 -18q0 -18 6 -33h-17q-1 3 -2 13t-2 14q-2 12 -5.5 16t-16.5 4h-17v-47h-14v102zM1593 96h21q10 0 14 2q6 6 6 15q0 16 -20 16h-21v-33z" />
    <glyph glyph-name="symbol3" unicode="&#x2f;symbol&#x33;&#x2f;" horiz-adv-x="1959" 
d="M1034 1307l140 -553h552l-415 -277l278 -553l-555 277l-553 -553l277 829l-553 416l692 -139zM1667 178q37 0 62.5 -26t25.5 -64q0 -37 -25.5 -62.5t-62.5 -25.5t-62.5 25.5t-25.5 62.5q0 38 25.5 64t62.5 26zM1749 88q0 35 -24 59.5t-58 24.5t-58 -24.5t-24 -59.5
q0 -34 24 -58t58 -24t58 24t24 58zM1630 139h37q17 0 23 -4q12 -6 12 -20q0 -11 -8 -19q-6 -6 -13 -6q15 -6 17 -20q5 -30 6 -33h-14q-2 4 -3 9t-2 11t-2 9q0 11 -4 14.5t-16 3.5h-18v-47h-15v102zM1645 96h20q10 0 14 2q7 7 7 13q0 18 -21 18h-20v-33z" />
    <glyph glyph-name="symbol4" unicode="&#x2f;symbol&#x34;&#x2f;" horiz-adv-x="5339" 
d="M3449 831q0 128 -23 263l258 28l31 -30v-1092h-266v831zM3869 831q0 122 -21 263l258 28l29 -30v-1092h-266v831zM874 207v-207h-655v741q0 165 -14 277l258 14l29 -28v-811zM1894 43l15 223q59 -35 142.5 -54t152.5 -19q102 0 102 73q0 26 -22.5 50.5t-59 46.5t-80.5 46
t-88 54.5t-80.5 66.5t-59 88t-22.5 113q0 141 113 221t283 80q167 0 260 -37l-29 -227q-115 59 -227 59q-56 0 -87.5 -22.5t-31.5 -59.5q0 -31 22.5 -58t59 -50t80.5 -47t88 -54t80.5 -65t59 -86t22.5 -111q0 -134 -109.5 -211t-286.5 -77q-85 0 -171.5 16.5t-125.5 40.5z
M1628 0l-217 -14q-24 37 -43 100h-8q-31 -45 -88 -72.5t-125 -27.5q-89 0 -144 46.5t-55 135.5q0 119 104.5 178t286.5 64v41q0 110 -118 110q-114 0 -222 -59l-16 198q148 54 307 54q156 0 236 -70.5t80 -206.5q0 -52 -4.5 -142t-4.5 -142q0 -102 31 -193zM3330 0l-219 -14
q-27 46 -43 100h-6q-31 -45 -88.5 -72.5t-126.5 -27.5q-87 0 -142 46.5t-55 135.5q0 119 104 178t287 64v41q0 110 -119 110q-111 0 -223 -59l-14 198q148 54 307 54q156 0 234.5 -70.5t78.5 -206.5q0 -52 -3 -142t-3 -142q0 -102 31 -193zM4925 436q0 -49 -2 -74l-22 -22
h-391q28 -170 200 -170q91 0 172 43l15 -166q-92 -61 -260 -61q-186 0 -296 97t-110 275q0 175 107 285.5t270 110.5q147 0 232 -88.5t85 -229.5zM4504 424l159 8q4 28 4 53q0 51 -16.5 86t-52.5 35q-45 0 -68.5 -50.5t-25.5 -131.5zM1339 152v180q-59 -6 -96 -36.5
t-37 -80.5q0 -37 21 -59.5t55 -22.5q32 0 57 19zM3041 152v180q-59 -6 -96 -36.5t-37 -80.5q0 -37 20.5 -59.5t55.5 -22.5q32 0 57 19zM5046 174q37 0 62.5 -26.5t25.5 -63.5t-25.5 -63.5t-62.5 -26.5t-63.5 26.5t-26.5 63.5t26.5 63.5t63.5 26.5zM5128 84q0 34 -24 58
t-58 24t-58 -24t-24 -58t24 -58t58 -24t58 24t24 58zM5009 135h37q15 0 23 -6q10 -5 10 -20q0 -10 -6 -19q-6 -6 -12 -6q13 -3 16 -21q0 -15 6 -30h-16q-1 3 -2 12.5t-2 13.5q-2 11 -6 15t-17 4h-16v-45h-15v102zM5024 90h20q11 0 15 2q6 6 6 14q0 17 -21 17h-20v-33z" />
    <glyph glyph-name="symbol5" unicode="&#x2f;symbol&#x35;&#x2f;" horiz-adv-x="1443" 
d="M475 -12l-270 278l254 479l264 -278zM971 -12l-248 479l262 278l254 -479z" />
    <glyph glyph-name=".notdef" horiz-adv-x="1394" 
d="M180 0l328 1536h983l-328 -1536h-983zM647 1454l207 -600l459 600h-666zM883 770l223 -657l278 1314zM565 1425l-278 -1310l504 655zM354 82h670l-207 604z" />
    <glyph glyph-name=".null" horiz-adv-x="0" 
 />
    <glyph glyph-name="nonmarkingreturn" horiz-adv-x="682" 
 />
    <glyph glyph-name="space" unicode=" " horiz-adv-x="520" 
 />
    <glyph glyph-name="exclam" unicode="!" horiz-adv-x="634" 
d="M381 438h-156q71 438 152 971l239 21l21 -29q-105 -457 -256 -963zM381 174q0 -74 -58 -133t-130 -59q-50 0 -78.5 29t-28.5 73q0 69 60 127.5t133 58.5q47 0 74.5 -26t27.5 -70z" />
    <glyph glyph-name="quotedbl" unicode="&#x22;" horiz-adv-x="698" 
d="M506 1552l8 -39l-180 -536h-86l61 575h197zM815 1552l8 -39l-180 -536h-86l61 575h197z" />
    <glyph glyph-name="numbersign" unicode="#" horiz-adv-x="1468" 
d="M358 -20l-116 18l-15 16l125 269h-256l-12 16l43 121h289l123 266h-269l-12 16l43 121h301l137 299l117 -20l12 -17l-120 -262h315l139 299l115 -20l12 -17l-121 -262h248l12 -16l-43 -121h-280l-123 -266h270l15 -17l-45 -120h-304l-139 -303l-114 18l-15 16l123 269
h-315zM561 420h316l122 266h-315z" />
    <glyph glyph-name="dollar" unicode="$" horiz-adv-x="1015" 
d="M289 -287l-13 17l54 250q-93 2 -184 21t-142 54l64 213q63 -47 150.5 -69.5t160.5 -22.5q109 0 174 54t65 141q0 47 -21.5 90.5t-56.5 78.5t-76.5 71t-83.5 75t-77 82t-56.5 101t-21.5 124q0 165 123.5 281.5t319.5 146.5l57 269l92 6l14 -17l-55 -249h2q80 0 158 -16
t129 -44l-78 -217q-53 39 -119.5 59.5t-126.5 20.5q-115 0 -181 -59t-66 -148q0 -48 21.5 -92t56 -79t76.5 -70.5t83.5 -74t76 -81t56 -101t21.5 -125.5q0 -171 -126.5 -282t-320.5 -135l-55 -267z" />
    <glyph glyph-name="percent" unicode="%" horiz-adv-x="2029" 
d="M975 1130q0 -99 -36.5 -193.5t-99 -168.5t-154.5 -119t-196 -45q-133 0 -210.5 76.5t-77.5 222.5q0 134 62.5 255t176 197.5t248.5 76.5t211 -78.5t76 -223.5zM1571 1430l-866 -1450h-111l864 1450h113zM414 891q0 -164 110 -164q56 0 103 43t76 108t45 137t16 136
q0 160 -111 160q-56 0 -103.5 -42.5t-76 -107.5t-44 -136t-15.5 -134zM1886 369q0 -99 -36.5 -194t-99 -168.5t-154 -119t-195.5 -45.5q-133 0 -211 76.5t-78 222.5q0 134 62.5 255t176 197.5t248.5 76.5t211 -78t76 -223zM1325 129q0 -164 111 -164q55 0 101.5 43t75 108
t44.5 137t16 136q0 160 -108 160q-56 0 -103.5 -42.5t-76 -107.5t-44.5 -136t-16 -134z" />
    <glyph glyph-name="ampersand" unicode="&#x26;" horiz-adv-x="1597" 
d="M1475 193q0 -79 -50 -135t-143 -78l-14 14q22 29 22 78q0 57 -47.5 106.5t-140.5 104.5q-102 -140 -244 -221.5t-313 -81.5q-189 0 -308.5 96t-119.5 250q0 136 95 263t251 202q-37 84 -37 192q0 140 68 243t177.5 153.5t243.5 50.5q139 0 220.5 -55.5t81.5 -149.5
q0 -67 -38 -123.5t-98 -79.5q294 5 555 18l15 -10q0 -86 -31 -190q-141 9 -315 28q-9 -184 -82 -366q120 -70 186 -142.5t66 -166.5zM678 1034q0 -48 14 -92.5t33 -79t56.5 -72t67 -62t82.5 -58t84.5 -51t90.5 -50.5q51 139 57 316q-93 11 -227 35l-4 55q69 90 69 168
q0 54 -29 89.5t-93 35.5q-86 0 -143.5 -62t-57.5 -172zM369 391q0 -113 73.5 -176t190.5 -63q208 0 356 194q-71 38 -103 56t-97 57t-103.5 68.5t-84.5 73t-79 87.5q-76 -60 -114.5 -140t-38.5 -157z" />
    <glyph glyph-name="quotesingle" unicode="'" horiz-adv-x="389" 
d="M506 1552l8 -39l-180 -536h-86l61 575h197z" />
    <glyph glyph-name="parenleft" unicode="(" horiz-adv-x="845" 
d="M178 297q0 376 203.5 717t538.5 538l63 -120q-263 -216 -409 -519t-146 -622q0 -331 190 -572l-116 -122q-324 254 -324 700z" />
    <glyph glyph-name="parenright" unicode=")" horiz-adv-x="847" 
d="M696 854q0 -250 -93.5 -492t-261 -438.5t-386.5 -326.5l-64 122q262 215 407.5 517.5t145.5 621.5q0 333 -188 574l115 120q325 -253 325 -698z" />
    <glyph glyph-name="asterisk" unicode="*" horiz-adv-x="1011" 
d="M481 725l-6 31l117 311l-318 -215l-49 133l27 27l323 112l-299 129l105 131l33 -4l202 -200l23 344h152l6 -31l-119 -317l319 221l50 -133l-25 -27l-320 -113l295 -129l-106 -131l-31 4l-205 203l-22 -346h-152z" />
    <glyph glyph-name="plus" unicode="+" 
d="M1090 643h-379l-82 -387h-137l79 387h-403l29 129q141 6 403 6l78 379h141l-80 -377q150 2 383 2l8 -14z" />
    <glyph glyph-name="comma" unicode="," horiz-adv-x="530" 
d="M-94 -330q151 176 209 312q-43 6 -69 36t-26 74q0 78 63 140.5t140 62.5q55 0 88 -30.5t33 -88.5q0 -81 -64 -194t-146.5 -208.5t-166.5 -166.5z" />
    <glyph glyph-name="hyphen" unicode="-" horiz-adv-x="792" 
d="M80 539l6 90h659l-8 -90h-657z" />
    <glyph glyph-name="period" unicode="." horiz-adv-x="538" 
d="M356 186q0 -78 -65.5 -142t-145.5 -64q-55 0 -87.5 31t-32.5 81q0 75 68 139t147 64q53 0 84.5 -30t31.5 -79z" />
    <glyph glyph-name="slash" unicode="/" horiz-adv-x="735" 
d="M852 1532l12 -16l-708 -1530l-119 22l-12 17l708 1529z" />
    <glyph glyph-name="zero" unicode="0" horiz-adv-x="1411" 
d="M1329 926q0 -182 -61.5 -355.5t-163 -303t-242 -208.5t-289.5 -79q-190 0 -299.5 127.5t-109.5 371.5q0 180 62 354.5t164.5 305t243.5 211t290 80.5q190 0 297.5 -130t107.5 -374zM412 461q0 -158 51 -240t151 -82q94 0 182 75t149.5 192.5t98.5 262t37 281.5
q0 320 -200 320q-125 0 -235.5 -126t-172 -312t-61.5 -371z" />
    <glyph glyph-name="one" unicode="1" horiz-adv-x="729" 
d="M412 1169h-6l-228 -41l-2 150l502 149l22 -26l-299 -1401h-243l188 881q44 209 66 288z" />
    <glyph glyph-name="two" unicode="2" horiz-adv-x="1097" 
d="M2 0l8 182q113 78 214 153.5t217.5 176t199 190.5t138 188t55.5 177q0 82 -54.5 131t-154.5 49q-158 0 -389 -127l16 197q100 46 227 79.5t242 33.5q172 0 275.5 -80t103.5 -211q0 -93 -54.5 -200.5t-140 -205t-202 -199.5t-227 -182t-228.5 -155h340q181 0 332 20
l-66 -217h-852z" />
    <glyph glyph-name="three" unicode="3" horiz-adv-x="1060" 
d="M281 1319q90 46 211 78.5t229 32.5q151 0 241.5 -67t90.5 -181q0 -134 -119 -254.5t-301 -173.5q159 -18 246.5 -92t87.5 -203q0 -96 -51 -184t-137.5 -153t-208 -103.5t-257.5 -38.5q-176 0 -329 47l61 172q57 -20 145 -33.5t154 -13.5q156 0 260.5 78.5t104.5 191.5
q0 182 -306 182q-81 0 -161 -14l37 170q226 35 367.5 132.5t141.5 217.5q0 65 -44.5 101t-131.5 36q-154 0 -356 -102z" />
    <glyph glyph-name="four" unicode="4" horiz-adv-x="1181" 
d="M55 514l768 891l271 20l22 -26l-184 -862q71 4 190 16l-65 -203h-164l-74 -350h-233l76 350h-613zM262 535v-7q123 4 420 4h18l70 330q62 282 86 361h-4z" />
    <glyph glyph-name="five" unicode="5" horiz-adv-x="1157" 
d="M43 27l61 178q137 -49 275 -49q170 0 279.5 92t109.5 227q0 106 -71 155.5t-183 49.5q-63 0 -136 -14t-124 -35l-33 26l160 752h467q173 0 332 21l-60 -218h-579l-80 -378q93 22 205 22q161 0 260.5 -80.5t99.5 -240.5q0 -113 -50.5 -214.5t-139 -176.5t-215.5 -119.5
t-273 -44.5q-162 0 -305 47z" />
    <glyph glyph-name="six" unicode="6" horiz-adv-x="1228" 
d="M510 -20q-183 0 -285 108t-102 330q0 152 47.5 302.5t133.5 277t198.5 224.5t251.5 153t282 55q112 0 164 -25l-61 -184q-61 26 -144 26q-177 0 -335.5 -135t-231.5 -387h4q63 50 155.5 78t180.5 28q154 0 241 -79t87 -228q0 -108 -46.5 -208.5t-124.5 -174t-187 -117.5
t-228 -44zM664 672q-74 0 -153 -33t-120 -86q-24 -123 -24 -199q0 -215 170 -215q125 0 213 103.5t88 240.5q0 91 -44 140t-130 49z" />
    <glyph glyph-name="seven" unicode="7" horiz-adv-x="1064" 
d="M231 1180l74 229h881l24 -29l-30 -139q-291 -262 -503.5 -581.5t-301.5 -659.5h-252q45 164 136 341.5t204 334.5t235.5 293.5t243.5 238.5l2 4h-317q-225 0 -396 -32z" />
    <glyph glyph-name="eight" unicode="8" horiz-adv-x="1200" 
d="M451 -20q-192 0 -306 81.5t-114 214.5q0 135 116.5 257t298.5 184l3 4q-207 129 -207 301q0 110 72 204t195 149t267 55q176 0 274.5 -81.5t98.5 -203.5t-98 -231t-258 -177l-2 -6q113 -52 184.5 -132t71.5 -189q0 -114 -79 -213t-217 -158t-300 -59zM735 1282
q-107 0 -183.5 -66.5t-76.5 -160.5q0 -73 51 -133.5t138 -102.5q117 60 186.5 141.5t69.5 165.5q0 70 -51 113t-134 43zM569 618q-136 -55 -218.5 -143.5t-82.5 -179.5q0 -75 61.5 -121.5t162.5 -46.5q132 0 222.5 73t90.5 173q0 77 -62 136t-174 109z" />
    <glyph glyph-name="nine" unicode="9" horiz-adv-x="1218" 
d="M539 539q-160 0 -252 84t-92 235t76.5 282.5t211 210.5t293.5 79q182 0 291 -109t109 -320q0 -188 -73.5 -374t-194.5 -328t-289.5 -230.5t-346.5 -88.5q-101 0 -153 16l35 180q72 -14 137 -14q204 0 355 132t220 359h-4q-58 -55 -144.5 -84.5t-178.5 -29.5zM739 1257
q-117 0 -200.5 -109.5t-83.5 -254.5q0 -93 47 -144t139 -51q69 0 139 28t119 85q23 135 23 201q0 120 -47 182.5t-136 62.5z" />
    <glyph glyph-name="colon" unicode=":" horiz-adv-x="540" 
d="M498 844q0 -78 -65.5 -142.5t-145.5 -64.5q-54 0 -87.5 32.5t-33.5 80.5q0 76 67.5 139t147.5 63q53 0 85 -29.5t32 -78.5zM356 186q0 -78 -65.5 -142t-145.5 -64q-55 0 -87.5 31t-32.5 81q0 75 68 139t147 64q53 0 84.5 -30t31.5 -79z" />
    <glyph glyph-name="semicolon" unicode=";" horiz-adv-x="542" 
d="M500 844q0 -78 -65 -142.5t-146 -64.5q-54 0 -87.5 32.5t-33.5 80.5q0 76 67.5 139t149.5 63q53 0 84 -29.5t31 -78.5zM-94 -330q151 176 209 312q-43 6 -69 36t-26 74q0 78 63 140.5t140 62.5q55 0 88 -30.5t33 -88.5q0 -81 -64 -194t-146.5 -208.5t-166.5 -166.5z" />
    <glyph glyph-name="less" unicode="&#x3c;" 
d="M1135 1184l-31 -150l-762 -342l619 -323l-33 -146q-141 65 -405.5 201.5t-393.5 210.5l-4 18l20 105z" />
    <glyph glyph-name="equal" unicode="=" 
d="M1133 842h-922l29 131q348 10 923 10l13 -14zM1049 446h-922l27 132q352 10 925 10l11 -15z" />
    <glyph glyph-name="greater" unicode="&#x3e;" 
d="M117 223l33 150l761 342l-618 323l31 146q137 -63 401.5 -200t398.5 -214l4 -16l-22 -105z" />
    <glyph glyph-name="question" unicode="?" horiz-adv-x="987" 
d="M461 449l-144 -7q-7 44 -4 82q2 48 28.5 92.5t66 80.5t87 71t94.5 71t86 74t63 86.5t24 102.5q0 67 -45.5 107t-124.5 40q-78 0 -170.5 -41.5t-165.5 -117.5l-68 131q94 96 220.5 152.5t269.5 56.5q163 0 254.5 -72t93.5 -191q0 -75 -27.5 -142.5t-72.5 -118t-99.5 -95.5
t-110.5 -81.5t-103 -68t-80 -63t-39 -59.5q-11 -54 -13 -74zM479 174q0 -74 -58.5 -133t-131.5 -59q-48 0 -76.5 29t-28.5 73q0 69 59.5 127.5t131.5 58.5q49 0 76.5 -25.5t27.5 -70.5z" />
    <glyph glyph-name="at" unicode="@" horiz-adv-x="2293" 
d="M1657 -330q-117 -86 -278 -142t-345 -56q-258 0 -462 112.5t-318.5 316.5t-114.5 464q0 195 65.5 378.5t181.5 328t267.5 254t331 168t363.5 58.5q190 0 353.5 -64.5t275.5 -175t175.5 -261.5t63.5 -322q0 -152 -50 -291t-134.5 -239t-201.5 -159.5t-245 -59.5
q-84 0 -146 26t-95.5 69t-48.5 99.5t-12 115.5t20 120h-11q-25 -73 -66.5 -146.5t-95.5 -138t-121.5 -105t-134.5 -40.5q-100 0 -159.5 83t-59.5 230q0 102 29.5 207.5t88.5 202t139 172t189 120.5t230 45q167 0 322 -65l-97 -408q-43 -193 -42 -280q2 -185 153 -185
q76 0 155 46t144 124.5t106.5 197.5t41.5 253q0 212 -100 381.5t-274.5 263.5t-389.5 94q-130 0 -263.5 -36t-256 -101.5t-230 -163t-187 -215t-125.5 -263.5t-46 -302q0 -236 100 -421.5t286.5 -291.5t430.5 -106q89 0 170 13.5t154 41t122 51t117 60.5zM999 186
q66 0 141.5 94t130 218t79.5 235l30 135q-55 25 -98 25q-72 0 -142.5 -53t-120 -133t-80 -176.5t-30.5 -182.5q0 -77 23.5 -119.5t66.5 -42.5z" />
    <glyph glyph-name="A" unicode="A" horiz-adv-x="1323" 
d="M182 0h-239l641 1198q59 109 106 217l289 12l33 -32l151 -1395h-254l-37 348h-503zM578 741l-113 -211h387l-23 211q-27 312 -24 453h-6q-89 -198 -221 -453z" />
    <glyph glyph-name="B" unicode="B" horiz-adv-x="1282" 
d="M557 0h-455l228 1071q42 184 53 338h463q189 0 292 -79.5t103 -219.5q0 -127 -82.5 -228.5t-216.5 -144.5q229 -60 229 -276q0 -137 -84.5 -243.5t-223.5 -162t-306 -55.5zM768 1233h-156l-94 -436h139q145 0 236.5 77t91.5 185q0 174 -217 174zM659 637h-176l-96 -461
h193q150 0 245 77.5t95 199.5q0 184 -261 184z" />
    <glyph glyph-name="C" unicode="C" horiz-adv-x="1193" 
d="M1053 283l-15 -205q-177 -98 -401 -98q-237 0 -364.5 133t-127.5 387q0 174 59 342t161 298t251.5 210t317.5 80q92 0 185.5 -23t154.5 -64l-96 -217q-57 45 -134.5 70t-150.5 25q-112 0 -205.5 -62t-152.5 -160.5t-91 -215.5t-32 -232q0 -176 76.5 -270.5t226.5 -94.5
q82 0 172.5 27t165.5 70z" />
    <glyph glyph-name="D" unicode="D" horiz-adv-x="1452" 
d="M1384 881q0 -136 -37.5 -265t-112 -240.5t-179 -195.5t-247 -132t-306.5 -48h-400l228 1071q46 214 53 338h442q271 0 415 -131.5t144 -396.5zM760 1227h-146l-221 -1045h164q111 0 205 39.5t159 105.5t110.5 153.5t67 182t21.5 191.5q0 89 -19.5 156t-51.5 107.5
t-79.5 65.5t-97.5 34.5t-112 9.5z" />
    <glyph glyph-name="E" unicode="E" horiz-adv-x="1146" 
d="M993 197l-41 -197h-850l228 1071q46 207 53 338h825l23 -29l-41 -168l-576 15l-94 -447l486 8l-45 -182l-476 10l-92 -434z" />
    <glyph glyph-name="F" unicode="F" horiz-adv-x="1073" 
d="M354 0h-252l228 1071q46 207 53 338h803l20 -29l-39 -168l-553 15l-100 -477l461 6l-45 -183l-451 11z" />
    <glyph glyph-name="G" unicode="G" horiz-adv-x="1341" 
d="M1208 641l21 -27l-119 -542q-195 -92 -436 -92q-260 0 -395.5 131t-135.5 385q0 142 41 280t118 255t179.5 207t233.5 141t272 51q94 0 190 -22.5t164 -64.5l-88 -217q-128 101 -299 101q-121 0 -225 -60.5t-172.5 -158.5t-107.5 -220.5t-39 -248.5q0 -363 331 -363
q80 0 158 17l8 36q28 133 39.5 207t20.5 185z" />
    <glyph glyph-name="H" unicode="H" horiz-adv-x="1486" 
d="M354 0h-252l226 1061q45 219 55 348l248 21l20 -29l-129 -610h580l57 270q43 195 55 348l248 21l21 -29l-297 -1401h-252l129 608h-580z" />
    <glyph glyph-name="I" unicode="I" horiz-adv-x="655" 
d="M354 0h-252l226 1061q43 195 55 348l248 21l20 -29z" />
    <glyph glyph-name="J" unicode="J" horiz-adv-x="626" 
d="M-102 -395l-52 94q205 180 273 502l182 860q37 176 47 338l256 31l21 -27l-254 -1202q-48 -232 -152.5 -366.5t-320.5 -229.5z" />
    <glyph glyph-name="K" unicode="K" horiz-adv-x="1308" 
d="M328 1061q42 195 55 348l246 21l22 -29l-135 -637h166q222 285 508 666l223 -23l10 -27l-544 -653l299 -727l-287 -14q-123 271 -246 594h-170l-123 -580h-250z" />
    <glyph glyph-name="L" unicode="L" horiz-adv-x="1062" 
d="M963 197l-41 -197h-820l228 1063q42 204 53 346l248 21l20 -29l-258 -1219z" />
    <glyph glyph-name="M" unicode="M" horiz-adv-x="1814" 
d="M1708 1430l29 -29l-142 -1401h-247l51 522q22 241 82 647h-4q-102 -251 -297 -647l-258 -522h-281l-37 522q-30 383 -22 647h-4q-54 -201 -197 -647l-168 -522h-211l459 1413l327 14l56 -596q17 -337 -2 -618h6q110 299 262 618l299 582z" />
    <glyph glyph-name="N" unicode="N" horiz-adv-x="1495" 
d="M862 852q68 -178 107 -294.5t67 -242.5h4q15 128 36.5 244t88.5 436q50 234 70 414l233 18l23 -28l-297 -1399h-244q-44 109 -115 297.5t-104 271.5q-130 331 -176 514h-4q-23 -225 -78 -462l-131 -621h-240l228 1071q41 185 53 338l260 16q200 -524 219 -573z" />
    <glyph glyph-name="O" unicode="O" horiz-adv-x="1429" 
d="M1366 905q0 -136 -36 -271t-104.5 -252t-160.5 -207.5t-212.5 -142.5t-252.5 -52q-214 0 -334.5 134.5t-120.5 383.5q0 137 36 273t105 254t161 209t212 143.5t250 52.5q215 0 336 -137.5t121 -387.5zM406 504q0 -160 59 -247t178 -87q105 0 195 69t147 177.5t89 236.5
t32 252q0 160 -58 247t-176 87q-84 0 -159.5 -45.5t-130.5 -121.5t-95.5 -171.5t-60.5 -197.5t-20 -199z" />
    <glyph glyph-name="P" unicode="P" horiz-adv-x="1193" 
d="M354 0h-252l228 1071q47 222 53 338h430q202 0 313 -94t111 -264q0 -164 -88 -296t-238 -205t-331 -73h-123zM727 1233h-111l-122 -580h100q176 0 279.5 103t103.5 264q0 213 -250 213z" />
    <glyph glyph-name="Q" unicode="Q" horiz-adv-x="1402" 
d="M1577 -215q0 -85 -80 -131.5t-211 -46.5q-206 0 -425 100.5t-347 280.5q-171 30 -270 164.5t-99 357.5q0 169 59.5 335.5t159.5 295.5t242.5 209t298.5 80q214 0 333.5 -144t119.5 -399q0 -217 -86 -413.5t-236.5 -326.5t-330.5 -159q127 -73 282.5 -121.5t296.5 -48.5
q122 0 266 47q27 -30 27 -80zM635 170q105 0 195 69t147 177.5t89 236.5t32 252q0 160 -57.5 247t-174.5 87q-84 0 -160 -45.5t-130.5 -121.5t-95.5 -171.5t-61 -197.5t-20 -199q0 -161 58.5 -247.5t177.5 -86.5z" />
    <glyph glyph-name="R" unicode="R" horiz-adv-x="1261" 
d="M354 0h-252l228 1071q43 192 53 338h397q223 0 342 -89.5t119 -254.5q0 -161 -96.5 -289t-265.5 -188l223 -588l-285 -23q-92 262 -170 541h-184zM729 1233h-113l-116 -545h104q173 0 274 93.5t101 244.5q0 207 -250 207z" />
    <glyph glyph-name="S" unicode="S" horiz-adv-x="1085" 
d="M961 422q0 -192 -164.5 -317t-423.5 -125q-101 0 -203.5 20t-161.5 55l64 213q66 -43 166.5 -67.5t177.5 -24.5q124 0 200 60t76 155q0 25 -7 48t-15.5 40.5t-27.5 37.5t-31 31.5t-39 29.5t-39.5 26t-43.5 26t-40 23q-52 30 -87.5 56.5t-73 66.5t-56.5 92t-19 115
q0 191 170 319t428 128q91 0 176 -16.5t139 -43.5l-77 -217q-60 39 -136.5 59.5t-146.5 20.5q-124 0 -204.5 -60.5t-80.5 -152.5q0 -31 11 -58.5t24 -46t43.5 -42.5t48.5 -35.5t60.5 -37t60.5 -36.5q49 -31 83.5 -58t72 -68.5t57 -96t19.5 -119.5z" />
    <glyph glyph-name="T" unicode="T" horiz-adv-x="1103" 
d="M569 0h-252l258 1221q-100 -1 -413 -15l57 203h1045l-27 -203q-309 14 -410 15z" />
    <glyph glyph-name="U" unicode="U" horiz-adv-x="1388" 
d="M156 336q0 80 41 271t89 421.5t60 382.5l254 19l18 -25q-187 -870 -198 -941q-6 -38 -6 -67q0 -108 60.5 -164.5t166.5 -56.5q129 0 221.5 80.5t124.5 232.5q122 570 146 694.5t28 227.5l266 16l-202 -954q-34 -158 -131.5 -271.5t-227.5 -167.5t-280 -54
q-195 0 -312.5 94t-117.5 262z" />
    <glyph glyph-name="V" unicode="V" horiz-adv-x="1269" 
d="M397 -4l-178 1407l273 27l83 -764q27 -304 23 -422q61 141 195 387l426 799l198 -17l10 -27l-770 -1390h-260z" />
    <glyph glyph-name="W" unicode="W" horiz-adv-x="1968" 
d="M319 -4l-100 1407l270 27l37 -781q12 -174 4 -397q41 101 185 405l364 756l244 17l41 -781q15 -265 10 -397q49 132 180 407l365 771l197 -17l10 -27l-690 -1390h-260l-56 694q-6 87 -10 387h-6q-70 -167 -178 -389l-346 -692h-261z" />
    <glyph glyph-name="X" unicode="X" horiz-adv-x="1187" 
d="M-61 0l-9 27l545 659l-254 717l275 27l192 -584h4l428 584l213 -19l8 -29l-546 -684l252 -698h-281l-184 537h-4l-418 -537h-221z" />
    <glyph glyph-name="Y" unicode="Y" horiz-adv-x="1148" 
d="M442 477l-223 926l273 27l90 -465q5 -33 16 -99.5t18.5 -120t10.5 -90.5h4q26 48 96 164.5t86 145.5l285 465l198 -17l11 -27l-615 -911l-100 -475h-252z" />
    <glyph glyph-name="Z" unicode="Z" horiz-adv-x="1075" 
d="M-29 0l-8 162l920 1040l-674 -12l61 219h889l29 -162l-912 -1040l693 14l-62 -221h-936z" />
    <glyph glyph-name="bracketleft" unicode="[" horiz-adv-x="780" 
d="M55 -215h2l336 1579h-2l41 188h490l-41 -188h-254l-336 -1579h254l-39 -188h-490z" />
    <glyph glyph-name="backslash" unicode="\" horiz-adv-x="770" 
d="M395 -14l-57 1530l20 16l125 22l58 -1529l-21 -17z" />
    <glyph glyph-name="bracketright" unicode="]" horiz-adv-x="780" 
d="M375 -403h-488l39 188h254l338 1579h-256l41 188h490l-41 -188l-336 -1579z" />
    <glyph glyph-name="asciicircum" unicode="^" horiz-adv-x="1007" 
d="M270 430h-149l446 692h127l158 -692h-150l-114 506z" />
    <glyph glyph-name="underscore" unicode="_" horiz-adv-x="847" 
d="M-203 -440l19 88h848l-19 -88h-848z" />
    <glyph glyph-name="grave" unicode="`" horiz-adv-x="622" 
d="M563 1171q-175 145 -256 332l23 41l225 25q24 -170 102 -375z" />
    <glyph glyph-name="a" unicode="a" horiz-adv-x="1122" 
d="M76 287q0 106 29 213t87 203.5t137.5 172t188 120t230.5 44.5q75 0 164.5 -16t158.5 -49l-82 -359q-92 -405 -92 -616h-246q0 144 41 371q-31 -72 -72 -138.5t-92 -124.5t-113 -93t-124 -35q-100 0 -157.5 79t-57.5 228zM328 348q0 -77 24 -119.5t68 -42.5
q62 0 135.5 92.5t127.5 213.5t85 235q8 43 31 137q-66 29 -111 29q-91 0 -176 -88t-134.5 -214.5t-49.5 -242.5z" />
    <glyph glyph-name="b" unicode="b" horiz-adv-x="1130" 
d="M322 1247l16 285l262 20q0 -100 -28 -269.5t-52 -278t-80 -351.5q66 163 172 275t228 112q104 0 161.5 -78.5t57.5 -228.5q0 -105 -29 -212.5t-87 -204t-136.5 -172t-185.5 -120t-226 -44.5q-188 0 -319 63q26 181 145 735zM354 260q-15 -87 -18 -104q66 -29 110 -29
q91 0 176.5 88t135 214t49.5 243q0 77 -24 119.5t-68 42.5q-65 0 -143 -97.5t-136 -229t-82 -247.5z" />
    <glyph glyph-name="c" unicode="c" horiz-adv-x="958" 
d="M823 272l39 -96q-86 -98 -195 -147t-227 -49q-162 0 -257 97t-95 281q0 129 48 252.5t129.5 218.5t198.5 153t247 58q147 0 256 -75l-68 -203q-109 112 -227 112q-90 0 -167 -71t-120 -180.5t-43 -225.5q0 -120 49.5 -186t151.5 -66q136 0 280 127z" />
    <glyph glyph-name="d" unicode="d" horiz-adv-x="1124" 
d="M899 0h-244q0 145 43 377q-43 -107 -100 -193t-138.5 -145t-168.5 -59q-100 0 -157.5 78.5t-57.5 226.5q0 106 29 213.5t87 204.5t136 172.5t185 120t226 44.5q51 0 95 -8l47 215l16 285l262 20q0 -129 -40.5 -348.5t-89.5 -419t-89.5 -423.5t-40.5 -361zM328 348
q0 -77 24 -119.5t68 -42.5q47 0 102.5 54t102 136.5t85 175.5t58.5 175q6 24 12 51l19 86q-66 29 -111 29q-91 0 -176 -88t-134.5 -214.5t-49.5 -242.5z" />
    <glyph glyph-name="e" unicode="e" horiz-adv-x="995" 
d="M819 272l37 -96q-77 -93 -188 -144.5t-226 -51.5q-161 0 -257.5 97t-96.5 281q0 124 46.5 247t125 219t191 156t235.5 60q129 0 207 -62t78 -169q0 -154 -160.5 -262t-466.5 -121q-2 -16 -2 -49q0 -106 50.5 -169t146.5 -63q136 0 280 127zM643 897q-67 0 -128 -61
t-99.5 -146.5t-59.5 -181.5q198 25 292.5 102t94.5 181q0 52 -26.5 79t-73.5 27z" />
    <glyph glyph-name="f" unicode="f" horiz-adv-x="749" 
d="M-27 -481l-79 88q71 100 119 206.5t77 243.5l170 811l-147 9l20 90l156 30q22 137 28 164q40 186 167 288.5t317 102.5q153 0 250 -63l-93 -186q-94 67 -194 67q-160 0 -203 -194q-12 -53 -33 -179h263l14 -26l-31 -111l-268 8l-158 -743q-48 -227 -131.5 -367
t-243.5 -239z" />
    <glyph glyph-name="g" unicode="g" horiz-adv-x="987" 
d="M285 -528q-188 0 -297 70.5t-109 178.5q0 148 217 236l54 -51q-48 -58 -48 -111q0 -88 61.5 -143t168.5 -55q102 0 170.5 47.5t68.5 111.5q0 49 -44 85.5t-140 82.5q-37 18 -55 27.5t-45.5 27t-41 31.5t-24 34.5t-10.5 43.5q0 46 40.5 88t90.5 67t109 44v6q-25 -3 -43 0
q-133 6 -213 87t-80 216q0 129 69 232t178.5 157.5t235.5 54.5q187 0 263 4t153 21q22 -22 22 -64q0 -37 -24 -67.5t-78 -30.5q-26 0 -53 6.5t-64 19.5t-51 17l-2 -4q133 -75 133 -233q0 -74 -25 -139.5t-65 -112.5t-88.5 -87t-97.5 -69.5t-89 -54t-65 -47t-25 -41.5
q0 -31 101 -80q4 -2 6.5 -3.5t5.5 -2.5q57 -28 97 -52t81 -58t62.5 -75.5t21.5 -89.5q0 -133 -151.5 -229t-380.5 -96zM668 743q0 77 -28 122.5t-81 45.5q-56 0 -106.5 -52.5t-79.5 -130.5t-29 -155q0 -80 31 -126t86 -46q59 0 108 54t74 131.5t25 156.5z" />
    <glyph glyph-name="h" unicode="h" horiz-adv-x="1163" 
d="M340 0h-244q0 111 26.5 276.5t98.5 501.5l101 469l16 285l262 20q0 -97 -23.5 -246t-45 -248t-68.5 -304h6q74 142 180.5 214t212.5 72q95 0 146 -53.5t51 -152.5q0 -51 -13 -119.5t-73 -345.5q-39 -180 -39 -369h-244q0 182 67 486q1 5 1.5 8t1.5 7.5t2 8.5
q37 174 37 223q0 101 -86 101q-97 0 -182.5 -120.5t-136 -312t-54.5 -401.5z" />
    <glyph glyph-name="i" unicode="i" horiz-adv-x="563" 
d="M590 1413q0 -79 -63.5 -143t-141.5 -64q-54 0 -85.5 31t-31.5 80q0 74 65 137.5t144 63.5q52 0 82.5 -28.5t30.5 -76.5zM340 0h-244q0 196 76 547l41 188l16 285l263 20q0 -96 -24 -238t-52 -266.5t-52 -275t-24 -260.5z" />
    <glyph glyph-name="j" unicode="j" horiz-adv-x="528" 
d="M565 1413q0 -79 -63.5 -143t-143.5 -64q-53 0 -83.5 31t-30.5 80q0 74 65 137.5t144 63.5q52 0 82 -28.5t30 -76.5zM-98 -528l-80 88q86 95 139 202.5t84 249.5l154 723l16 285l262 20q0 -51 -6.5 -112t-26 -165t-33.5 -173t-51 -242.5t-57 -267.5q-48 -230 -135.5 -369
t-265.5 -239z" />
    <glyph glyph-name="k" unicode="k" horiz-adv-x="1099" 
d="M1073 858q0 -116 -99.5 -225.5t-236.5 -181.5q137 -279 267 -451h-306q-112 176 -194 420q154 109 238.5 202.5t84.5 174.5q0 37 -18.5 57t-52.5 20q-68 0 -142 -79.5t-132.5 -203t-98 -282.5t-43.5 -309h-244q0 111 26.5 276.5t98.5 501.5l101 469l16 285l262 20
q0 -44 -4 -94.5t-14 -116t-18 -112.5t-26 -133t-26.5 -125.5t-31 -141.5t-29.5 -133h4q81 168 193 256t231 88q92 0 143 -50.5t51 -131.5z" />
    <glyph glyph-name="l" unicode="l" horiz-adv-x="559" 
d="M340 0h-244q0 111 26.5 276.5t98.5 501.5l101 469l16 285l262 20q0 -129 -40.5 -348.5t-89.5 -419t-89.5 -423.5t-40.5 -361z" />
    <glyph glyph-name="m" unicode="m" horiz-adv-x="1738" 
d="M465 754q50 96 116.5 162t134 95t136.5 29q112 0 162 -76.5t30 -209.5h5q73 142 177.5 214t209.5 72q121 0 170 -87t16 -236l-86 -408q-27 -126 -27 -309h-243q0 108 18 223.5t68 364.5q17 84 18 136t-18.5 81t-63.5 29q-92 0 -175 -112.5t-133.5 -298t-53.5 -392.5v-4
v-27h-246q0 108 18 223.5t68 364.5q17 84 18 136t-18.5 81t-63.5 29q-98 0 -181.5 -128.5t-130 -318t-50.5 -387.5h-244q0 120 25 277t92 458l16 285l263 20q0 -84 -31 -286h4z" />
    <glyph glyph-name="n" unicode="n" horiz-adv-x="1163" 
d="M340 0h-244q0 136 26.5 295t90.5 440l16 285l263 20q0 -88 -31 -286h4q75 143 181.5 214.5t215.5 71.5q94 0 145.5 -52.5t51.5 -143.5q0 -81 -62 -364q-5 -25 -8 -38q-33 -154 -44 -240.5t-11 -201.5h-244q0 102 13.5 198t46.5 259q45 225 45 272q0 105 -84 105
q-93 0 -177.5 -118t-137 -311t-56.5 -405z" />
    <glyph glyph-name="o" unicode="o" horiz-adv-x="1101" 
d="M1018 666q0 -127 -45 -250.5t-121.5 -220t-188 -156t-235.5 -59.5q-157 0 -248.5 94t-91.5 276q0 127 45.5 251.5t122.5 221.5t188 157t234 60q159 0 249.5 -97t90.5 -277zM342 332q0 -205 129 -205q67 0 124.5 56.5t93 143t55.5 182t20 179.5q0 205 -129 205
q-68 0 -125.5 -56t-93 -142t-55 -181.5t-19.5 -181.5z" />
    <glyph glyph-name="p" unicode="p" horiz-adv-x="1120" 
d="M377 -20q-24 0 -90 4q-66 -311 -66 -492h-246q0 108 26.5 273.5t98.5 500.5l101 469l16 285l264 20q0 -136 -45 -368q31 73 71.5 136.5t89.5 116.5t109 84t121 31q101 0 160.5 -83.5t59.5 -235.5q0 -106 -29 -212t-87 -201t-137 -168.5t-187.5 -116.5t-229.5 -43z
M702 834q-61 0 -131.5 -85.5t-124.5 -200.5t-86 -229l-36 -165q69 -27 110 -27q91 0 176.5 88t135 214t49.5 243q0 77 -24.5 119.5t-68.5 42.5z" />
    <glyph glyph-name="q" unicode="q" horiz-adv-x="1118" 
d="M297 -20q-101 0 -160 83.5t-59 235.5q0 106 29 212t87 201t137 168.5t187.5 116.5t229.5 43q76 0 165.5 -16t159.5 -49l-196 -877q-89 -424 -89 -606h-243q0 203 127 789l14 65q-32 -69 -72.5 -131.5t-90.5 -116.5t-109 -86t-117 -32zM330 348q0 -77 24 -119.5t68 -42.5
q47 0 101.5 53t101.5 134t85 172t60 174l31 145q-66 29 -111 29q-91 0 -176 -88t-134.5 -214.5t-49.5 -242.5z" />
    <glyph glyph-name="r" unicode="r" horiz-adv-x="825" 
d="M340 0h-244q0 196 76 547l41 188l16 285l263 20q0 -120 -50 -370h4q69 192 157.5 281t180.5 89q42 0 79 -17t59 -42l-121 -223q-59 24 -111 24q-100 0 -179 -109.5t-122 -285.5t-49 -387z" />
    <glyph glyph-name="s" unicode="s" horiz-adv-x="894" 
d="M854 987l-59 -188q-121 75 -246 75q-77 0 -126.5 -36t-49.5 -93q0 -34 21.5 -62.5t55.5 -49t75.5 -41t82.5 -45t75 -54t55.5 -75t21.5 -101.5q0 -148 -131 -242.5t-322 -94.5q-84 0 -166 19t-135 54l57 187q64 -45 144 -70t143 -25q77 0 126.5 37.5t49.5 93.5
q0 33 -21.5 61t-56 49t-76 41.5t-82.5 45t-75.5 54t-56 74t-21.5 99.5q0 98 64 176.5t167.5 121t223.5 42.5q138 0 262 -53z" />
    <glyph glyph-name="t" unicode="t" horiz-adv-x="763" 
d="M774 887l-285 4q-17 -78 -44 -205q-55 -253 -67.5 -318.5t-12.5 -97.5q0 -114 114 -114q80 0 170 51l-12 -156q-134 -71 -275 -71q-247 0 -247 239q0 45 13 113.5t67 323.5q31 146 51 239l-142 2l19 92l156 31l112 252l158 12l24 -29l-57 -235h279l14 -29z" />
    <glyph glyph-name="u" unicode="u" horiz-adv-x="1122" 
d="M109 303l92 432l16 285l262 20q0 -87 -14 -184t-44.5 -242.5t-37.5 -181.5q-11 -62 -15 -101.5t0 -75.5t23 -52.5t53 -16.5q93 0 172 121t127 316q38 180 48 288q4 74 4 109l256 20q-4 -71 -15 -152t-22 -139.5t-38 -191.5t-44 -221q-35 -158 -35 -336h-246q0 109 21 256
h-2q-71 -138 -171.5 -207t-203.5 -69q-119 0 -168 87.5t-18 235.5z" />
    <glyph glyph-name="v" unicode="v" horiz-adv-x="958" 
d="M217 0q-9 601 -94 1020l260 20q71 -392 43 -860h4q127 214 216 440.5t108 407.5q49 12 96 12q59 0 90 -18t31 -66q0 -134 -146.5 -428t-335.5 -528h-272z" />
    <glyph glyph-name="w" unicode="w" horiz-adv-x="1544" 
d="M1438 1040q58 0 88 -18t30 -66q0 -135 -138 -427.5t-322 -528.5h-277q25 363 19 745h-4q-120 -387 -367 -745h-274q0 582 -70 1020l260 18q55 -382 20 -862h5q122 207 205.5 432t103.5 412h297q50 -375 16 -844h4q120 206 202.5 435.5t102.5 416.5q49 12 99 12z" />
    <glyph glyph-name="x" unicode="x" horiz-adv-x="960" 
d="M-23 0q37 144 136 288.5t247 252.5q-97 301 -229 479l252 20q93 -126 180 -393q73 75 124.5 171t62.5 194q45 28 106 28q49 0 83 -19.5t34 -62.5q0 -81 -103.5 -216.5t-257.5 -247.5q33 -102 57 -169.5t63.5 -159t82.5 -165.5h-256q-29 53 -58.5 126.5t-43.5 116
t-47 144.5q-67 -66 -123 -173.5t-78 -213.5h-232z" />
    <glyph glyph-name="y" unicode="y" horiz-adv-x="958" 
d="M850 1040q59 0 90 -18t31 -64q0 -65 -39.5 -179.5t-109.5 -251.5t-159 -284.5t-194 -284t-209.5 -246t-211 -175t-191.5 -65.5q-64 0 -101 36t-37 99q0 53 29 98q57 -14 123 -14q125 0 254.5 90.5t208.5 218.5h-117q-9 601 -94 1020l260 20q71 -391 43 -860h4
q127 214 216 440.5t108 407.5q49 12 96 12z" />
    <glyph glyph-name="z" unicode="z" horiz-adv-x="919" 
d="M53 -20l-80 118q467 486 656 707q-133 41 -230 41q-151 0 -239 -117l-72 43q58 153 133.5 210.5t184.5 57.5q141 0 335 -98q24 29 76 98q38 0 68 -20t30 -62q0 -77 -166 -272t-477 -483q28 4 52 4q44 0 120.5 -15.5t108.5 -15.5q128 0 215 133l84 -49
q-57 -161 -132.5 -220.5t-191.5 -59.5q-76 0 -187.5 26.5t-150.5 26.5q-71 0 -137 -53z" />
    <glyph glyph-name="braceleft" unicode="{" horiz-adv-x="800" 
d="M305 340q0 140 -170 162l37 166q126 11 197 100t71 262q0 20 -1 67t-1 66q0 94 23.5 163t64.5 112t106 69t138.5 35.5t171.5 9.5l-27 -143q-128 0 -187.5 -70t-59.5 -229q0 -7 1 -48t1 -58q0 -98 -25 -175.5t-68.5 -126.5t-95.5 -78.5t-114 -41.5q178 -55 178 -220
q0 -58 -24 -128.5t-53 -125.5t-53 -122t-24 -117q0 -66 41.5 -98.5t128.5 -32.5l-37 -144q-200 0 -293.5 49t-93.5 167q0 63 26.5 139.5t57.5 135.5t57.5 130t26.5 125z" />
    <glyph glyph-name="bar" unicode="|" horiz-adv-x="616" 
d="M37 -528l-12 16l436 2058l121 6l12 -16l-438 -2058z" />
    <glyph glyph-name="braceright" unicode="}" horiz-adv-x="800" 
d="M522 807q0 -139 170 -162l-35 -166q-127 -11 -198.5 -100t-71.5 -262q0 -19 2 -66t2 -67q0 -94 -23.5 -163t-65 -112.5t-106.5 -69t-138 -35.5t-171 -10l25 144q128 0 188 70t60 229q0 7 -1 48t-1 58q0 98 25 175.5t69.5 126.5t96.5 78.5t114 41.5q-180 56 -180 219
q0 58 24 128.5t53.5 126t53.5 122.5t24 117q0 131 -172 131l37 143q202 0 295.5 -48.5t93.5 -166.5q0 -63 -26.5 -139.5t-58.5 -135.5t-58.5 -130t-26.5 -125z" />
    <glyph glyph-name="asciitilde" unicode="~" 
d="M858 449q-52 0 -268 62t-242 62q-5 0 -11 -2t-14.5 -7.5t-15.5 -11t-18 -15.5t-18.5 -17t-21 -21t-21.5 -22t-24 -24.5t-24 -24.5l-71 55q36 47 63.5 79t67 73t77 62.5t70.5 21.5q51 0 268 -62.5t242 -62.5q6 0 14.5 3.5t19.5 12t20.5 16.5t26 23.5t27 26t31 31.5
t31.5 32l70 -55q-39 -50 -64.5 -79.5t-66.5 -71.5t-78 -63t-70 -21z" />
    <glyph glyph-name="nbspace" unicode="&#xa0;" horiz-adv-x="1228" 
 />
    <glyph glyph-name="exclamdown" unicode="&#xa1;" horiz-adv-x="634" 
d="M254 846q0 74 58 133t130 59q50 0 78.5 -29t28.5 -73q0 -69 -59.5 -127.5t-131.5 -58.5q-49 0 -76.5 25.5t-27.5 70.5zM256 582h154q-41 -253 -92.5 -586t-59.5 -385l-238 -21l-22 27q100 436 258 965z" />
    <glyph glyph-name="cent" unicode="&#xa2;" horiz-adv-x="966" 
d="M350 -287l-12 17l53 254q-141 15 -218 115t-77 278q0 180 77 341.5t209.5 267t289.5 126.5l59 274l92 7l15 -17l-58 -262q133 -12 209 -78l-71 -217q-95 119 -213 119q-96 0 -178.5 -73.5t-129.5 -192.5t-47 -252q0 -268 197 -268q123 0 278 120l43 -96
q-74 -81 -169 -132.5t-199 -61.5l-56 -263z" />
    <glyph glyph-name="sterling" unicode="&#xa3;" horiz-adv-x="1165" 
d="M1012 -319q-52 -19 -138 -19q-67 0 -136.5 17.5t-122.5 41t-118 65t-103.5 71t-100 78.5t-88.5 69q-55 -24 -121 -24q-67 0 -101.5 25.5t-29.5 68.5q3 44 38.5 70t88.5 26t119 -29q22 41 41.5 101.5t31.5 110t31 141.5l16 94l-229 6l27 94l225 29q25 131 56.5 233.5
t78.5 194.5t106.5 152t141.5 95t182 35q92 0 167.5 -23.5t117.5 -60.5l-98 -194q-103 96 -205 96q-113 0 -179 -115t-130 -413h366l12 -25l-40 -104h-369l-10 -41q-82 -317 -224 -463q10 -6 80 -45t94 -51.5t89 -42.5t106.5 -41.5t102.5 -23t118 -11.5q97 0 189 27z" />
    <glyph glyph-name="currency" unicode="&#xa4;" horiz-adv-x="1157" 
d="M864 78l-123 162q-126 -76 -258 -76q-120 0 -198 59l-176 -143l-74 94l172 143q-33 71 -33 146q0 91 38 176t105 152l-112 147l104 88q19 -21 123 -149q114 65 238 65q129 0 211 -72l186 156l76 -94l-193 -160q25 -61 25 -131q0 -168 -121 -305q16 -21 49 -63.5
t53.5 -69.5t24.5 -33l-2 -16zM633 809q-124 0 -215.5 -94t-91.5 -219q0 -85 50 -142t146 -57q126 0 214.5 91.5t88.5 217.5q0 92 -50.5 147.5t-141.5 55.5z" />
    <glyph glyph-name="yen" unicode="&#xa5;" horiz-adv-x="1130" 
d="M74 225l22 101h310l36 170h-311l23 98h309l-244 809l262 27l101 -373q28 -107 57 -299h2q80 138 182 289l267 383l188 -17l10 -27l-581 -792h307l-21 -98h-311l-35 -170h309l-20 -101h-309l-49 -225h-242l49 225h-311z" />
    <glyph glyph-name="brokenbar" unicode="&#xa6;" horiz-adv-x="616" 
d="M424 739l-111 -6l-20 15l168 798l121 6l12 -16zM156 -522l-111 -6l-20 16l168 793l120 6l13 -15z" />
    <glyph glyph-name="section" unicode="&#xa7;" horiz-adv-x="1148" 
d="M870 1208q-91 0 -148.5 -54.5t-57.5 -139.5q0 -49 23 -108.5t58 -114.5t75.5 -122.5t75.5 -132t58 -145.5t23 -160q0 -162 -89.5 -295t-248 -209.5t-352.5 -76.5q-84 0 -162 14.5t-125 36.5l84 240q88 -70 199 -70q95 0 157 56.5t62 144.5q0 57 -33 127t-79.5 141.5
t-93 148.5t-79.5 172t-33 189q0 161 89.5 294t247 209.5t347.5 76.5q79 0 157 -14t126 -36l-82 -241q-42 33 -96.5 51t-102.5 18zM412 -213q194 23 309 141t115 275q0 79 -33 164t-79.5 158.5t-93 146.5t-79.5 152.5t-33 150.5q0 107 66 193.5t172 107.5l-6 16
q-193 -23 -307.5 -139.5t-114.5 -273.5q0 -80 32.5 -165.5t79 -160t93.5 -147t79.5 -152.5t32.5 -152q0 -105 -66 -191.5t-171 -107.5z" />
    <glyph glyph-name="dieresis" unicode="&#xa8;" horiz-adv-x="921" 
d="M567 1409q0 -75 -58.5 -136t-131.5 -61q-49 0 -77 29t-28 74q0 72 61.5 132t133.5 60q46 0 73 -27t27 -71zM1012 1409q0 -75 -59 -136t-132 -61q-49 0 -77.5 29.5t-28.5 73.5q0 72 62 132t134 60q46 0 73.5 -27t27.5 -71z" />
    <glyph glyph-name="copyright" unicode="&#xa9;" horiz-adv-x="1402" 
d="M571 -90q-217 0 -351 131t-134 338q0 138 62.5 272.5t164.5 236t239 164t279 62.5q217 0 352.5 -134t135.5 -339q0 -136 -63 -270t-165 -235t-240 -163.5t-280 -62.5zM590 0q120 0 237.5 52.5t204.5 138t141 198.5t54 229q0 175 -116.5 290.5t-299.5 115.5
q-120 0 -236.5 -53t-203.5 -139t-140 -201.5t-53 -233.5q0 -174 114.5 -285.5t297.5 -111.5zM975 801l-51 -144q-66 66 -144 66q-84 0 -141 -73.5t-57 -176.5q0 -74 34.5 -117t96.5 -43q74 0 166 74l30 -78q-46 -54 -119 -86.5t-151 -32.5q-113 0 -177.5 65.5t-64.5 184.5
q0 169 120.5 289.5t285.5 120.5q107 0 172 -49z" />
    <glyph glyph-name="ordfeminine" unicode="&#xaa;" horiz-adv-x="935" 
d="M174 834q0 82 23.5 164t71 155.5t112.5 130t154 90t190 33.5q157 0 272 -49l-65 -287q-75 -332 -72 -483h-205q-3 102 29 282q-54 -117 -142 -203.5t-184 -86.5q-85 0 -134.5 66.5t-49.5 187.5zM385 872q0 -60 20.5 -94.5t57.5 -34.5q51 0 110 69t102.5 162t67.5 183
q17 71 25 109q-49 22 -88 22q-76 0 -145.5 -65.5t-109.5 -161.5t-40 -189z" />
    <glyph glyph-name="guillemetleft" unicode="&#xab;" horiz-adv-x="991" 
d="M111 567l14 66q188 137 432 387l57 -27q-112 -203 -292 -393q103 -201 127 -393l-70 -27q-144 260 -268 387zM508 567l14 66q199 147 430 387l60 -27q-111 -201 -293 -393q101 -196 125 -393l-70 -27q-139 257 -266 387z" />
    <glyph glyph-name="logicalnot" unicode="&#xac;" horiz-adv-x="1181" 
d="M1075 664l-102 -480h-139l75 357h-780l27 129q345 10 907 10z" />
    <glyph glyph-name="registered" unicode="&#xae;" horiz-adv-x="1404" 
d="M569 -90q-215 0 -349 132t-134 339q0 137 63 271.5t165 235.5t240 163.5t280 62.5q217 0 351 -134.5t134 -340.5q0 -108 -40 -216.5t-111.5 -199.5t-164 -162t-206 -111t-228.5 -40zM590 0q122 0 240 53.5t204.5 139.5t139.5 198.5t53 226.5q0 175 -116.5 290.5
t-299.5 115.5q-97 0 -192.5 -34.5t-173.5 -95.5t-139 -139t-94.5 -170.5t-33.5 -185.5q0 -177 114.5 -288t297.5 -111zM557 188h-141l94 447q1 5 8 38.5t9 44.5t6 38.5t5.5 52t2.5 53.5h252q106 0 163.5 -47t57.5 -135q0 -82 -52 -149t-137 -93l90 -250l-151 -10
q-12 31 -66 221h-96zM758 748h-82l-49 -234h80q71 0 113 39t42 100q0 45 -27 70t-77 25z" />
    <glyph glyph-name="macron" unicode="&#xaf;" horiz-adv-x="763" 
d="M264 1290l29 142h579l-28 -142h-580z" />
    <glyph glyph-name="degree" unicode="&#xb0;" horiz-adv-x="696" 
d="M358 618q-87 0 -139.5 50.5t-52.5 138.5q0 124 96.5 219.5t226.5 95.5q89 0 142 -50.5t53 -137.5q0 -122 -99 -219t-227 -97zM463 1032q-78 0 -137.5 -61.5t-59.5 -139.5q0 -57 32.5 -90.5t88.5 -33.5q77 0 137 62.5t60 141.5q0 56 -33 88.5t-88 32.5z" />
    <glyph glyph-name="plusminus" unicode="&#xb1;" horiz-adv-x="1224" 
d="M1092 748h-344l-66 -312h-137l63 312h-360l26 131q94 2 363 6l63 309h142l-66 -307q74 0 193 1t153 1l11 -15zM1024 86h-922l27 131q352 10 926 10l10 -14z" />
    <glyph glyph-name="twosuperior" unicode="&#xb2;" horiz-adv-x="770" 
d="M252 721l6 125q80 46 140 83.5t131.5 90.5t117 99.5t76.5 101.5t31 106q0 53 -33.5 83t-93.5 30q-112 0 -242 -88l12 139q60 34 143.5 56t161.5 22q117 0 186.5 -54.5t69.5 -148.5q0 -60 -31 -121t-80.5 -113.5t-119 -104t-138.5 -91.5t-147 -78h195q109 0 217 12
l-45 -149h-557z" />
    <glyph glyph-name="threesuperior" unicode="&#xb3;" horiz-adv-x="759" 
d="M414 1503q53 27 134 46.5t152 19.5q103 0 167.5 -43t64.5 -113q0 -80 -75.5 -149.5t-182.5 -98.5q99 -9 156 -56t57 -120q0 -120 -124 -202t-306 -82q-127 0 -219 28l43 119q74 -29 176 -29q98 0 164.5 40.5t66.5 101.5q0 98 -178 98q-64 0 -121 -8l25 119q141 17 227 69
t86 119q0 36 -28.5 57t-82.5 21q-99 0 -219 -58z" />
    <glyph glyph-name="acute" unicode="&#xb4;" horiz-adv-x="530" 
d="M670 1542l6 -41q-169 -195 -395 -332l-86 23q183 236 260 373z" />
    <glyph glyph-name="paragraph" unicode="&#xb6;" horiz-adv-x="1234" 
d="M332 -209q334 0 426 428l207 971l26 125h-145l-187 -866h-51q-56 0 -111.5 10t-113.5 37t-101.5 68t-71.5 109t-28 154q0 158 86 291.5t237 212t333 78.5h338l-46 -219l-210 -993q-54 -254 -217.5 -399.5t-395.5 -145.5q-151 0 -276 53l43 145q139 -59 258 -59z" />
    <glyph glyph-name="periodcentered" unicode="&#xb7;" horiz-adv-x="636" 
d="M496 614q0 -78 -65 -142t-144 -64q-56 0 -88.5 31t-32.5 79q0 77 67 141t148 64q52 0 83.5 -29.5t31.5 -79.5z" />
    <glyph glyph-name="cedilla" unicode="&#xb8;" horiz-adv-x="620" 
d="M338 -248q0 -105 -121.5 -170.5t-308.5 -70.5l20 88q104 14 165 48t61 81q0 60 -129 63l-19 45l111 215l133 -2l-86 -162q174 -23 174 -135z" />
    <glyph glyph-name="onesuperior" unicode="&#xb9;" horiz-adv-x="557" 
d="M510 1391h-2l-141 -21l-5 107l353 92l16 -21l-176 -827h-188l106 500q17 96 37 170z" />
    <glyph glyph-name="ordmasculine" unicode="&#xba;" horiz-adv-x="901" 
d="M942 1106q0 -99 -36.5 -193.5t-99.5 -168.5t-154.5 -119t-194.5 -45q-133 0 -211 76.5t-78 222.5q0 100 37.5 195.5t101 169t154.5 118.5t192 45q135 0 212 -78t77 -223zM379 866q0 -164 110 -164q56 0 103 43t76 108t45 137t16 136q0 160 -111 160q-56 0 -103 -42.5
t-75.5 -107t-44.5 -136t-16 -134.5z" />
    <glyph glyph-name="guillemetright" unicode="&#xbb;" horiz-adv-x="991" 
d="M918 633l-15 -66q-193 -140 -430 -387l-59 27q111 201 293 393q-103 201 -127 393l71 27q138 -255 267 -387zM520 633l-14 -66q-199 -147 -430 -387l-58 27q114 206 291 393q-101 196 -125 393l70 27q143 -259 266 -387z" />
    <glyph glyph-name="onequarter" unicode="&#xbc;" horiz-adv-x="1732" 
d="M545 1268h-2l-142 -21l-4 107l353 92l16 -21l-176 -827h-189l107 500q17 96 37 170zM1577 1434l-1180 -1454h-114l1177 1454h117zM956 291l455 524l211 12l16 -18l-106 -502q49 2 123 10l-43 -139h-109l-41 -198h-180l43 198h-371zM1114 305v-2q18 0 93.5 1t144.5 1
l34 164q45 187 56 225h-2z" />
    <glyph glyph-name="onehalf" unicode="&#xbd;" horiz-adv-x="1820" 
d="M545 1268h-2l-142 -21l-4 107l353 92l16 -21l-176 -827h-189l107 500q17 96 37 170zM1589 1434l-1179 -1454h-115l1178 1454h116zM1083 -20l7 124q101 58 175.5 107.5t153.5 114t121.5 131t42.5 129.5q0 53 -32.5 82.5t-92.5 29.5q-114 0 -244 -88l13 140q59 34 143 55.5
t162 21.5q117 0 187.5 -54t70.5 -148q0 -60 -31 -121t-80.5 -113.5t-119 -104t-138.5 -91.5t-147 -78h194q110 0 215 12l-45 -149h-555z" />
    <glyph glyph-name="threequarters" unicode="&#xbe;" horiz-adv-x="1994" 
d="M449 1376q53 27 134 46.5t152 19.5q103 0 167.5 -43t64.5 -113q0 -80 -75.5 -149.5t-182.5 -98.5q99 -9 156 -56t57 -120q0 -120 -124 -202t-306 -82q-128 0 -220 28l43 119q74 -29 177 -29q98 0 164.5 40.5t66.5 101.5q0 98 -178 98q-64 0 -121 -8l25 119q141 17 227 69
t86 119q0 36 -28.5 57t-82.5 21q-99 0 -219 -58zM1804 1434l-1179 -1454h-115l1178 1454h116zM1214 291l457 524l209 12l16 -18l-106 -502q43 2 125 10l-45 -139h-107l-43 -198h-178l43 198h-373zM1374 305v-2q18 0 93 1t143 1h2l35 164q32 148 55 225h-4z" />
    <glyph glyph-name="questiondown" unicode="&#xbf;" horiz-adv-x="985" 
d="M508 846q0 74 58 133t130 59q50 0 78.5 -29t28.5 -73q0 -69 -59.5 -127.5t-131.5 -58.5q-49 0 -76.5 25.5t-27.5 70.5zM526 573l144 5q7 -43 4 -82q-2 -48 -28.5 -92.5t-66 -80t-87 -70.5t-94.5 -71t-86 -74t-63 -87t-24 -103q0 -67 44.5 -106t125.5 -39q79 0 171 40.5
t165 116.5l68 -131q-94 -96 -220.5 -152.5t-269.5 -56.5q-163 0 -254.5 72.5t-93.5 192.5q0 75 27.5 142.5t72.5 118t99.5 95.5t110.5 81t103.5 67.5t80.5 63.5t39 60q8 38 12 74z" />
    <glyph glyph-name="Agrave" unicode="&#xc0;" horiz-adv-x="1323" 
d="M1145 1585q-310 23 -512 144l-4 40l178 134q144 -128 371 -254zM182 0h-239l641 1198q59 109 106 217l289 12l33 -32l151 -1395h-254l-37 348h-503zM578 741l-113 -211h387l-23 211q-27 312 -24 453h-6q-89 -198 -221 -453z" />
    <glyph glyph-name="Aacute" unicode="&#xc1;" horiz-adv-x="1323" 
d="M1204 1769l-20 -40q-254 -121 -574 -144l-6 64q291 131 477 254zM182 0h-239l641 1198q59 109 106 217l289 12l33 -32l151 -1395h-254l-37 348h-503zM578 741l-113 -211h387l-23 211q-27 312 -24 453h-6q-89 -198 -221 -453z" />
    <glyph glyph-name="Acircumflex" unicode="&#xc2;" horiz-adv-x="1323" 
d="M623 1579l-54 57q148 114 293 246l178 16q90 -141 197 -262l-80 -57q-79 41 -239 156q-180 -105 -295 -156zM182 0h-239l641 1198q59 109 106 217l289 12l33 -32l151 -1395h-254l-37 348h-503zM578 741l-113 -211h387l-23 211q-27 312 -24 453h-6q-89 -198 -221 -453z
" />
    <glyph glyph-name="Atilde" unicode="&#xc3;" horiz-adv-x="1323" 
d="M788 1884q43 0 83.5 -18.5t67 -40t62 -40t68.5 -18.5q43 0 77 26t73 77l63 -12q-27 -103 -96.5 -179.5t-161.5 -76.5q-40 0 -82 18t-72 39t-67 39t-68 18q-72 0 -147 -100l-64 12q12 47 34.5 90t54.5 81.5t77.5 61.5t97.5 23zM182 0h-239l641 1198q59 109 106 217l289 12
l33 -32l151 -1395h-254l-37 348h-503zM578 741l-113 -211h387l-23 211q-27 312 -24 453h-6q-89 -198 -221 -453z" />
    <glyph glyph-name="Adieresis" unicode="&#xc4;" horiz-adv-x="1323" 
d="M1272 1778q0 -66 -57.5 -119t-129.5 -53q-48 0 -75 26t-27 66q0 64 57.5 117t128.5 53q46 0 74.5 -25t28.5 -65zM823 1778q0 -66 -56 -119t-128 -53q-49 0 -76.5 26t-27.5 66q0 64 57.5 117t128.5 53q46 0 74 -25t28 -65zM182 0h-239l641 1198q59 109 106 217l289 12
l33 -32l151 -1395h-254l-37 348h-503zM578 741l-113 -211h387l-23 211q-27 312 -24 453h-6q-89 -198 -221 -453z" />
    <glyph glyph-name="Aring" unicode="&#xc5;" horiz-adv-x="1323" 
d="M1126 1798q0 -97 -86 -174.5t-192 -77.5q-76 0 -122 41t-46 105q0 92 89 168.5t198 76.5q73 0 116 -38t43 -101zM795 1712q0 -34 21.5 -55t57.5 -21q54 0 96 44t42 98q0 33 -19.5 52t-54.5 19q-55 0 -99 -42t-44 -95zM182 0h-239l641 1198q59 109 106 217l289 12l33 -32
l151 -1395h-254l-37 348h-503zM578 741l-113 -211h387l-23 211q-27 312 -24 453h-6q-89 -198 -221 -453z" />
    <glyph glyph-name="AE" unicode="&#xc6;" horiz-adv-x="1828" 
d="M182 0h-239l831 1198q27 40 66 101.5t71 109.5h865l20 -29l-41 -168l-543 13l-47 -445l463 8l-45 -182l-436 8l-45 -432l575 15l-41 -197h-809l45 348h-450zM694 741l-145 -211h346l27 211q35 240 69 453h-6q-126 -212 -291 -453z" />
    <glyph glyph-name="Ccedilla" unicode="&#xc7;" horiz-adv-x="1193" 
d="M809 -248q0 -105 -121.5 -170.5t-308.5 -70.5l20 88q104 14 165 48t61 81q0 60 -129 63l-19 45l76 148q-198 23 -303 154.5t-105 361.5q0 174 59 342t161 298t251.5 210t317.5 80q92 0 185.5 -23t154.5 -64l-96 -217q-57 45 -134.5 70t-150.5 25q-112 0 -205.5 -62
t-152.5 -160.5t-91 -215.5t-32 -232q0 -176 76.5 -270.5t226.5 -94.5q82 0 172.5 27t165.5 70l-15 -205q-157 -86 -354 -96l-49 -95q174 -23 174 -135z" />
    <glyph glyph-name="Egrave" unicode="&#xc8;" horiz-adv-x="1146" 
d="M1116 1585q-308 23 -510 144l-4 40l178 134q142 -129 371 -254zM993 197l-41 -197h-850l228 1071q46 207 53 338h825l23 -29l-41 -168l-576 15l-94 -447l486 8l-45 -182l-476 10l-92 -434z" />
    <glyph glyph-name="Eacute" unicode="&#xc9;" horiz-adv-x="1146" 
d="M1176 1769l-21 -40q-255 -122 -573 -144l-7 64q294 133 478 254zM993 197l-41 -197h-850l228 1071q46 207 53 338h825l23 -29l-41 -168l-576 15l-94 -447l486 8l-45 -182l-476 10l-92 -434z" />
    <glyph glyph-name="Ecircumflex" unicode="&#xca;" horiz-adv-x="1146" 
d="M594 1579l-53 57q161 123 295 246l176 16q93 -146 196 -262l-78 -57q-89 45 -239 156q-190 -109 -297 -156zM993 197l-41 -197h-850l228 1071q46 207 53 338h825l23 -29l-41 -168l-576 15l-94 -447l486 8l-45 -182l-476 10l-92 -434z" />
    <glyph glyph-name="Edieresis" unicode="&#xcb;" horiz-adv-x="1146" 
d="M1243 1778q0 -66 -56 -119t-128 -53q-49 0 -77 26t-28 66q0 65 58.5 117.5t130.5 52.5q44 0 72 -25t28 -65zM795 1778q0 -66 -56.5 -119t-128.5 -53q-49 0 -76.5 26t-27.5 66q0 65 58 117.5t130 52.5q44 0 72.5 -25t28.5 -65zM993 197l-41 -197h-850l228 1071
q46 207 53 338h825l23 -29l-41 -168l-576 15l-94 -447l486 8l-45 -182l-476 10l-92 -434z" />
    <glyph glyph-name="Igrave" unicode="&#xcc;" horiz-adv-x="655" 
d="M836 1585q-308 23 -510 144l-4 40l178 134q144 -130 370 -254zM354 0h-252l226 1061q43 195 55 348l248 21l20 -29z" />
    <glyph glyph-name="Iacute" unicode="&#xcd;" horiz-adv-x="655" 
d="M897 1769l-23 -40q-255 -122 -573 -144l-6 64q291 131 477 254zM354 0h-252l226 1061q43 195 55 348l248 21l20 -29z" />
    <glyph glyph-name="Icircumflex" unicode="&#xce;" horiz-adv-x="655" 
d="M313 1579l-53 57q161 123 295 246l176 16q82 -129 197 -262l-78 -57q-92 47 -240 156q-190 -109 -297 -156zM354 0h-252l226 1061q43 195 55 348l248 21l20 -29z" />
    <glyph glyph-name="Idieresis" unicode="&#xcf;" horiz-adv-x="655" 
d="M963 1778q0 -66 -56.5 -119t-128.5 -53q-49 0 -76.5 26t-27.5 66q0 65 58 117.5t130 52.5q44 0 72.5 -25t28.5 -65zM514 1778q0 -66 -56 -119t-128 -53q-49 0 -77 26t-28 66q0 65 58.5 117.5t130.5 52.5q45 0 72.5 -25t27.5 -65zM354 0h-252l226 1061q43 195 55 348
l248 21l20 -29z" />
    <glyph glyph-name="Eth" unicode="&#xd0;" horiz-adv-x="1452" 
d="M1384 881q0 -136 -37.5 -265t-112 -240.5t-179 -195.5t-247 -132t-306.5 -48h-400l136 639h-129l26 131h131l64 301q46 214 53 338h442q271 0 415 -131.5t144 -396.5zM877 639h-388l-96 -457h164q111 0 205 39.5t159 105.5t110.5 153.5t67 182t21.5 191.5q0 89 -19.5 156
t-51.5 107.5t-79.5 65.5t-97.5 34.5t-112 9.5h-146l-96 -457h385z" />
    <glyph glyph-name="Ntilde" unicode="&#xd1;" horiz-adv-x="1495" 
d="M877 1884q43 0 84 -18.5t67.5 -40t61.5 -40t69 -18.5q42 0 75.5 25.5t74.5 77.5l63 -12q-27 -103 -96.5 -179.5t-161.5 -76.5q-41 0 -83 18t-71.5 39t-66.5 39t-68 18q-72 0 -147 -100l-64 12q12 46 34.5 89.5t54.5 82t77.5 61.5t96.5 23zM862 852q68 -178 107 -294.5
t67 -242.5h4q15 128 36.5 244t88.5 436q50 234 70 414l233 18l23 -28l-297 -1399h-244q-44 109 -115 297.5t-104 271.5q-130 331 -176 514h-4q-23 -225 -78 -462l-131 -621h-240l228 1071q41 185 53 338l260 16q200 -524 219 -573z" />
    <glyph glyph-name="Ograve" unicode="&#xd2;" horiz-adv-x="1429" 
d="M1212 1585q-308 23 -510 144l-4 40l179 134q144 -130 370 -254zM1366 905q0 -136 -36 -271t-104.5 -252t-160.5 -207.5t-212.5 -142.5t-252.5 -52q-214 0 -334.5 134.5t-120.5 383.5q0 137 36 273t105 254t161 209t212 143.5t250 52.5q215 0 336 -137.5t121 -387.5z
M406 504q0 -160 59 -247t178 -87q105 0 195 69t147 177.5t89 236.5t32 252q0 160 -58 247t-176 87q-84 0 -159.5 -45.5t-130.5 -121.5t-95.5 -171.5t-60.5 -197.5t-20 -199z" />
    <glyph glyph-name="Oacute" unicode="&#xd3;" horiz-adv-x="1429" 
d="M1272 1769l-21 -40q-255 -122 -573 -144l-6 64q291 131 477 254zM1366 905q0 -136 -36 -271t-104.5 -252t-160.5 -207.5t-212.5 -142.5t-252.5 -52q-214 0 -334.5 134.5t-120.5 383.5q0 137 36 273t105 254t161 209t212 143.5t250 52.5q215 0 336 -137.5t121 -387.5z
M406 504q0 -160 59 -247t178 -87q105 0 195 69t147 177.5t89 236.5t32 252q0 160 -58 247t-176 87q-84 0 -159.5 -45.5t-130.5 -121.5t-95.5 -171.5t-60.5 -197.5t-20 -199z" />
    <glyph glyph-name="Ocircumflex" unicode="&#xd4;" horiz-adv-x="1429" 
d="M690 1579l-53 57q139 107 295 246l176 16q90 -141 197 -262l-78 -57q-92 47 -240 156q-190 -109 -297 -156zM1366 905q0 -136 -36 -271t-104.5 -252t-160.5 -207.5t-212.5 -142.5t-252.5 -52q-214 0 -334.5 134.5t-120.5 383.5q0 137 36 273t105 254t161 209t212 143.5
t250 52.5q215 0 336 -137.5t121 -387.5zM406 504q0 -160 59 -247t178 -87q105 0 195 69t147 177.5t89 236.5t32 252q0 160 -58 247t-176 87q-84 0 -159.5 -45.5t-130.5 -121.5t-95.5 -171.5t-60.5 -197.5t-20 -199z" />
    <glyph glyph-name="Otilde" unicode="&#xd5;" horiz-adv-x="1429" 
d="M856 1884q43 0 83.5 -18.5t67.5 -40t62.5 -40t69.5 -18.5q42 0 74.5 25.5t74.5 77.5l62 -12q-27 -104 -95.5 -180t-160.5 -76q-41 0 -83 18t-72 39t-67 39t-69 18q-70 0 -148 -100l-61 12q12 47 34 90t53.5 81.5t77 61.5t97.5 23zM1366 905q0 -136 -36 -271t-104.5 -252
t-160.5 -207.5t-212.5 -142.5t-252.5 -52q-214 0 -334.5 134.5t-120.5 383.5q0 137 36 273t105 254t161 209t212 143.5t250 52.5q215 0 336 -137.5t121 -387.5zM406 504q0 -160 59 -247t178 -87q105 0 195 69t147 177.5t89 236.5t32 252q0 160 -58 247t-176 87
q-84 0 -159.5 -45.5t-130.5 -121.5t-95.5 -171.5t-60.5 -197.5t-20 -199z" />
    <glyph glyph-name="Odieresis" unicode="&#xd6;" horiz-adv-x="1429" 
d="M1339 1778q0 -66 -56 -119t-128 -53q-49 0 -76.5 26t-27.5 66q0 65 58 117.5t130 52.5q44 0 72 -25t28 -65zM891 1778q0 -66 -56 -119t-128 -53q-49 0 -77 26t-28 66q0 65 58.5 117.5t130.5 52.5q44 0 72 -25t28 -65zM1366 905q0 -136 -36 -271t-104.5 -252
t-160.5 -207.5t-212.5 -142.5t-252.5 -52q-214 0 -334.5 134.5t-120.5 383.5q0 137 36 273t105 254t161 209t212 143.5t250 52.5q215 0 336 -137.5t121 -387.5zM406 504q0 -160 59 -247t178 -87q105 0 195 69t147 177.5t89 236.5t32 252q0 160 -58 247t-176 87
q-84 0 -159.5 -45.5t-130.5 -121.5t-95.5 -171.5t-60.5 -197.5t-20 -199z" />
    <glyph glyph-name="multiply" unicode="&#xd7;" 
d="M885 291l-252 323l-395 -325l-74 96l393 326l-252 327l113 92q96 -116 256 -323l391 323l76 -96l-393 -323q27 -35 111.5 -144t141.5 -182l-6 -18z" />
    <glyph glyph-name="Oslash" unicode="&#xd8;" horiz-adv-x="1429" 
d="M1366 905q0 -136 -36 -271t-104.5 -252t-160.5 -207.5t-212.5 -142.5t-252.5 -52q-245 0 -364 172l-185 -168l-78 84l209 192q-37 101 -37 238t36 273t105 254t161 209t212 143.5t250 52.5q237 0 359 -166l176 163l82 -81l-203 -187q43 -107 43 -254zM406 504v-35
l673 621q-54 149 -207 149q-84 0 -159.5 -45.5t-130.5 -121.5t-95.5 -171.5t-60.5 -197.5t-20 -199zM1106 905q0 8 -1 24.5t-1 24.5l-676 -622q55 -162 215 -162q105 0 195 69t147 177.5t89 236.5t32 252z" />
    <glyph glyph-name="Ugrave" unicode="&#xd9;" horiz-adv-x="1388" 
d="M1204 1585q-308 23 -510 144l-4 40l178 134q142 -129 371 -254zM156 336q0 80 41 271t89 421.5t60 382.5l254 19l18 -25q-187 -870 -198 -941q-6 -38 -6 -67q0 -108 60.5 -164.5t166.5 -56.5q129 0 221.5 80.5t124.5 232.5q122 570 146 694.5t28 227.5l266 16l-202 -954
q-34 -158 -131.5 -271.5t-227.5 -167.5t-280 -54q-195 0 -312.5 94t-117.5 262z" />
    <glyph glyph-name="Uacute" unicode="&#xda;" horiz-adv-x="1388" 
d="M1264 1769l-21 -40q-255 -122 -573 -144l-6 64q291 131 477 254zM156 336q0 80 41 271t89 421.5t60 382.5l254 19l18 -25q-187 -870 -198 -941q-6 -38 -6 -67q0 -108 60.5 -164.5t166.5 -56.5q129 0 221.5 80.5t124.5 232.5q122 570 146 694.5t28 227.5l266 16l-202 -954
q-34 -158 -131.5 -271.5t-227.5 -167.5t-280 -54q-195 0 -312.5 94t-117.5 262z" />
    <glyph glyph-name="Ucircumflex" unicode="&#xdb;" horiz-adv-x="1388" 
d="M682 1579l-53 57q161 123 295 246l176 16q93 -146 196 -262l-77 -57q-92 47 -240 156q-190 -109 -297 -156zM156 336q0 80 41 271t89 421.5t60 382.5l254 19l18 -25q-187 -870 -198 -941q-6 -38 -6 -67q0 -108 60.5 -164.5t166.5 -56.5q129 0 221.5 80.5t124.5 232.5
q122 570 146 694.5t28 227.5l266 16l-202 -954q-34 -158 -131.5 -271.5t-227.5 -167.5t-280 -54q-195 0 -312.5 94t-117.5 262z" />
    <glyph glyph-name="Udieresis" unicode="&#xdc;" horiz-adv-x="1388" 
d="M1331 1778q0 -66 -56 -119t-128 -53q-49 0 -77 26t-28 66q0 65 58.5 117.5t130.5 52.5q44 0 72 -25t28 -65zM883 1778q0 -66 -56.5 -119t-128.5 -53q-49 0 -76.5 26t-27.5 66q0 65 58 117.5t130 52.5q44 0 72.5 -25t28.5 -65zM156 336q0 80 41 271t89 421.5t60 382.5
l254 19l18 -25q-187 -870 -198 -941q-6 -38 -6 -67q0 -108 60.5 -164.5t166.5 -56.5q129 0 221.5 80.5t124.5 232.5q122 570 146 694.5t28 227.5l266 16l-202 -954q-34 -158 -131.5 -271.5t-227.5 -167.5t-280 -54q-195 0 -312.5 94t-117.5 262z" />
    <glyph glyph-name="Yacute" unicode="&#xdd;" horiz-adv-x="1148" 
d="M1161 1769l-20 -40q-254 -121 -574 -144l-6 64q291 131 477 254zM442 477l-223 926l273 27l90 -465q5 -33 16 -99.5t18.5 -120t10.5 -90.5h4q26 48 96 164.5t86 145.5l285 465l198 -17l11 -27l-615 -911l-100 -475h-252z" />
    <glyph glyph-name="Thorn" unicode="&#xde;" horiz-adv-x="1218" 
d="M354 0h-252l228 1071q43 205 53 338h270l-45 -217h183q203 0 314.5 -93.5t111.5 -269.5q0 -116 -50.5 -221t-137.5 -181.5t-210 -121.5t-262 -45h-147zM702 1010h-133l-120 -568h129q166 0 269 99.5t103 251.5q0 217 -248 217z" />
    <glyph glyph-name="germandbls" unicode="&#xdf;" horiz-adv-x="1259" 
d="M-27 -471l-77 88q144 207 194 453l170 798l-147 9l20 90l154 28l6 29q29 138 83.5 241.5t127.5 165t156.5 91.5t179.5 30q157 0 245.5 -75.5t88.5 -202.5q0 -126 -86.5 -228t-243.5 -155q132 -68 208 -189.5t76 -279.5q0 -195 -114.5 -318.5t-319.5 -123.5q-58 0 -121 10
t-98 24l35 164q73 -39 164 -39q104 0 160.5 78t56.5 197q0 134 -72 243.5t-196 180.5l20 98q143 37 223 121t80 196q0 71 -34 111.5t-103 40.5q-97 0 -162 -83.5t-94 -225.5l-205 -959q-46 -227 -129.5 -367t-245.5 -241z" />
    <glyph glyph-name="agrave" unicode="&#xe0;" horiz-adv-x="1122" 
d="M836 1171q-173 147 -254 332l22 41l225 25q23 -166 103 -375zM76 287q0 106 29 213t87 203.5t137.5 172t188 120t230.5 44.5q75 0 164.5 -16t158.5 -49l-82 -359q-92 -405 -92 -616h-246q0 144 41 371q-31 -72 -72 -138.5t-92 -124.5t-113 -93t-124 -35q-100 0 -157.5 79
t-57.5 228zM328 348q0 -77 24 -119.5t68 -42.5q62 0 135.5 92.5t127.5 213.5t85 235q8 43 31 137q-66 29 -111 29q-91 0 -176 -88t-134.5 -214.5t-49.5 -242.5z" />
    <glyph glyph-name="aacute" unicode="&#xe1;" horiz-adv-x="1122" 
d="M991 1542l4 -41q-169 -195 -395 -332l-84 23q184 237 258 373zM76 287q0 106 29 213t87 203.5t137.5 172t188 120t230.5 44.5q75 0 164.5 -16t158.5 -49l-82 -359q-92 -405 -92 -616h-246q0 144 41 371q-31 -72 -72 -138.5t-92 -124.5t-113 -93t-124 -35
q-100 0 -157.5 79t-57.5 228zM328 348q0 -77 24 -119.5t68 -42.5q62 0 135.5 92.5t127.5 213.5t85 235q8 43 31 137q-66 29 -111 29q-91 0 -176 -88t-134.5 -214.5t-49.5 -242.5z" />
    <glyph glyph-name="acircumflex" unicode="&#xe2;" horiz-adv-x="1122" 
d="M504 1155l-64 55q160 166 291 328l178 16q63 -164 160 -344l-90 -55q-78 70 -197 219q-182 -158 -278 -219zM76 287q0 106 29 213t87 203.5t137.5 172t188 120t230.5 44.5q75 0 164.5 -16t158.5 -49l-82 -359q-92 -405 -92 -616h-246q0 144 41 371q-31 -72 -72 -138.5
t-92 -124.5t-113 -93t-124 -35q-100 0 -157.5 79t-57.5 228zM328 348q0 -77 24 -119.5t68 -42.5q62 0 135.5 92.5t127.5 213.5t85 235q8 43 31 137q-66 29 -111 29q-91 0 -176 -88t-134.5 -214.5t-49.5 -242.5z" />
    <glyph glyph-name="atilde" unicode="&#xe3;" horiz-adv-x="1122" 
d="M651 1513q41 0 81.5 -18t68 -39t62 -39t65.5 -18q38 0 68.5 25t68.5 75l70 -10q-20 -72 -54 -133.5t-88.5 -104.5t-115.5 -43q-39 0 -80.5 18.5t-72 40t-66.5 40t-64 18.5q-62 0 -135 -102l-68 12q14 52 36.5 98.5t54 88t75.5 66.5t94 25zM76 287q0 106 29 213t87 203.5
t137.5 172t188 120t230.5 44.5q75 0 164.5 -16t158.5 -49l-82 -359q-92 -405 -92 -616h-246q0 144 41 371q-31 -72 -72 -138.5t-92 -124.5t-113 -93t-124 -35q-100 0 -157.5 79t-57.5 228zM328 348q0 -77 24 -119.5t68 -42.5q62 0 135.5 92.5t127.5 213.5t85 235
q8 43 31 137q-66 29 -111 29q-91 0 -176 -88t-134.5 -214.5t-49.5 -242.5z" />
    <glyph glyph-name="adieresis" unicode="&#xe4;" horiz-adv-x="1122" 
d="M682 1411q0 -75 -58.5 -136t-131.5 -61q-48 0 -76.5 29.5t-28.5 73.5q0 72 61.5 132t133.5 60q46 0 73 -27t27 -71zM1126 1411q0 -75 -58.5 -136t-131.5 -61q-49 0 -77 29t-28 74q0 72 61.5 132t133.5 60q46 0 73 -27t27 -71zM76 287q0 106 29 213t87 203.5t137.5 172
t188 120t230.5 44.5q75 0 164.5 -16t158.5 -49l-82 -359q-92 -405 -92 -616h-246q0 144 41 371q-31 -72 -72 -138.5t-92 -124.5t-113 -93t-124 -35q-100 0 -157.5 79t-57.5 228zM328 348q0 -77 24 -119.5t68 -42.5q62 0 135.5 92.5t127.5 213.5t85 235q8 43 31 137
q-66 29 -111 29q-91 0 -176 -88t-134.5 -214.5t-49.5 -242.5z" />
    <glyph glyph-name="aring" unicode="&#xe5;" horiz-adv-x="1122" 
d="M981 1419q0 -96 -86.5 -174t-192.5 -78q-76 0 -123 41t-47 103q0 92 90 170t197 78q73 0 117.5 -39t44.5 -101zM649 1331q0 -33 21.5 -54.5t58.5 -21.5q52 0 93.5 44t41.5 98q0 33 -19 52t-54 19q-54 0 -98 -42.5t-44 -94.5zM76 287q0 106 29 213t87 203.5t137.5 172
t188 120t230.5 44.5q75 0 164.5 -16t158.5 -49l-82 -359q-92 -405 -92 -616h-246q0 144 41 371q-31 -72 -72 -138.5t-92 -124.5t-113 -93t-124 -35q-100 0 -157.5 79t-57.5 228zM328 348q0 -77 24 -119.5t68 -42.5q62 0 135.5 92.5t127.5 213.5t85 235q8 43 31 137
q-66 29 -111 29q-91 0 -176 -88t-134.5 -214.5t-49.5 -242.5z" />
    <glyph glyph-name="ae" unicode="&#xe6;" horiz-adv-x="1595" 
d="M78 301q0 106 28.5 211t86.5 200t137.5 168.5t190.5 116.5t237 43q156 0 301 -53q109 53 221 53q131 0 210 -65.5t79 -177.5q0 -150 -158.5 -251t-468.5 -120q-2 -16 -2 -49q0 -106 50.5 -169t146.5 -63q136 0 280 127l37 -96q-77 -93 -188 -144.5t-226 -51.5
q-159 0 -256.5 96t-97.5 274q-32 -70 -72.5 -133t-90.5 -117.5t-109 -87t-117 -32.5q-101 0 -160 84t-59 237zM1241 897q-67 0 -128 -61t-99.5 -146.5t-59.5 -181.5q198 25 292.5 102t94.5 181q0 52 -26.5 79t-73.5 27zM330 348q0 -78 24 -120t68 -42q52 0 112 65.5
t109 156.5t90 198q45 124 137 234q-84 53 -163 53q-77 0 -149 -52.5t-121 -133.5t-78 -176.5t-29 -182.5z" />
    <glyph glyph-name="ccedilla" unicode="&#xe7;" horiz-adv-x="958" 
d="M641 -248q0 -105 -122 -170.5t-310 -70.5l20 88q105 14 166.5 48t61.5 81q0 60 -129 63l-21 45l76 148q-136 15 -215.5 111.5t-79.5 262.5q0 129 48 252.5t129.5 218.5t198.5 153t247 58q147 0 256 -75l-68 -203q-109 112 -227 112q-90 0 -167 -71t-120 -180.5
t-43 -225.5q0 -120 49.5 -186t151.5 -66q136 0 280 127l39 -96q-142 -164 -344 -190l-53 -99q176 -23 176 -135z" />
    <glyph glyph-name="egrave" unicode="&#xe8;" horiz-adv-x="995" 
d="M768 1171q-172 143 -254 332l23 41l225 25q19 -154 100 -375zM819 272l37 -96q-77 -93 -188 -144.5t-226 -51.5q-161 0 -257.5 97t-96.5 281q0 124 46.5 247t125 219t191 156t235.5 60q129 0 207 -62t78 -169q0 -154 -160.5 -262t-466.5 -121q-2 -16 -2 -49
q0 -106 50.5 -169t146.5 -63q136 0 280 127zM643 897q-67 0 -128 -61t-99.5 -146.5t-59.5 -181.5q198 25 292.5 102t94.5 181q0 52 -26.5 79t-73.5 27z" />
    <glyph glyph-name="eacute" unicode="&#xe9;" horiz-adv-x="995" 
d="M922 1542l6 -41q-167 -194 -396 -332l-86 23q187 240 261 373zM819 272l37 -96q-77 -93 -188 -144.5t-226 -51.5q-161 0 -257.5 97t-96.5 281q0 124 46.5 247t125 219t191 156t235.5 60q129 0 207 -62t78 -169q0 -154 -160.5 -262t-466.5 -121q-2 -16 -2 -49
q0 -106 50.5 -169t146.5 -63q136 0 280 127zM643 897q-67 0 -128 -61t-99.5 -146.5t-59.5 -181.5q198 25 292.5 102t94.5 181q0 52 -26.5 79t-73.5 27z" />
    <glyph glyph-name="ecircumflex" unicode="&#xea;" horiz-adv-x="995" 
d="M436 1155l-65 55q173 179 293 328l176 16q77 -192 159 -344l-90 -55q-81 73 -194 219q-173 -150 -279 -219zM819 272l37 -96q-77 -93 -188 -144.5t-226 -51.5q-161 0 -257.5 97t-96.5 281q0 124 46.5 247t125 219t191 156t235.5 60q129 0 207 -62t78 -169
q0 -154 -160.5 -262t-466.5 -121q-2 -16 -2 -49q0 -106 50.5 -169t146.5 -63q136 0 280 127zM643 897q-67 0 -128 -61t-99.5 -146.5t-59.5 -181.5q198 25 292.5 102t94.5 181q0 52 -26.5 79t-73.5 27z" />
    <glyph glyph-name="edieresis" unicode="&#xeb;" horiz-adv-x="995" 
d="M614 1411q0 -75 -59 -136t-131 -61q-49 0 -78 29.5t-29 73.5q0 72 62.5 132t134.5 60q46 0 73 -27t27 -71zM1057 1411q0 -75 -58.5 -136t-130.5 -61q-49 0 -77.5 29.5t-28.5 73.5q0 72 61 132t135 60q46 0 72.5 -26.5t26.5 -71.5zM819 272l37 -96q-77 -93 -188 -144.5
t-226 -51.5q-161 0 -257.5 97t-96.5 281q0 124 46.5 247t125 219t191 156t235.5 60q129 0 207 -62t78 -169q0 -154 -160.5 -262t-466.5 -121q-2 -16 -2 -49q0 -106 50.5 -169t146.5 -63q136 0 280 127zM643 897q-67 0 -128 -61t-99.5 -146.5t-59.5 -181.5q198 25 292.5 102
t94.5 181q0 52 -26.5 79t-73.5 27z" />
    <glyph glyph-name="igrave" unicode="&#xec;" horiz-adv-x="563" 
d="M510 1171q-173 147 -254 332l23 41l225 25q24 -170 102 -375zM340 0h-244q0 196 76 547l41 188l16 285l263 20q0 -96 -24 -238t-52 -266.5t-52 -275t-24 -260.5z" />
    <glyph glyph-name="iacute" unicode="&#xed;" horiz-adv-x="563" 
d="M664 1542l6 -41q-167 -194 -396 -332l-84 23q187 241 259 373zM340 0h-244q0 196 76 547l41 188l16 285l263 20q0 -96 -24 -238t-52 -266.5t-52 -275t-24 -260.5z" />
    <glyph glyph-name="icircumflex" unicode="&#xee;" horiz-adv-x="563" 
d="M227 1171l-75 37q112 174 200 340l236 17q34 -240 63 -357l-92 -37q-67 95 -123 224q-130 -153 -209 -224zM340 0h-244q0 196 76 547l41 188l16 285l263 20q0 -96 -24 -238t-52 -266.5t-52 -275t-24 -260.5z" />
    <glyph glyph-name="idieresis" unicode="&#xef;" horiz-adv-x="563" 
d="M397 1417q0 -75 -55.5 -136.5t-122.5 -61.5q-45 0 -71.5 28t-26.5 72q0 71 58.5 132.5t125.5 61.5q41 0 66.5 -26.5t25.5 -69.5zM741 1417q0 -75 -55.5 -136.5t-124.5 -61.5q-43 0 -68.5 28t-25.5 72q0 72 57 133t125 61q41 0 66.5 -26.5t25.5 -69.5zM340 0h-244
q0 196 76 547l41 188l16 285l263 20q0 -96 -24 -238t-52 -266.5t-52 -275t-24 -260.5z" />
    <glyph glyph-name="eth" unicode="&#xf0;" horiz-adv-x="1134" 
d="M440 -20q-157 0 -249.5 95t-92.5 275q0 122 42 239t112.5 206.5t171.5 144.5t211 55q113 0 178 -59q-26 149 -121 281l-252 -138l-53 103l227 125q-60 60 -133 108l97 137q121 -56 219 -145l247 137l56 -102l-221 -123q165 -207 165 -522q0 -223 -77.5 -410t-217 -297
t-309.5 -110zM643 848q-83 0 -152 -74t-106 -187.5t-37 -234.5q0 -225 141 -225q83 0 152 77.5t105 192t36 234.5q0 217 -139 217z" />
    <glyph glyph-name="ntilde" unicode="&#xf1;" horiz-adv-x="1163" 
d="M629 1513q41 0 80.5 -18t66.5 -39t61.5 -39t65.5 -18q38 0 68.5 25t68.5 75l70 -10q-20 -72 -54 -133.5t-88 -104.5t-114 -43q-39 0 -81 18.5t-72 40t-66.5 40t-65.5 18.5q-62 0 -135 -102l-67 12q14 51 36.5 98t55 88.5t76.5 66.5t94 25zM340 0h-244q0 136 26.5 295
t90.5 440l16 285l263 20q0 -88 -31 -286h4q75 143 181.5 214.5t215.5 71.5q94 0 145.5 -52.5t51.5 -143.5q0 -81 -62 -364q-5 -25 -8 -38q-33 -154 -44 -240.5t-11 -201.5h-244q0 102 13.5 198t46.5 259q45 225 45 272q0 105 -84 105q-93 0 -177.5 -118t-137 -311
t-56.5 -405z" />
    <glyph glyph-name="ograve" unicode="&#xf2;" horiz-adv-x="1101" 
d="M795 1171q-173 147 -254 332l22 41l225 25q23 -166 103 -375zM1018 666q0 -127 -45 -250.5t-121.5 -220t-188 -156t-235.5 -59.5q-157 0 -248.5 94t-91.5 276q0 127 45.5 251.5t122.5 221.5t188 157t234 60q159 0 249.5 -97t90.5 -277zM342 332q0 -205 129 -205
q67 0 124.5 56.5t93 143t55.5 182t20 179.5q0 205 -129 205q-68 0 -125.5 -56t-93 -142t-55 -181.5t-19.5 -181.5z" />
    <glyph glyph-name="oacute" unicode="&#xf3;" horiz-adv-x="1101" 
d="M948 1542l6 -41q-169 -195 -395 -332l-84 23q184 237 258 373zM1018 666q0 -127 -45 -250.5t-121.5 -220t-188 -156t-235.5 -59.5q-157 0 -248.5 94t-91.5 276q0 127 45.5 251.5t122.5 221.5t188 157t234 60q159 0 249.5 -97t90.5 -277zM342 332q0 -205 129 -205
q67 0 124.5 56.5t93 143t55.5 182t20 179.5q0 205 -129 205q-68 0 -125.5 -56t-93 -142t-55 -181.5t-19.5 -181.5z" />
    <glyph glyph-name="ocircumflex" unicode="&#xf4;" horiz-adv-x="1101" 
d="M463 1155l-66 55q156 159 293 328l176 16q74 -184 160 -344l-90 -55q-35 32 -74.5 75t-57.5 65.5t-63 78.5q-176 -152 -278 -219zM1018 666q0 -127 -45 -250.5t-121.5 -220t-188 -156t-235.5 -59.5q-157 0 -248.5 94t-91.5 276q0 127 45.5 251.5t122.5 221.5t188 157
t234 60q159 0 249.5 -97t90.5 -277zM342 332q0 -205 129 -205q67 0 124.5 56.5t93 143t55.5 182t20 179.5q0 205 -129 205q-68 0 -125.5 -56t-93 -142t-55 -181.5t-19.5 -181.5z" />
    <glyph glyph-name="otilde" unicode="&#xf5;" horiz-adv-x="1101" 
d="M610 1513q41 0 81.5 -18t67.5 -39t61.5 -39t66.5 -18q37 0 68.5 25.5t68.5 74.5l68 -10q-29 -113 -97.5 -197t-158.5 -84q-39 0 -80.5 18.5t-72 40t-66.5 40t-64 18.5q-62 0 -135 -102l-68 12q14 52 36.5 98.5t54 88t75.5 66.5t94 25zM1018 666q0 -127 -45 -250.5
t-121.5 -220t-188 -156t-235.5 -59.5q-157 0 -248.5 94t-91.5 276q0 127 45.5 251.5t122.5 221.5t188 157t234 60q159 0 249.5 -97t90.5 -277zM342 332q0 -205 129 -205q67 0 124.5 56.5t93 143t55.5 182t20 179.5q0 205 -129 205q-68 0 -125.5 -56t-93 -142t-55 -181.5
t-19.5 -181.5z" />
    <glyph glyph-name="odieresis" unicode="&#xf6;" horiz-adv-x="1101" 
d="M641 1411q0 -75 -58.5 -136t-131.5 -61q-49 0 -77 29t-28 74q0 72 61.5 132t133.5 60q46 0 73 -27t27 -71zM1085 1411q0 -75 -58.5 -136t-131.5 -61q-49 0 -78 29.5t-29 73.5q0 72 62.5 132t134.5 60q46 0 73 -27t27 -71zM1018 666q0 -127 -45 -250.5t-121.5 -220
t-188 -156t-235.5 -59.5q-157 0 -248.5 94t-91.5 276q0 127 45.5 251.5t122.5 221.5t188 157t234 60q159 0 249.5 -97t90.5 -277zM342 332q0 -205 129 -205q67 0 124.5 56.5t93 143t55.5 182t20 179.5q0 205 -129 205q-68 0 -125.5 -56t-93 -142t-55 -181.5t-19.5 -181.5z
" />
    <glyph glyph-name="divide" unicode="&#xf7;" 
d="M868 1133q0 -63 -53.5 -115.5t-120.5 -52.5q-43 0 -67.5 25.5t-24.5 64.5q0 63 54.5 115.5t119.5 52.5q42 0 67 -24t25 -66zM1090 643h-922l29 129q352 10 925 10l8 -14zM709 371q0 -63 -54 -115.5t-120 -52.5q-43 0 -69 25.5t-26 64.5q0 63 56 115.5t122 52.5
q41 0 66 -24t25 -66z" />
    <glyph glyph-name="oslash" unicode="&#xf8;" horiz-adv-x="1101" 
d="M1018 666q0 -127 -45 -250.5t-121.5 -220t-188 -156t-235.5 -59.5q-178 0 -266 114l-146 -127l-71 86l166 144q-23 71 -23 153q0 127 45.5 251.5t122.5 221.5t188 157t234 60q178 0 266 -116l148 129l71 -84l-168 -146q23 -77 23 -157zM635 893q-61 0 -114 -46t-89 -120
t-58.5 -158t-29.5 -168l416 361q-21 131 -125 131zM471 127q60 0 113 46t88.5 119.5t58.5 157.5t31 168l-416 -362q22 -129 125 -129z" />
    <glyph glyph-name="ugrave" unicode="&#xf9;" horiz-adv-x="1122" 
d="M772 1171q-173 147 -254 332l23 41l225 25q24 -170 102 -375zM109 303l92 432l16 285l262 20q0 -87 -14 -184t-44.5 -242.5t-37.5 -181.5q-11 -62 -15 -101.5t0 -75.5t23 -52.5t53 -16.5q93 0 172 121t127 316q38 180 48 288q4 74 4 109l256 20q-4 -71 -15 -152
t-22 -139.5t-38 -191.5t-44 -221q-35 -158 -35 -336h-246q0 109 21 256h-2q-71 -138 -171.5 -207t-203.5 -69q-119 0 -168 87.5t-18 235.5z" />
    <glyph glyph-name="uacute" unicode="&#xfa;" horiz-adv-x="1122" 
d="M926 1542l6 -41q-169 -195 -395 -332l-84 23q184 237 258 373zM109 303l92 432l16 285l262 20q0 -87 -14 -184t-44.5 -242.5t-37.5 -181.5q-11 -62 -15 -101.5t0 -75.5t23 -52.5t53 -16.5q93 0 172 121t127 316q38 180 48 288q4 74 4 109l256 20q-4 -71 -15 -152
t-22 -139.5t-38 -191.5t-44 -221q-35 -158 -35 -336h-246q0 109 21 256h-2q-71 -138 -171.5 -207t-203.5 -69q-119 0 -168 87.5t-18 235.5z" />
    <glyph glyph-name="ucircumflex" unicode="&#xfb;" horiz-adv-x="1122" 
d="M440 1155l-65 55q156 159 293 328l176 16q74 -184 160 -344l-89 -55q-75 67 -196 219q-173 -150 -279 -219zM109 303l92 432l16 285l262 20q0 -87 -14 -184t-44.5 -242.5t-37.5 -181.5q-11 -62 -15 -101.5t0 -75.5t23 -52.5t53 -16.5q93 0 172 121t127 316q38 180 48 288
q4 74 4 109l256 20q-4 -71 -15 -152t-22 -139.5t-38 -191.5t-44 -221q-35 -158 -35 -336h-246q0 109 21 256h-2q-71 -138 -171.5 -207t-203.5 -69q-119 0 -168 87.5t-18 235.5z" />
    <glyph glyph-name="udieresis" unicode="&#xfc;" horiz-adv-x="1122" 
d="M618 1411q0 -75 -58.5 -136t-131.5 -61q-49 0 -76.5 29t-27.5 74q0 72 61 132t133 60q46 0 73 -27t27 -71zM1063 1411q0 -75 -59 -136t-132 -61q-49 0 -76.5 29t-27.5 74q0 72 61.5 132t133.5 60q46 0 73 -27t27 -71zM109 303l92 432l16 285l262 20q0 -87 -14 -184
t-44.5 -242.5t-37.5 -181.5q-11 -62 -15 -101.5t0 -75.5t23 -52.5t53 -16.5q93 0 172 121t127 316q38 180 48 288q4 74 4 109l256 20q-4 -71 -15 -152t-22 -139.5t-38 -191.5t-44 -221q-35 -158 -35 -336h-246q0 109 21 256h-2q-71 -138 -171.5 -207t-203.5 -69
q-119 0 -168 87.5t-18 235.5z" />
    <glyph glyph-name="yacute" unicode="&#xfd;" horiz-adv-x="958" 
d="M856 1542l6 -41q-165 -191 -395 -332l-86 23q183 236 260 373zM850 1040q59 0 90 -18t31 -64q0 -65 -39.5 -179.5t-109.5 -251.5t-159 -284.5t-194 -284t-209.5 -246t-211 -175t-191.5 -65.5q-64 0 -101 36t-37 99q0 53 29 98q57 -14 123 -14q125 0 254.5 90.5
t208.5 218.5h-117q-9 601 -94 1020l260 20q71 -391 43 -860h4q127 214 216 440.5t108 407.5q49 12 96 12z" />
    <glyph glyph-name="thorn" unicode="&#xfe;" horiz-adv-x="1116" 
d="M221 -496h-246q0 106 27 268.5t98 493.5l209 981l17 285l264 20q0 -44 -4 -95t-14.5 -116t-19 -116t-26.5 -135.5t-28 -131t-32.5 -146.5l-31.5 -140q30 72 70.5 135.5t89.5 117t108 84.5t119 31q104 0 162.5 -83.5t58.5 -235.5q0 -106 -28.5 -212t-86 -201
t-136.5 -168.5t-187 -116.5t-229 -43q-26 0 -88 4q-66 -335 -66 -480zM698 834q-64 0 -137.5 -92.5t-135 -240t-95.5 -308.5q-4 -13 -8 -39q66 -27 108 -27q91 0 176.5 88t135 214t49.5 243q0 77 -24.5 119.5t-68.5 42.5z" />
    <glyph glyph-name="ydieresis" unicode="&#xff;" horiz-adv-x="958" 
d="M547 1411q0 -75 -58.5 -136t-130.5 -61q-49 0 -77.5 29.5t-28.5 73.5q0 72 61.5 132t135.5 60q45 0 71.5 -26.5t26.5 -71.5zM991 1411q0 -75 -58.5 -136t-131.5 -61q-48 0 -76.5 29.5t-28.5 73.5q0 72 61.5 132t133.5 60q47 0 73.5 -26.5t26.5 -71.5zM850 1040
q59 0 90 -18t31 -64q0 -65 -39.5 -179.5t-109.5 -251.5t-159 -284.5t-194 -284t-209.5 -246t-211 -175t-191.5 -65.5q-64 0 -101 36t-37 99q0 53 29 98q57 -14 123 -14q125 0 254.5 90.5t208.5 218.5h-117q-9 601 -94 1020l260 20q71 -391 43 -860h4q127 214 216 440.5
t108 407.5q49 12 96 12z" />
    <glyph glyph-name="Amacron" unicode="&#x100;" horiz-adv-x="1323" 
d="M602 1663l29 147h571l-31 -147h-569zM182 0h-239l641 1198q59 109 106 217l289 12l33 -32l151 -1395h-254l-37 348h-503zM578 741l-113 -211h387l-23 211q-27 312 -24 453h-6q-89 -198 -221 -453z" />
    <glyph glyph-name="amacron" unicode="&#x101;" horiz-adv-x="1122" 
d="M451 1290l28 142h582l-31 -142h-579zM76 287q0 106 29 213t87 203.5t137.5 172t188 120t230.5 44.5q75 0 164.5 -16t158.5 -49l-82 -359q-92 -405 -92 -616h-246q0 144 41 371q-31 -72 -72 -138.5t-92 -124.5t-113 -93t-124 -35q-100 0 -157.5 79t-57.5 228zM328 348
q0 -77 24 -119.5t68 -42.5q62 0 135.5 92.5t127.5 213.5t85 235q8 43 31 137q-66 29 -111 29q-91 0 -176 -88t-134.5 -214.5t-49.5 -242.5z" />
    <glyph glyph-name="Abreve" unicode="&#x102;" horiz-adv-x="1323" 
d="M1092 1872l102 8q-42 -128 -138 -206.5t-220 -78.5q-115 0 -176 72t-48 193l105 14q6 -52 51 -82.5t115 -30.5q66 0 123.5 31.5t85.5 79.5zM182 0h-239l641 1198q59 109 106 217l289 12l33 -32l151 -1395h-254l-37 348h-503zM578 741l-113 -211h387l-23 211
q-27 312 -24 453h-6q-89 -198 -221 -453z" />
    <glyph glyph-name="abreve" unicode="&#x103;" horiz-adv-x="1122" 
d="M975 1534l102 6q-46 -151 -145.5 -243.5t-222.5 -92.5q-115 0 -173.5 85.5t-39.5 230.5l104 14q1 -76 43 -120t111 -44q67 0 127.5 45.5t93.5 118.5zM76 287q0 106 29 213t87 203.5t137.5 172t188 120t230.5 44.5q75 0 164.5 -16t158.5 -49l-82 -359q-92 -405 -92 -616
h-246q0 144 41 371q-31 -72 -72 -138.5t-92 -124.5t-113 -93t-124 -35q-100 0 -157.5 79t-57.5 228zM328 348q0 -77 24 -119.5t68 -42.5q62 0 135.5 92.5t127.5 213.5t85 235q8 43 31 137q-66 29 -111 29q-91 0 -176 -88t-134.5 -214.5t-49.5 -242.5z" />
    <glyph glyph-name="Aogonek" unicode="&#x104;" horiz-adv-x="1323" 
d="M182 0h-239l641 1198q59 109 106 217l289 12l33 -32l151 -1395h-2q-133 -61 -211 -135.5t-78 -145.5q0 -65 82 -65q51 0 119 24l17 -88q-54 -39 -121.5 -63.5t-130.5 -24.5q-84 0 -133.5 39.5t-49.5 108.5q0 96 89 188t245 162h-80l-37 348h-503zM578 741l-113 -211h387
l-23 211q-27 312 -24 453h-6q-89 -198 -221 -453z" />
    <glyph glyph-name="aogonek" unicode="&#x105;" horiz-adv-x="1122" 
d="M76 287q0 106 29 213t87 203.5t137.5 172t188 120t230.5 44.5q75 0 164.5 -16t158.5 -49l-82 -359q-92 -405 -92 -616q-134 -61 -211.5 -135.5t-77.5 -145.5q0 -65 82 -65q51 0 119 24l16 -88q-54 -39 -121.5 -63.5t-130.5 -24.5q-84 0 -133 39.5t-49 108.5q0 96 89 188
t245 162h-74q0 144 41 371q-31 -72 -72 -138.5t-92 -124.5t-113 -93t-124 -35q-100 0 -157.5 79t-57.5 228zM328 348q0 -77 24 -119.5t68 -42.5q62 0 135.5 92.5t127.5 213.5t85 235q8 43 31 137q-66 29 -111 29q-91 0 -176 -88t-134.5 -214.5t-49.5 -242.5z" />
    <glyph glyph-name="Cacute" unicode="&#x106;" horiz-adv-x="1193" 
d="M1241 1769l-20 -40q-254 -121 -574 -144l-6 64q291 131 477 254zM1053 283l-15 -205q-177 -98 -401 -98q-237 0 -364.5 133t-127.5 387q0 174 59 342t161 298t251.5 210t317.5 80q92 0 185.5 -23t154.5 -64l-96 -217q-57 45 -134.5 70t-150.5 25q-112 0 -205.5 -62
t-152.5 -160.5t-91 -215.5t-32 -232q0 -176 76.5 -270.5t226.5 -94.5q82 0 172.5 27t165.5 70z" />
    <glyph glyph-name="cacute" unicode="&#x107;" horiz-adv-x="958" 
d="M938 1542l6 -41q-169 -195 -395 -332l-86 23q182 229 260 373zM823 272l39 -96q-86 -98 -195 -147t-227 -49q-162 0 -257 97t-95 281q0 129 48 252.5t129.5 218.5t198.5 153t247 58q147 0 256 -75l-68 -203q-109 112 -227 112q-90 0 -167 -71t-120 -180.5t-43 -225.5
q0 -120 49.5 -186t151.5 -66q136 0 280 127z" />
    <glyph glyph-name="Ccircumflex" unicode="&#x108;" horiz-adv-x="1193" 
d="M659 1579l-53 57q148 114 293 246l178 16q90 -141 197 -262l-80 -57q-82 43 -240 156q-172 -101 -295 -156zM1053 283l-15 -205q-177 -98 -401 -98q-237 0 -364.5 133t-127.5 387q0 174 59 342t161 298t251.5 210t317.5 80q92 0 185.5 -23t154.5 -64l-96 -217
q-57 45 -134.5 70t-150.5 25q-112 0 -205.5 -62t-152.5 -160.5t-91 -215.5t-32 -232q0 -176 76.5 -270.5t226.5 -94.5q82 0 172.5 27t165.5 70z" />
    <glyph glyph-name="ccircumflex" unicode="&#x109;" horiz-adv-x="958" 
d="M453 1155l-66 55q173 179 293 328l176 16q74 -184 160 -344l-90 -55q-35 32 -74.5 75t-57.5 65.5t-63 78.5q-176 -152 -278 -219zM823 272l39 -96q-86 -98 -195 -147t-227 -49q-162 0 -257 97t-95 281q0 129 48 252.5t129.5 218.5t198.5 153t247 58q147 0 256 -75
l-68 -203q-109 112 -227 112q-90 0 -167 -71t-120 -180.5t-43 -225.5q0 -120 49.5 -186t151.5 -66q136 0 280 127z" />
    <glyph glyph-name="Cdotaccent" unicode="&#x10a;" horiz-adv-x="1193" 
d="M1102 1790q0 -73 -62.5 -130.5t-142.5 -57.5q-53 0 -86 28.5t-33 73.5q0 69 65.5 125.5t143.5 56.5q52 0 83.5 -26.5t31.5 -69.5zM1053 283l-15 -205q-177 -98 -401 -98q-237 0 -364.5 133t-127.5 387q0 174 59 342t161 298t251.5 210t317.5 80q92 0 185.5 -23t154.5 -64
l-96 -217q-57 45 -134.5 70t-150.5 25q-112 0 -205.5 -62t-152.5 -160.5t-91 -215.5t-32 -232q0 -176 76.5 -270.5t226.5 -94.5q82 0 172.5 27t165.5 70z" />
    <glyph glyph-name="cdotaccent" unicode="&#x10b;" horiz-adv-x="958" 
d="M864 1413q0 -79 -64 -143t-143 -64q-53 0 -83.5 31t-30.5 80q0 74 65 137.5t144 63.5q52 0 82 -28.5t30 -76.5zM823 272l39 -96q-86 -98 -195 -147t-227 -49q-162 0 -257 97t-95 281q0 129 48 252.5t129.5 218.5t198.5 153t247 58q147 0 256 -75l-68 -203
q-109 112 -227 112q-90 0 -167 -71t-120 -180.5t-43 -225.5q0 -120 49.5 -186t151.5 -66q136 0 280 127z" />
    <glyph glyph-name="Ccaron" unicode="&#x10c;" horiz-adv-x="1193" 
d="M1223 1903l53 -58q-151 -112 -295 -246l-178 -16q-97 151 -197 262l80 58q101 -52 240 -154q187 106 297 154zM1053 283l-15 -205q-177 -98 -401 -98q-237 0 -364.5 133t-127.5 387q0 174 59 342t161 298t251.5 210t317.5 80q92 0 185.5 -23t154.5 -64l-96 -217
q-57 45 -134.5 70t-150.5 25q-112 0 -205.5 -62t-152.5 -160.5t-91 -215.5t-32 -232q0 -176 76.5 -270.5t226.5 -94.5q82 0 172.5 27t165.5 70z" />
    <glyph glyph-name="ccaron" unicode="&#x10d;" horiz-adv-x="958" 
d="M979 1575l65 -55q-171 -178 -290 -328l-179 -16q-66 170 -159 344l90 55q75 -67 196 -219q162 140 277 219zM823 272l39 -96q-86 -98 -195 -147t-227 -49q-162 0 -257 97t-95 281q0 129 48 252.5t129.5 218.5t198.5 153t247 58q147 0 256 -75l-68 -203q-109 112 -227 112
q-90 0 -167 -71t-120 -180.5t-43 -225.5q0 -120 49.5 -186t151.5 -66q136 0 280 127z" />
    <glyph glyph-name="Dcaron" unicode="&#x10e;" horiz-adv-x="1452" 
d="M1264 1903l53 -58q-162 -122 -295 -246l-176 -16q-90 140 -197 262l78 58q101 -52 240 -154q187 106 297 154zM1384 881q0 -136 -37.5 -265t-112 -240.5t-179 -195.5t-247 -132t-306.5 -48h-400l228 1071q46 214 53 338h442q271 0 415 -131.5t144 -396.5zM760 1227h-146
l-221 -1045h164q111 0 205 39.5t159 105.5t110.5 153.5t67 182t21.5 191.5q0 89 -19.5 156t-51.5 107.5t-79.5 65.5t-97.5 34.5t-112 9.5z" />
    <glyph glyph-name="dcaron" unicode="&#x10f;" horiz-adv-x="1124" 
d="M1595 1565l11 -41q-104 -207 -289 -430l-82 4q100 243 164 461zM899 0h-244q0 145 43 377q-43 -107 -100 -193t-138.5 -145t-168.5 -59q-100 0 -157.5 78.5t-57.5 226.5q0 106 29 213.5t87 204.5t136 172.5t185 120t226 44.5q51 0 95 -8l47 215l16 285l262 20
q0 -129 -40.5 -348.5t-89.5 -419t-89.5 -423.5t-40.5 -361zM328 348q0 -77 24 -119.5t68 -42.5q47 0 102.5 54t102 136.5t85 175.5t58.5 175q6 24 12 51l19 86q-66 29 -111 29q-91 0 -176 -88t-134.5 -214.5t-49.5 -242.5z" />
    <glyph glyph-name="Dcroat" unicode="&#x110;" horiz-adv-x="1452" 
d="M1384 881q0 -136 -37.5 -265t-112 -240.5t-179 -195.5t-247 -132t-306.5 -48h-400l136 639h-129l26 131h131l64 301q46 214 53 338h442q271 0 415 -131.5t144 -396.5zM877 639h-388l-96 -457h164q111 0 205 39.5t159 105.5t110.5 153.5t67 182t21.5 191.5q0 89 -19.5 156
t-51.5 107.5t-79.5 65.5t-97.5 34.5t-112 9.5h-146l-96 -457h385z" />
    <glyph glyph-name="dcroat" unicode="&#x111;" horiz-adv-x="1124" 
d="M899 0h-244q0 145 43 377q-43 -107 -100 -193t-138.5 -145t-168.5 -59q-100 0 -157.5 78.5t-57.5 226.5q0 106 29 213.5t87 204.5t136 172.5t185 120t226 44.5q51 0 95 -8l34 162h-336l27 131h326l12 207l262 20q0 -87 -20 -227h188l-27 -131h-184q-23 -123 -84.5 -392.5
t-97 -467.5t-35.5 -334zM328 348q0 -77 24 -119.5t68 -42.5q47 0 102.5 54t102 136.5t85 175.5t58.5 175q6 24 12 51l19 86q-66 29 -111 29q-91 0 -176 -88t-134.5 -214.5t-49.5 -242.5z" />
    <glyph glyph-name="Emacron" unicode="&#x112;" horiz-adv-x="1146" 
d="M573 1663l31 147h572l-31 -147h-572zM993 197l-41 -197h-850l228 1071q46 207 53 338h825l23 -29l-41 -168l-576 15l-94 -447l486 8l-45 -182l-476 10l-92 -434z" />
    <glyph glyph-name="emacron" unicode="&#x113;" horiz-adv-x="995" 
d="M383 1290l29 142h579l-28 -142h-580zM819 272l37 -96q-77 -93 -188 -144.5t-226 -51.5q-161 0 -257.5 97t-96.5 281q0 124 46.5 247t125 219t191 156t235.5 60q129 0 207 -62t78 -169q0 -154 -160.5 -262t-466.5 -121q-2 -16 -2 -49q0 -106 50.5 -169t146.5 -63
q136 0 280 127zM643 897q-67 0 -128 -61t-99.5 -146.5t-59.5 -181.5q198 25 292.5 102t94.5 181q0 52 -26.5 79t-73.5 27z" />
    <glyph glyph-name="Ebreve" unicode="&#x114;" horiz-adv-x="1146" 
d="M1065 1872l100 8q-42 -128 -138 -206.5t-220 -78.5q-113 0 -174.5 72t-46.5 193l102 14q7 -52 52 -82.5t114 -30.5q66 0 123.5 31t87.5 80zM993 197l-41 -197h-850l228 1071q46 207 53 338h825l23 -29l-41 -168l-576 15l-94 -447l486 8l-45 -182l-476 10l-92 -434z" />
    <glyph glyph-name="ebreve" unicode="&#x115;" horiz-adv-x="995" 
d="M907 1534l103 6q-46 -151 -147 -243.5t-224 -92.5q-115 0 -173 85.5t-38 230.5l102 14q3 -76 45 -120t111 -44q67 0 127 45.5t94 118.5zM819 272l37 -96q-77 -93 -188 -144.5t-226 -51.5q-161 0 -257.5 97t-96.5 281q0 124 46.5 247t125 219t191 156t235.5 60
q129 0 207 -62t78 -169q0 -154 -160.5 -262t-466.5 -121q-2 -16 -2 -49q0 -106 50.5 -169t146.5 -63q136 0 280 127zM643 897q-67 0 -128 -61t-99.5 -146.5t-59.5 -181.5q198 25 292.5 102t94.5 181q0 52 -26.5 79t-73.5 27z" />
    <glyph glyph-name="Edotaccent" unicode="&#x116;" horiz-adv-x="1146" 
d="M1036 1790q0 -74 -61.5 -131t-140.5 -57q-55 0 -87 28.5t-32 73.5q0 69 65 125.5t144 56.5q51 0 81.5 -26.5t30.5 -69.5zM993 197l-41 -197h-850l228 1071q46 207 53 338h825l23 -29l-41 -168l-576 15l-94 -447l486 8l-45 -182l-476 10l-92 -434z" />
    <glyph glyph-name="edotaccent" unicode="&#x117;" horiz-adv-x="995" 
d="M848 1413q0 -79 -64 -143t-143 -64q-53 0 -84 31.5t-31 79.5q0 74 65 137.5t144 63.5q52 0 82.5 -28.5t30.5 -76.5zM819 272l37 -96q-77 -93 -188 -144.5t-226 -51.5q-161 0 -257.5 97t-96.5 281q0 124 46.5 247t125 219t191 156t235.5 60q129 0 207 -62t78 -169
q0 -154 -160.5 -262t-466.5 -121q-2 -16 -2 -49q0 -106 50.5 -169t146.5 -63q136 0 280 127zM643 897q-67 0 -128 -61t-99.5 -146.5t-59.5 -181.5q198 25 292.5 102t94.5 181q0 52 -26.5 79t-73.5 27z" />
    <glyph glyph-name="Eogonek" unicode="&#x118;" horiz-adv-x="1146" 
d="M952 0q-132 -61 -209 -135.5t-77 -145.5q0 -65 79 -65q51 0 119 24l19 -88q-56 -40 -123.5 -64t-128.5 -24q-84 0 -134.5 40t-50.5 108q0 96 89 188.5t247 161.5h-680l228 1071q46 207 53 338h825l23 -29l-41 -168l-576 15l-94 -447l486 8l-45 -182l-476 10l-92 -434
l600 15z" />
    <glyph glyph-name="eogonek" unicode="&#x119;" horiz-adv-x="995" 
d="M788 100q-171 -132 -247 -212.5t-76 -155.5q0 -78 82 -78q51 0 119 24l16 -88q-54 -39 -121.5 -63.5t-130.5 -24.5q-84 0 -133 42t-49 118q0 86 62.5 163t187.5 159q-36 -4 -56 -4q-161 0 -257.5 97t-96.5 281q0 124 46.5 247t125 219t191 156t235.5 60q129 0 207 -62
t78 -169q0 -154 -160.5 -262t-466.5 -121q-2 -16 -2 -49q0 -106 50.5 -169t146.5 -63q136 0 280 127l37 -96q-30 -38 -78 -76h10zM643 897q-67 0 -128 -61t-99.5 -146.5t-59.5 -181.5q198 25 292.5 102t94.5 181q0 52 -26.5 79t-73.5 27z" />
    <glyph glyph-name="Ecaron" unicode="&#x11a;" horiz-adv-x="1146" 
d="M1157 1903l53 -58q-162 -122 -295 -246l-176 -16q-92 144 -196 262l78 58q98 -50 239 -154q207 114 297 154zM993 197l-41 -197h-850l228 1071q46 207 53 338h825l23 -29l-41 -168l-576 15l-94 -447l486 8l-45 -182l-476 10l-92 -434z" />
    <glyph glyph-name="ecaron" unicode="&#x11b;" horiz-adv-x="995" 
d="M963 1575l65 -55q-176 -183 -291 -328l-178 -16q-74 185 -160 344l90 55q85 -76 195 -219q154 133 279 219zM819 272l37 -96q-77 -93 -188 -144.5t-226 -51.5q-161 0 -257.5 97t-96.5 281q0 124 46.5 247t125 219t191 156t235.5 60q129 0 207 -62t78 -169
q0 -154 -160.5 -262t-466.5 -121q-2 -16 -2 -49q0 -106 50.5 -169t146.5 -63q136 0 280 127zM643 897q-67 0 -128 -61t-99.5 -146.5t-59.5 -181.5q198 25 292.5 102t94.5 181q0 52 -26.5 79t-73.5 27z" />
    <glyph glyph-name="Gcircumflex" unicode="&#x11c;" horiz-adv-x="1341" 
d="M694 1579l-53 57q148 114 293 246l178 16q90 -141 197 -262l-80 -57q-82 43 -240 156q-180 -105 -295 -156zM1208 641l21 -27l-119 -542q-195 -92 -436 -92q-260 0 -395.5 131t-135.5 385q0 142 41 280t118 255t179.5 207t233.5 141t272 51q94 0 190 -22.5t164 -64.5
l-88 -217q-128 101 -299 101q-121 0 -225 -60.5t-172.5 -158.5t-107.5 -220.5t-39 -248.5q0 -363 331 -363q80 0 158 17l8 36q28 133 39.5 207t20.5 185z" />
    <glyph glyph-name="gcircumflex" unicode="&#x11d;" horiz-adv-x="987" 
d="M420 1155l-64 55q160 166 291 328l178 16q63 -164 160 -344l-90 -55q-78 70 -197 219q-182 -158 -278 -219zM285 -528q-188 0 -297 70.5t-109 178.5q0 148 217 236l54 -51q-48 -58 -48 -111q0 -88 61.5 -143t168.5 -55q102 0 170.5 47.5t68.5 111.5q0 49 -44 85.5
t-140 82.5q-37 18 -55 27.5t-45.5 27t-41 31.5t-24 34.5t-10.5 43.5q0 46 40.5 88t90.5 67t109 44v6q-25 -3 -43 0q-133 6 -213 87t-80 216q0 129 69 232t178.5 157.5t235.5 54.5q187 0 263 4t153 21q22 -22 22 -64q0 -37 -24 -67.5t-78 -30.5q-26 0 -53 6.5t-64 19.5
t-51 17l-2 -4q133 -75 133 -233q0 -74 -25 -139.5t-65 -112.5t-88.5 -87t-97.5 -69.5t-89 -54t-65 -47t-25 -41.5q0 -31 101 -80q4 -2 6.5 -3.5t5.5 -2.5q57 -28 97 -52t81 -58t62.5 -75.5t21.5 -89.5q0 -133 -151.5 -229t-380.5 -96zM668 743q0 77 -28 122.5t-81 45.5
q-56 0 -106.5 -52.5t-79.5 -130.5t-29 -155q0 -80 31 -126t86 -46q59 0 108 54t74 131.5t25 156.5z" />
    <glyph glyph-name="Gbreve" unicode="&#x11e;" horiz-adv-x="1341" 
d="M1163 1872l103 8q-42 -128 -138.5 -206.5t-220.5 -78.5q-114 0 -175 72t-48 193l104 14q6 -52 51 -82.5t115 -30.5q66 0 123.5 31.5t85.5 79.5zM1208 641l21 -27l-119 -542q-195 -92 -436 -92q-260 0 -395.5 131t-135.5 385q0 142 41 280t118 255t179.5 207t233.5 141
t272 51q94 0 190 -22.5t164 -64.5l-88 -217q-128 101 -299 101q-121 0 -225 -60.5t-172.5 -158.5t-107.5 -220.5t-39 -248.5q0 -363 331 -363q80 0 158 17l8 36q28 133 39.5 207t20.5 185z" />
    <glyph glyph-name="gbreve" unicode="&#x11f;" horiz-adv-x="987" 
d="M891 1534l102 6q-46 -151 -145.5 -243.5t-222.5 -92.5q-115 0 -173.5 85.5t-39.5 230.5l104 14q1 -76 43 -120t111 -44q67 0 127.5 45.5t93.5 118.5zM285 -528q-188 0 -297 70.5t-109 178.5q0 148 217 236l54 -51q-48 -58 -48 -111q0 -88 61.5 -143t168.5 -55
q102 0 170.5 47.5t68.5 111.5q0 49 -44 85.5t-140 82.5q-37 18 -55 27.5t-45.5 27t-41 31.5t-24 34.5t-10.5 43.5q0 46 40.5 88t90.5 67t109 44v6q-25 -3 -43 0q-133 6 -213 87t-80 216q0 129 69 232t178.5 157.5t235.5 54.5q187 0 263 4t153 21q22 -22 22 -64
q0 -37 -24 -67.5t-78 -30.5q-26 0 -53 6.5t-64 19.5t-51 17l-2 -4q133 -75 133 -233q0 -74 -25 -139.5t-65 -112.5t-88.5 -87t-97.5 -69.5t-89 -54t-65 -47t-25 -41.5q0 -31 101 -80q4 -2 6.5 -3.5t5.5 -2.5q57 -28 97 -52t81 -58t62.5 -75.5t21.5 -89.5q0 -133 -151.5 -229
t-380.5 -96zM668 743q0 77 -28 122.5t-81 45.5q-56 0 -106.5 -52.5t-79.5 -130.5t-29 -155q0 -80 31 -126t86 -46q59 0 108 54t74 131.5t25 156.5z" />
    <glyph glyph-name="Gdotaccent" unicode="&#x120;" horiz-adv-x="1341" 
d="M1137 1790q0 -73 -62.5 -130.5t-142.5 -57.5q-53 0 -86 28.5t-33 73.5q0 69 65.5 125.5t143.5 56.5q52 0 83.5 -26.5t31.5 -69.5zM1208 641l21 -27l-119 -542q-195 -92 -436 -92q-260 0 -395.5 131t-135.5 385q0 142 41 280t118 255t179.5 207t233.5 141t272 51
q94 0 190 -22.5t164 -64.5l-88 -217q-128 101 -299 101q-121 0 -225 -60.5t-172.5 -158.5t-107.5 -220.5t-39 -248.5q0 -363 331 -363q80 0 158 17l8 36q28 133 39.5 207t20.5 185z" />
    <glyph glyph-name="gdotaccent" unicode="&#x121;" horiz-adv-x="987" 
d="M831 1413q0 -79 -63 -143t-141 -64q-54 0 -85.5 31t-31.5 80q0 74 65 137.5t146 63.5q51 0 80.5 -28.5t29.5 -76.5zM285 -528q-188 0 -297 70.5t-109 178.5q0 148 217 236l54 -51q-48 -58 -48 -111q0 -88 61.5 -143t168.5 -55q102 0 170.5 47.5t68.5 111.5q0 49 -44 85.5
t-140 82.5q-37 18 -55 27.5t-45.5 27t-41 31.5t-24 34.5t-10.5 43.5q0 46 40.5 88t90.5 67t109 44v6q-25 -3 -43 0q-133 6 -213 87t-80 216q0 129 69 232t178.5 157.5t235.5 54.5q187 0 263 4t153 21q22 -22 22 -64q0 -37 -24 -67.5t-78 -30.5q-26 0 -53 6.5t-64 19.5
t-51 17l-2 -4q133 -75 133 -233q0 -74 -25 -139.5t-65 -112.5t-88.5 -87t-97.5 -69.5t-89 -54t-65 -47t-25 -41.5q0 -31 101 -80q4 -2 6.5 -3.5t5.5 -2.5q57 -28 97 -52t81 -58t62.5 -75.5t21.5 -89.5q0 -133 -151.5 -229t-380.5 -96zM668 743q0 77 -28 122.5t-81 45.5
q-56 0 -106.5 -52.5t-79.5 -130.5t-29 -155q0 -80 31 -126t86 -46q59 0 108 54t74 131.5t25 156.5z" />
    <glyph glyph-name="Gcommaaccent" unicode="&#x122;" horiz-adv-x="1341" 
d="M1208 641l21 -27l-119 -542q-195 -92 -436 -92q-260 0 -395.5 131t-135.5 385q0 142 41 280t118 255t179.5 207t233.5 141t272 51q94 0 190 -22.5t164 -64.5l-88 -217q-128 101 -299 101q-121 0 -225 -60.5t-172.5 -158.5t-107.5 -220.5t-39 -248.5q0 -363 331 -363
q80 0 158 17l8 36q28 133 39.5 207t20.5 185zM438 -649q99 106 144 194q-43 5 -65 37.5t-15 79.5q8 60 57 107t113 47q55 0 84.5 -36.5t17.5 -103.5q-24 -171 -272 -387z" />
    <glyph glyph-name="gcommaaccent" unicode="&#x123;" horiz-adv-x="987" 
d="M967 1636q-103 -115 -144 -194q43 -5 65 -37.5t15 -79.5q-8 -60 -57.5 -107t-114.5 -47q-54 0 -83 37t-17 103q24 171 272 387zM285 -528q-188 0 -297 70.5t-109 178.5q0 148 217 236l54 -51q-48 -58 -48 -111q0 -88 61.5 -143t168.5 -55q102 0 170.5 47.5t68.5 111.5
q0 49 -44 85.5t-140 82.5q-37 18 -55 27.5t-45.5 27t-41 31.5t-24 34.5t-10.5 43.5q0 46 40.5 88t90.5 67t109 44v6q-25 -3 -43 0q-133 6 -213 87t-80 216q0 129 69 232t178.5 157.5t235.5 54.5q187 0 263 4t153 21q22 -22 22 -64q0 -37 -24 -67.5t-78 -30.5q-26 0 -53 6.5
t-64 19.5t-51 17l-2 -4q133 -75 133 -233q0 -74 -25 -139.5t-65 -112.5t-88.5 -87t-97.5 -69.5t-89 -54t-65 -47t-25 -41.5q0 -31 101 -80q4 -2 6.5 -3.5t5.5 -2.5q57 -28 97 -52t81 -58t62.5 -75.5t21.5 -89.5q0 -133 -151.5 -229t-380.5 -96zM668 743q0 77 -28 122.5
t-81 45.5q-56 0 -106.5 -52.5t-79.5 -130.5t-29 -155q0 -80 31 -126t86 -46q59 0 108 54t74 131.5t25 156.5z" />
    <glyph glyph-name="Hcircumflex" unicode="&#x124;" horiz-adv-x="1486" 
d="M707 1579l-52 57q148 114 293 246l178 16q90 -141 197 -262l-80 -57q-94 49 -239 156q-173 -102 -297 -156zM354 0h-252l226 1061q45 219 55 348l248 21l20 -29l-129 -610h580l57 270q43 195 55 348l248 21l21 -29l-297 -1401h-252l129 608h-580z" />
    <glyph glyph-name="hcircumflex" unicode="&#x125;" horiz-adv-x="1163" 
d="M279 1686l-54 57q145 109 295 246l176 14q100 -153 197 -260l-78 -57q-105 54 -240 153q-202 -112 -296 -153zM340 0h-244q0 111 26.5 276.5t98.5 501.5l101 469l16 285l262 20q0 -97 -23.5 -246t-45 -248t-68.5 -304h6q74 142 180.5 214t212.5 72q95 0 146 -53.5
t51 -152.5q0 -51 -13 -119.5t-73 -345.5q-39 -180 -39 -369h-244q0 182 67 486q1 5 1.5 8t1.5 7.5t2 8.5q37 174 37 223q0 101 -86 101q-97 0 -182.5 -120.5t-136 -312t-54.5 -401.5z" />
    <glyph glyph-name="Hbar" unicode="&#x126;" horiz-adv-x="1486" 
d="M354 0h-252l215 1010h-151l27 131h151q32 175 39 268l248 21l20 -29l-55 -260h580q31 166 38 268l248 21l21 -29l-53 -260h149l-27 -131h-151l-215 -1010h-252l129 608h-580zM522 791h580l47 219h-580z" />
    <glyph glyph-name="hbar" unicode="&#x127;" horiz-adv-x="1163" 
d="M340 0h-244q0 111 26.5 276.5t98.5 501.5l84 400h-139l27 131h131l14 223l262 20q0 -105 -22 -243h383l-27 -131h-379q-20 -106 -92 -424h6q74 142 180.5 214t212.5 72q95 0 146 -53.5t51 -152.5q0 -51 -13 -119.5t-73 -345.5q-39 -180 -39 -369h-244q0 182 67 486
q1 5 1.5 8t1.5 7.5t2 8.5q37 174 37 223q0 101 -86 101q-97 0 -182.5 -120.5t-136 -312t-54.5 -401.5z" />
    <glyph glyph-name="Itilde" unicode="&#x128;" horiz-adv-x="655" 
d="M479 1884q43 0 84 -18.5t67.5 -40t62 -40t69.5 -18.5q42 0 74.5 25.5t74.5 77.5l64 -12q-27 -103 -96.5 -179.5t-161.5 -76.5q-41 0 -83 18t-72 39t-67 39t-69 18q-70 0 -145 -100l-64 12q12 47 34 90t53.5 81.5t77 61.5t97.5 23zM354 0h-252l226 1061q43 195 55 348
l248 21l20 -29z" />
    <glyph glyph-name="itilde" unicode="&#x129;" horiz-adv-x="563" 
d="M350 1520q32 0 63.5 -18.5t52.5 -40t47 -40t48 -18.5q56 0 113 100l61 -10q-25 -109 -85 -195t-138 -86q-30 0 -63 18.5t-56.5 40t-49 40t-42.5 18.5q-56 0 -113 -100l-63 10q27 111 87 196t138 85zM340 0h-244q0 196 76 547l41 188l16 285l263 20q0 -96 -24 -238
t-52 -266.5t-52 -275t-24 -260.5z" />
    <glyph glyph-name="Imacron" unicode="&#x12a;" horiz-adv-x="655" 
d="M293 1663l31 147h571l-31 -147h-571zM354 0h-252l226 1061q43 195 55 348l248 21l20 -29z" />
    <glyph glyph-name="imacron" unicode="&#x12b;" horiz-adv-x="563" 
d="M162 1290l26 142h488l-27 -142h-487zM340 0h-244q0 196 76 547l41 188l16 285l263 20q0 -96 -24 -238t-52 -266.5t-52 -275t-24 -260.5z" />
    <glyph glyph-name="Ibreve" unicode="&#x12c;" horiz-adv-x="655" 
d="M784 1872l103 8q-44 -128 -140.5 -206.5t-220.5 -78.5q-113 0 -174.5 72t-46.5 193l103 14q7 -52 51.5 -82.5t113.5 -30.5q66 0 123.5 31t87.5 80zM354 0h-252l226 1061q43 195 55 348l248 21l20 -29z" />
    <glyph glyph-name="ibreve" unicode="&#x12d;" horiz-adv-x="563" 
d="M588 1522l102 8q-45 -153 -135 -245.5t-201 -92.5q-99 0 -148.5 86t-27.5 231l103 15q-5 -77 27.5 -121.5t92.5 -44.5q58 0 109 45.5t78 118.5zM340 0h-244q0 196 76 547l41 188l16 285l263 20q0 -96 -24 -238t-52 -266.5t-52 -275t-24 -260.5z" />
    <glyph glyph-name="Iogonek" unicode="&#x12e;" horiz-adv-x="655" 
d="M354 0q-92 -62 -145 -134t-53 -136q0 -76 82 -76q50 0 118 24l17 -88q-54 -39 -121.5 -63.5t-130.5 -24.5q-84 0 -133 42t-49 116q0 89 69 179t191 161h-97l226 1061q43 195 55 348l248 21l20 -29z" />
    <glyph glyph-name="iogonek" unicode="&#x12f;" horiz-adv-x="563" 
d="M590 1413q0 -79 -63.5 -143t-141.5 -64q-54 0 -85.5 31t-31.5 80q0 74 65 137.5t144 63.5q52 0 82.5 -28.5t30.5 -76.5zM340 0q-85 -70 -133.5 -141t-48.5 -129q0 -35 20.5 -55.5t61.5 -20.5q50 0 118 24l17 -88q-54 -39 -121.5 -63.5t-130.5 -24.5q-84 0 -133 42.5
t-49 115.5q0 86 65.5 175.5t183.5 164.5h-94q0 196 76 547l41 188l16 285l263 20q0 -96 -24 -238t-52 -266.5t-52 -275t-24 -260.5z" />
    <glyph glyph-name="Idotaccent" unicode="&#x130;" horiz-adv-x="655" 
d="M756 1790q0 -74 -62 -131t-141 -57q-55 0 -87 28.5t-32 73.5q0 69 65 125.5t144 56.5q51 0 82 -26.5t31 -69.5zM354 0h-252l226 1061q43 195 55 348l248 21l20 -29z" />
    <glyph glyph-name="dotlessi" unicode="&#x131;" horiz-adv-x="563" 
d="M340 0h-244q0 196 76 547l41 188l16 285l263 20q0 -96 -24 -238t-52 -266.5t-52 -275t-24 -260.5z" />
    <glyph glyph-name="IJ" unicode="&#x132;" horiz-adv-x="1282" 
d="M354 0h-252l226 1061q43 195 55 348l248 21l20 -29zM553 -395l-51 94q204 179 272 502l182 860q39 182 48 338l256 31l20 -27l-254 -1202q-51 -233 -154.5 -367.5t-318.5 -228.5z" />
    <glyph glyph-name="ij" unicode="&#x133;" horiz-adv-x="1091" 
d="M590 1413q0 -79 -63.5 -143t-141.5 -64q-54 0 -85.5 31t-31.5 80q0 74 65 137.5t144 63.5q52 0 82.5 -28.5t30.5 -76.5zM1128 1413q0 -80 -63.5 -143.5t-142.5 -63.5q-53 0 -84 31.5t-31 79.5q0 74 65 137.5t144 63.5q52 0 82 -28.5t30 -76.5zM340 0h-244q0 196 76 547
l41 188l16 285l263 20q0 -96 -24 -238t-52 -266.5t-52 -275t-24 -260.5zM465 -528l-80 88q86 95 139 202.5t84 249.5l152 723l16 285l264 20q0 -51 -6.5 -112t-26 -165t-33.5 -173t-51 -242.5t-57 -267.5q-48 -230 -135.5 -369t-265.5 -239z" />
    <glyph glyph-name="Jcircumflex" unicode="&#x134;" horiz-adv-x="626" 
d="M281 1567l-54 59q144 109 293 244l178 16q100 -153 197 -260l-80 -59q-114 62 -240 155q-179 -101 -294 -155zM-102 -395l-52 94q205 180 273 502l182 860q37 176 47 338l256 31l21 -27l-254 -1202q-48 -232 -152.5 -366.5t-320.5 -229.5z" />
    <glyph glyph-name="jcircumflex" unicode="&#x135;" horiz-adv-x="528" 
d="M201 1171l-76 37q121 183 201 340l237 17q24 -191 62 -357l-90 -37q-59 80 -125 224q-47 -55 -69.5 -81.5t-63.5 -69t-76 -73.5zM-98 -528l-80 88q86 95 139 202.5t84 249.5l154 723l16 285l262 20q0 -51 -6.5 -112t-26 -165t-33.5 -173t-51 -242.5t-57 -267.5
q-48 -230 -135.5 -369t-265.5 -239z" />
    <glyph glyph-name="Kcommaaccent" unicode="&#x136;" horiz-adv-x="1308" 
d="M328 1061q42 195 55 348l246 21l22 -29l-135 -637h166q222 285 508 666l223 -23l10 -27l-544 -653l299 -727l-287 -14q-123 271 -246 594h-170l-123 -580h-250zM317 -649q95 98 144 194q-42 5 -64.5 37.5t-15.5 79.5q8 59 58 106.5t114 47.5q53 0 82.5 -37t19.5 -103
q-27 -173 -274 -387z" />
    <glyph glyph-name="kcommaaccent" unicode="&#x137;" horiz-adv-x="1099" 
d="M1073 858q0 -116 -99.5 -225.5t-236.5 -181.5q137 -279 267 -451h-306q-112 176 -194 420q154 109 238.5 202.5t84.5 174.5q0 37 -18.5 57t-52.5 20q-68 0 -142 -79.5t-132.5 -203t-98 -282.5t-43.5 -309h-244q0 111 26.5 276.5t98.5 501.5l101 469l16 285l262 20
q0 -44 -4 -94.5t-14 -116t-18 -112.5t-26 -133t-26.5 -125.5t-31 -141.5t-29.5 -133h4q81 168 193 256t231 88q92 0 143 -50.5t51 -131.5zM246 -649q97 104 143 194q-43 5 -65 37.5t-15 79.5q8 60 57.5 107t114.5 47q54 0 83.5 -37t17.5 -103q-24 -170 -273 -387z" />
    <glyph glyph-name="kgreenlandic" unicode="&#x138;" horiz-adv-x="1099" 
d="M698 0q-73 103 -129.5 230.5t-83.5 244.5q-145 -244 -145 -475h-244q0 196 76 547l41 188l16 285l263 20q0 -48 -4.5 -99.5t-17 -122.5t-19.5 -109t-27 -133t-25 -121h7q114 281 253.5 433t292.5 152q61 0 118 -15t89 -38l-139 -229q-74 41 -152 41q-89 0 -209 -105
q49 -168 138.5 -350t206.5 -344h-306z" />
    <glyph glyph-name="Lacute" unicode="&#x139;" horiz-adv-x="1062" 
d="M1106 1769l-21 -40q-255 -122 -573 -144l-6 64q291 131 477 254zM963 197l-41 -197h-820l228 1063q42 204 53 346l248 21l20 -29l-258 -1219z" />
    <glyph glyph-name="lacute" unicode="&#x13a;" horiz-adv-x="559" 
d="M891 1868l-21 -41q-262 -122 -573 -141l-6 61q291 131 477 254zM340 0h-244q0 111 26.5 276.5t98.5 501.5l101 469l16 285l262 20q0 -129 -40.5 -348.5t-89.5 -419t-89.5 -423.5t-40.5 -361z" />
    <glyph glyph-name="Lcommaaccent" unicode="&#x13b;" horiz-adv-x="1062" 
d="M963 197l-41 -197h-820l228 1063q42 204 53 346l248 21l20 -29l-258 -1219zM199 -649q97 104 143 194q-43 5 -65 37.5t-15 79.5q8 60 57.5 107t114.5 47q54 0 83.5 -37t17.5 -103q-24 -170 -273 -387z" />
    <glyph glyph-name="lcommaaccent" unicode="&#x13c;" horiz-adv-x="559" 
d="M340 0h-244q0 111 26.5 276.5t98.5 501.5l101 469l16 285l262 20q0 -129 -40.5 -348.5t-89.5 -419t-89.5 -423.5t-40.5 -361zM-31 -649q100 108 142 194q-41 5 -63.5 37.5t-16.5 79.5q9 60 59 107t113 47q55 0 83.5 -36.5t18.5 -103.5q-23 -167 -272 -387z" />
    <glyph glyph-name="Lcaron" unicode="&#x13d;" horiz-adv-x="1062" 
d="M1163 1556l8 -38q-111 -224 -288 -433l-80 7q102 245 164 460zM963 197l-41 -197h-820l228 1063q42 204 53 346l248 21l20 -29l-258 -1219z" />
    <glyph glyph-name="lcaron" unicode="&#x13e;" horiz-adv-x="559" 
d="M1051 1583l10 -41q-106 -212 -289 -432l-82 6q113 273 164 461zM340 0h-244q0 111 26.5 276.5t98.5 501.5l101 469l16 285l262 20q0 -129 -40.5 -348.5t-89.5 -419t-89.5 -423.5t-40.5 -361z" />
    <glyph glyph-name="Ldot" unicode="&#x13f;" horiz-adv-x="1228" 
d="M963 197l-41 -197h-820l228 1063q42 204 53 346l248 21l20 -29l-258 -1219zM1040 795q0 -78 -65 -142.5t-144 -64.5q-55 0 -87.5 31t-32.5 79q0 76 67.5 140.5t147.5 64.5q52 0 83 -29t31 -79z" />
    <glyph glyph-name="ldot" unicode="&#x140;" horiz-adv-x="970" 
d="M340 0h-244q0 111 26.5 276.5t98.5 501.5l101 469l16 285l262 20q0 -129 -40.5 -348.5t-89.5 -419t-89.5 -423.5t-40.5 -361zM897 702q0 -78 -65 -142t-144 -64q-55 0 -88 31t-33 81q0 76 67.5 139.5t147.5 63.5q52 0 83.5 -29.5t31.5 -79.5z" />
    <glyph glyph-name="Lslash" unicode="&#x141;" horiz-adv-x="1062" 
d="M963 197l-41 -197h-820l121 565l-227 -112l-37 112l295 146l76 352q42 204 53 346l248 21l20 -29l-116 -551l239 119l39 -111l-309 -153l-111 -523z" />
    <glyph glyph-name="lslash" unicode="&#x142;" horiz-adv-x="559" 
d="M340 0h-244q0 108 24 264.5t89 456.5l-238 -117l-37 111l306 151l82 381l16 285l262 20q0 -174 -80 -546l230 114l38 -112l-301 -148q-49 -213 -73 -324.5t-49 -271.5t-25 -264z" />
    <glyph glyph-name="Nacute" unicode="&#x143;" horiz-adv-x="1495" 
d="M1294 1769l-22 -40q-255 -122 -574 -144l-6 64q299 135 477 254zM862 852q68 -178 107 -294.5t67 -242.5h4q15 128 36.5 244t88.5 436q50 234 70 414l233 18l23 -28l-297 -1399h-244q-44 109 -115 297.5t-104 271.5q-130 331 -176 514h-4q-23 -225 -78 -462l-131 -621
h-240l228 1071q41 185 53 338l260 16q200 -524 219 -573z" />
    <glyph glyph-name="nacute" unicode="&#x144;" horiz-adv-x="1163" 
d="M967 1542l6 -41q-165 -191 -395 -332l-86 23q183 236 260 373zM340 0h-244q0 136 26.5 295t90.5 440l16 285l263 20q0 -88 -31 -286h4q75 143 181.5 214.5t215.5 71.5q94 0 145.5 -52.5t51.5 -143.5q0 -81 -62 -364q-5 -25 -8 -38q-33 -154 -44 -240.5t-11 -201.5h-244
q0 102 13.5 198t46.5 259q45 225 45 272q0 105 -84 105q-93 0 -177.5 -118t-137 -311t-56.5 -405z" />
    <glyph glyph-name="Ncommaaccent" unicode="&#x145;" horiz-adv-x="1495" 
d="M862 852q68 -178 107 -294.5t67 -242.5h4q15 128 36.5 244t88.5 436q50 234 70 414l233 18l23 -28l-297 -1399h-244q-44 109 -115 297.5t-104 271.5q-130 331 -176 514h-4q-23 -225 -78 -462l-131 -621h-240l228 1071q41 185 53 338l260 16q200 -524 219 -573zM393 -649
q99 106 144 194q-43 5 -65 37.5t-15 79.5q8 60 57.5 107t114.5 47q54 0 83 -37t17 -103q-24 -171 -272 -387z" />
    <glyph glyph-name="ncommaaccent" unicode="&#x146;" horiz-adv-x="1163" 
d="M340 0h-244q0 136 26.5 295t90.5 440l16 285l263 20q0 -88 -31 -286h4q75 143 181.5 214.5t215.5 71.5q94 0 145.5 -52.5t51.5 -143.5q0 -81 -62 -364q-5 -25 -8 -38q-33 -154 -44 -240.5t-11 -201.5h-244q0 102 13.5 198t46.5 259q45 225 45 272q0 105 -84 105
q-93 0 -177.5 -118t-137 -311t-56.5 -405zM262 -649q95 98 144 194q-43 5 -65 37.5t-15 79.5q8 59 58 106.5t114 47.5q53 0 82.5 -37t19.5 -103q-27 -173 -274 -387z" />
    <glyph glyph-name="Ncaron" unicode="&#x147;" horiz-adv-x="1495" 
d="M1274 1903l53 -58q-145 -109 -295 -246l-176 -16q-97 151 -197 262l78 58q101 -52 240 -154q207 114 297 154zM862 852q68 -178 107 -294.5t67 -242.5h4q15 128 36.5 244t88.5 436q50 234 70 414l233 18l23 -28l-297 -1399h-244q-44 109 -115 297.5t-104 271.5
q-130 331 -176 514h-4q-23 -225 -78 -462l-131 -621h-240l228 1071q41 185 53 338l260 16q200 -524 219 -573z" />
    <glyph glyph-name="ncaron" unicode="&#x148;" horiz-adv-x="1163" 
d="M1008 1575l65 -55q-173 -179 -293 -328l-176 -16q-74 185 -160 344l91 55q81 -73 194 -219q154 133 279 219zM340 0h-244q0 136 26.5 295t90.5 440l16 285l263 20q0 -88 -31 -286h4q75 143 181.5 214.5t215.5 71.5q94 0 145.5 -52.5t51.5 -143.5q0 -81 -62 -364
q-5 -25 -8 -38q-33 -154 -44 -240.5t-11 -201.5h-244q0 102 13.5 198t46.5 259q45 225 45 272q0 105 -84 105q-93 0 -177.5 -118t-137 -311t-56.5 -405z" />
    <glyph glyph-name="Eng" unicode="&#x14a;" horiz-adv-x="1492" 
d="M764 -395l-53 94q90 73 144.5 144.5t86.5 174.5q-31 79 -103 268.5t-110 282.5q-50 122 -73 182t-51.5 145t-49.5 171h-6q-18 -193 -76 -446l-131 -621h-240l228 1071q41 205 53 338l260 16q47 -130 122.5 -325.5t94.5 -247.5q68 -168 108.5 -285t67.5 -237h4
q16 128 37.5 246t85.5 419q47 209 72 414l233 18l23 -28l-256 -1198q-52 -236 -155.5 -370t-315.5 -226z" />
    <glyph glyph-name="eng" unicode="&#x14b;" horiz-adv-x="1136" 
d="M340 0h-244q0 123 25 283t92 452l16 285l263 20q0 -88 -31 -286h4q75 143 181.5 214.5t213.5 71.5q120 0 169.5 -86.5t17.5 -236.5l-86 -408q-27 -127 -48 -212.5t-47.5 -164t-54 -130t-67 -102t-85 -89.5t-110.5 -82l-80 88q72 102 120.5 209.5t76.5 243.5l98 465
q2 8 12 53q17 86 18 136.5t-18.5 80t-64.5 29.5q-95 0 -180.5 -121t-136 -313t-54.5 -400z" />
    <glyph glyph-name="Omacron" unicode="&#x14c;" horiz-adv-x="1429" 
d="M670 1663l30 147h570l-29 -147h-571zM1366 905q0 -136 -36 -271t-104.5 -252t-160.5 -207.5t-212.5 -142.5t-252.5 -52q-214 0 -334.5 134.5t-120.5 383.5q0 137 36 273t105 254t161 209t212 143.5t250 52.5q215 0 336 -137.5t121 -387.5zM406 504q0 -160 59 -247
t178 -87q105 0 195 69t147 177.5t89 236.5t32 252q0 160 -58 247t-176 87q-84 0 -159.5 -45.5t-130.5 -121.5t-95.5 -171.5t-60.5 -197.5t-20 -199z" />
    <glyph glyph-name="omacron" unicode="&#x14d;" horiz-adv-x="1101" 
d="M410 1290l28 142h580l-29 -142h-579zM1018 666q0 -127 -45 -250.5t-121.5 -220t-188 -156t-235.5 -59.5q-157 0 -248.5 94t-91.5 276q0 127 45.5 251.5t122.5 221.5t188 157t234 60q159 0 249.5 -97t90.5 -277zM342 332q0 -205 129 -205q67 0 124.5 56.5t93 143t55.5 182
t20 179.5q0 205 -129 205q-68 0 -125.5 -56t-93 -142t-55 -181.5t-19.5 -181.5z" />
    <glyph glyph-name="Obreve" unicode="&#x14e;" horiz-adv-x="1429" 
d="M1161 1872l101 8q-42 -128 -138.5 -206.5t-220.5 -78.5q-113 0 -174.5 72t-46.5 193l102 14q7 -52 52 -82.5t114 -30.5q66 0 123.5 31t87.5 80zM1366 905q0 -136 -36 -271t-104.5 -252t-160.5 -207.5t-212.5 -142.5t-252.5 -52q-214 0 -334.5 134.5t-120.5 383.5
q0 137 36 273t105 254t161 209t212 143.5t250 52.5q215 0 336 -137.5t121 -387.5zM406 504q0 -160 59 -247t178 -87q105 0 195 69t147 177.5t89 236.5t32 252q0 160 -58 247t-176 87q-84 0 -159.5 -45.5t-130.5 -121.5t-95.5 -171.5t-60.5 -197.5t-20 -199z" />
    <glyph glyph-name="obreve" unicode="&#x14f;" horiz-adv-x="1101" 
d="M934 1534l102 6q-46 -151 -146 -243.5t-222 -92.5q-116 0 -174 85t-39 231l104 14q1 -76 43 -120t111 -44q67 0 127.5 45.5t93.5 118.5zM1018 666q0 -127 -45 -250.5t-121.5 -220t-188 -156t-235.5 -59.5q-157 0 -248.5 94t-91.5 276q0 127 45.5 251.5t122.5 221.5
t188 157t234 60q159 0 249.5 -97t90.5 -277zM342 332q0 -205 129 -205q67 0 124.5 56.5t93 143t55.5 182t20 179.5q0 205 -129 205q-68 0 -125.5 -56t-93 -142t-55 -181.5t-19.5 -181.5z" />
    <glyph glyph-name="Ohungarumlaut" unicode="&#x150;" horiz-adv-x="1429" 
d="M987 1774l-20 -41q-209 -125 -463 -148l-6 64q247 137 395 254zM1448 1774l-21 -41q-210 -125 -462 -148l-7 64q242 132 396 254zM1366 905q0 -136 -36 -271t-104.5 -252t-160.5 -207.5t-212.5 -142.5t-252.5 -52q-214 0 -334.5 134.5t-120.5 383.5q0 137 36 273t105 254
t161 209t212 143.5t250 52.5q215 0 336 -137.5t121 -387.5zM406 504q0 -160 59 -247t178 -87q105 0 195 69t147 177.5t89 236.5t32 252q0 160 -58 247t-176 87q-84 0 -159.5 -45.5t-130.5 -121.5t-95.5 -171.5t-60.5 -197.5t-20 -199z" />
    <glyph glyph-name="ohungarumlaut" unicode="&#x151;" horiz-adv-x="1101" 
d="M809 1548l4 -43q-153 -193 -352 -334l-86 23q173 219 260 375zM1133 1548l6 -43q-154 -195 -353 -334l-86 23q176 223 261 375zM1018 666q0 -127 -45 -250.5t-121.5 -220t-188 -156t-235.5 -59.5q-157 0 -248.5 94t-91.5 276q0 127 45.5 251.5t122.5 221.5t188 157
t234 60q159 0 249.5 -97t90.5 -277zM342 332q0 -205 129 -205q67 0 124.5 56.5t93 143t55.5 182t20 179.5q0 205 -129 205q-68 0 -125.5 -56t-93 -142t-55 -181.5t-19.5 -181.5z" />
    <glyph glyph-name="OE" unicode="&#x152;" horiz-adv-x="1947" 
d="M1376 934q0 -91 -10 -152l440 6l-45 -182l-430 10q-77 -261 -258 -432l723 13l-41 -197h-1003q-76 -20 -160 -20q-208 0 -330.5 128.5t-122.5 358.5q0 151 41.5 296.5t116.5 264.5t173 210t218 141.5t244 50.5q70 0 149 -21h930l23 -29l-43 -168l-680 11q65 -118 65 -289
zM406 492q0 -150 61 -236t180 -86q123 0 232 105t174 281t65 374q0 145 -58.5 227t-176.5 82q-124 0 -234.5 -104t-176.5 -277t-66 -366z" />
    <glyph glyph-name="oe" unicode="&#x153;" horiz-adv-x="1638" 
d="M1460 272l37 -96q-77 -93 -188 -144.5t-226 -51.5q-98 0 -175 38.5t-122 112.5q-154 -151 -358 -151q-157 0 -248.5 94t-91.5 276q0 127 45.5 251.5t122.5 221.5t188 157t234 60q202 0 283 -153q163 153 362 153q131 0 210 -65.5t79 -177.5q0 -150 -158.5 -251
t-468.5 -120q-2 -16 -2 -49q0 -106 50.5 -169t146.5 -63q136 0 280 127zM1284 897q-67 0 -128 -61t-99.5 -146.5t-59.5 -181.5q198 25 292.5 102t94.5 181q0 52 -26.5 79t-73.5 27zM342 332q0 -205 129 -205q67 0 124.5 56.5t93 143t55.5 182t20 179.5q0 205 -129 205
q-68 0 -125.5 -56t-93 -142t-55 -181.5t-19.5 -181.5z" />
    <glyph glyph-name="Racute" unicode="&#x154;" horiz-adv-x="1261" 
d="M1206 1769l-22 -40q-255 -122 -574 -144l-6 64q291 131 477 254zM354 0h-252l228 1071q43 192 53 338h397q223 0 342 -89.5t119 -254.5q0 -161 -96.5 -289t-265.5 -188l223 -588l-285 -23q-92 262 -170 541h-184zM729 1233h-113l-116 -545h104q173 0 274 93.5t101 244.5
q0 207 -250 207z" />
    <glyph glyph-name="racute" unicode="&#x155;" horiz-adv-x="825" 
d="M836 1542l6 -41q-164 -190 -396 -332l-86 23q187 240 261 373zM340 0h-244q0 196 76 547l41 188l16 285l263 20q0 -120 -50 -370h4q69 192 157.5 281t180.5 89q42 0 79 -17t59 -42l-121 -223q-59 24 -111 24q-100 0 -179 -109.5t-122 -285.5t-49 -387z" />
    <glyph glyph-name="Rcommaaccent" unicode="&#x156;" horiz-adv-x="1261" 
d="M354 0h-252l228 1071q43 192 53 338h397q223 0 342 -89.5t119 -254.5q0 -161 -96.5 -289t-265.5 -188l223 -588l-285 -23q-92 262 -170 541h-184zM729 1233h-113l-116 -545h104q173 0 274 93.5t101 244.5q0 207 -250 207zM270 -649q99 106 144 194q-43 5 -65 37.5
t-15 79.5q8 60 57.5 107t114.5 47q54 0 83 -37t17 -103q-24 -171 -272 -387z" />
    <glyph glyph-name="rcommaaccent" unicode="&#x157;" horiz-adv-x="825" 
d="M340 0h-244q0 196 76 547l41 188l16 285l263 20q0 -120 -50 -370h4q69 192 157.5 281t180.5 89q42 0 79 -17t59 -42l-121 -223q-59 24 -111 24q-100 0 -179 -109.5t-122 -285.5t-49 -387zM-41 -649q97 104 143 194q-43 4 -65 37t-14 80q8 60 57.5 107t114.5 47
q54 0 83 -37t17 -103q-24 -171 -272 -387z" />
    <glyph glyph-name="Rcaron" unicode="&#x158;" horiz-adv-x="1261" 
d="M1186 1903l53 -58q-162 -122 -295 -246l-176 -16q-97 151 -197 262l78 58q101 -52 240 -154q207 114 297 154zM354 0h-252l228 1071q43 192 53 338h397q223 0 342 -89.5t119 -254.5q0 -161 -96.5 -289t-265.5 -188l223 -588l-285 -23q-92 262 -170 541h-184zM729 1233
h-113l-116 -545h104q173 0 274 93.5t101 244.5q0 207 -250 207z" />
    <glyph glyph-name="rcaron" unicode="&#x159;" horiz-adv-x="825" 
d="M877 1575l65 -55q-173 -179 -293 -328l-176 -16q-74 185 -160 344l90 55q85 -76 195 -219q154 133 279 219zM340 0h-244q0 196 76 547l41 188l16 285l263 20q0 -120 -50 -370h4q69 192 157.5 281t180.5 89q42 0 79 -17t59 -42l-121 -223q-59 24 -111 24
q-100 0 -179 -109.5t-122 -285.5t-49 -387z" />
    <glyph glyph-name="Sacute" unicode="&#x15a;" horiz-adv-x="1085" 
d="M1106 1769l-23 -40q-255 -122 -573 -144l-6 64q299 135 477 254zM961 422q0 -192 -164.5 -317t-423.5 -125q-101 0 -203.5 20t-161.5 55l64 213q66 -43 166.5 -67.5t177.5 -24.5q124 0 200 60t76 155q0 25 -7 48t-15.5 40.5t-27.5 37.5t-31 31.5t-39 29.5t-39.5 26
t-43.5 26t-40 23q-52 30 -87.5 56.5t-73 66.5t-56.5 92t-19 115q0 191 170 319t428 128q91 0 176 -16.5t139 -43.5l-77 -217q-60 39 -136.5 59.5t-146.5 20.5q-124 0 -204.5 -60.5t-80.5 -152.5q0 -31 11 -58.5t24 -46t43.5 -42.5t48.5 -35.5t60.5 -37t60.5 -36.5
q49 -31 83.5 -58t72 -68.5t57 -96t19.5 -119.5z" />
    <glyph glyph-name="sacute" unicode="&#x15b;" horiz-adv-x="894" 
d="M817 1542l6 -41q-169 -195 -395 -332l-86 23q183 236 260 373zM854 987l-59 -188q-121 75 -246 75q-77 0 -126.5 -36t-49.5 -93q0 -34 21.5 -62.5t55.5 -49t75.5 -41t82.5 -45t75 -54t55.5 -75t21.5 -101.5q0 -148 -131 -242.5t-322 -94.5q-84 0 -166 19t-135 54l57 187
q64 -45 144 -70t143 -25q77 0 126.5 37.5t49.5 93.5q0 33 -21.5 61t-56 49t-76 41.5t-82.5 45t-75.5 54t-56 74t-21.5 99.5q0 98 64 176.5t167.5 121t223.5 42.5q138 0 262 -53z" />
    <glyph glyph-name="Scircumflex" unicode="&#x15c;" horiz-adv-x="1085" 
d="M522 1579l-53 57q161 123 295 246l176 16q82 -129 197 -262l-78 -57q-92 47 -240 156q-173 -102 -297 -156zM961 422q0 -192 -164.5 -317t-423.5 -125q-101 0 -203.5 20t-161.5 55l64 213q66 -43 166.5 -67.5t177.5 -24.5q124 0 200 60t76 155q0 25 -7 48t-15.5 40.5
t-27.5 37.5t-31 31.5t-39 29.5t-39.5 26t-43.5 26t-40 23q-52 30 -87.5 56.5t-73 66.5t-56.5 92t-19 115q0 191 170 319t428 128q91 0 176 -16.5t139 -43.5l-77 -217q-60 39 -136.5 59.5t-146.5 20.5q-124 0 -204.5 -60.5t-80.5 -152.5q0 -31 11 -58.5t24 -46t43.5 -42.5
t48.5 -35.5t60.5 -37t60.5 -36.5q49 -31 83.5 -58t72 -68.5t57 -96t19.5 -119.5z" />
    <glyph glyph-name="scircumflex" unicode="&#x15d;" horiz-adv-x="894" 
d="M332 1155l-66 55q173 179 293 328l176 16q74 -184 160 -344l-90 -55q-85 76 -195 219q-176 -152 -278 -219zM854 987l-59 -188q-121 75 -246 75q-77 0 -126.5 -36t-49.5 -93q0 -34 21.5 -62.5t55.5 -49t75.5 -41t82.5 -45t75 -54t55.5 -75t21.5 -101.5
q0 -148 -131 -242.5t-322 -94.5q-84 0 -166 19t-135 54l57 187q64 -45 144 -70t143 -25q77 0 126.5 37.5t49.5 93.5q0 33 -21.5 61t-56 49t-76 41.5t-82.5 45t-75.5 54t-56 74t-21.5 99.5q0 98 64 176.5t167.5 121t223.5 42.5q138 0 262 -53z" />
    <glyph glyph-name="Scedilla" unicode="&#x15e;" horiz-adv-x="1085" 
d="M610 -248q0 -105 -122 -170.5t-310 -70.5l21 88q105 14 166 48t61 81q0 60 -129 63l-21 45l74 144q-97 2 -192 21.5t-150 53.5l64 213q66 -43 166.5 -67.5t177.5 -24.5q124 0 200 60t76 155q0 25 -7 48t-15.5 40.5t-27.5 37.5t-31 31.5t-39 29.5t-39.5 26t-43.5 26
t-40 23q-52 30 -87.5 56.5t-73 66.5t-56.5 92t-19 115q0 191 170 319t428 128q91 0 176 -16.5t139 -43.5l-77 -217q-60 39 -136.5 59.5t-146.5 20.5q-124 0 -204.5 -60.5t-80.5 -152.5q0 -31 11 -58.5t24 -46t43.5 -42.5t48.5 -35.5t60.5 -37t60.5 -36.5q49 -31 83.5 -58
t72 -68.5t57 -96t19.5 -119.5q0 -169 -130 -288.5t-344 -147.5l-53 -99q176 -23 176 -135z" />
    <glyph glyph-name="scedilla" unicode="&#x15f;" horiz-adv-x="894" 
d="M526 -248q0 -105 -121.5 -170.5t-308.5 -70.5l21 88q104 14 164.5 48t60.5 81q0 60 -129 63l-18 45l73 146q-168 7 -262 71l57 187q64 -45 144 -70t143 -25q77 0 126.5 37.5t49.5 93.5q0 33 -21.5 61t-56 49t-76 41.5t-82.5 45t-75.5 54t-56 74t-21.5 99.5q0 98 64 176.5
t167.5 121t223.5 42.5q138 0 262 -53l-59 -188q-121 75 -246 75q-77 0 -126.5 -36t-49.5 -93q0 -34 21.5 -62.5t55.5 -49t75.5 -41t82.5 -45t75 -54t55.5 -75t21.5 -101.5q0 -127 -99.5 -216t-254.5 -113l-54 -101q174 -23 174 -135z" />
    <glyph glyph-name="Scaron" unicode="&#x160;" horiz-adv-x="1085" 
d="M1085 1903l54 -58q-145 -109 -295 -246l-176 -16q-97 151 -197 262l78 58q98 -50 239 -154q207 114 297 154zM961 422q0 -192 -164.5 -317t-423.5 -125q-101 0 -203.5 20t-161.5 55l64 213q66 -43 166.5 -67.5t177.5 -24.5q124 0 200 60t76 155q0 25 -7 48t-15.5 40.5
t-27.5 37.5t-31 31.5t-39 29.5t-39.5 26t-43.5 26t-40 23q-52 30 -87.5 56.5t-73 66.5t-56.5 92t-19 115q0 191 170 319t428 128q91 0 176 -16.5t139 -43.5l-77 -217q-60 39 -136.5 59.5t-146.5 20.5q-124 0 -204.5 -60.5t-80.5 -152.5q0 -31 11 -58.5t24 -46t43.5 -42.5
t48.5 -35.5t60.5 -37t60.5 -36.5q49 -31 83.5 -58t72 -68.5t57 -96t19.5 -119.5z" />
    <glyph glyph-name="scaron" unicode="&#x161;" horiz-adv-x="894" 
d="M858 1575l66 -55q-176 -183 -291 -328l-178 -16q-74 185 -160 344l90 55q85 -76 195 -219q158 137 278 219zM854 987l-59 -188q-121 75 -246 75q-77 0 -126.5 -36t-49.5 -93q0 -34 21.5 -62.5t55.5 -49t75.5 -41t82.5 -45t75 -54t55.5 -75t21.5 -101.5
q0 -148 -131 -242.5t-322 -94.5q-84 0 -166 19t-135 54l57 187q64 -45 144 -70t143 -25q77 0 126.5 37.5t49.5 93.5q0 33 -21.5 61t-56 49t-76 41.5t-82.5 45t-75.5 54t-56 74t-21.5 99.5q0 98 64 176.5t167.5 121t223.5 42.5q138 0 262 -53z" />
    <glyph glyph-name="Tcedilla" unicode="&#x162;" horiz-adv-x="1103" 
d="M569 0h-71l-60 -113q174 -23 174 -135q0 -105 -121.5 -170.5t-308.5 -70.5l21 88q104 14 164.5 48t60.5 81q0 60 -129 63l-18 45l84 164h-48l258 1221q-100 -1 -413 -15l57 203h1045l-27 -203q-309 14 -410 15z" />
    <glyph glyph-name="tcedilla" unicode="&#x163;" horiz-adv-x="763" 
d="M508 -248q0 -105 -121.5 -170.5t-308.5 -70.5l20 88q104 14 165 48t61 81q0 60 -129 63l-19 45l82 158q-143 44 -143 225q0 45 13 113.5t67 323.5q31 146 51 239l-142 2l19 92l156 31l112 252l158 12l24 -29l-57 -235h279l14 -29l-35 -104l-285 4q-17 -78 -44 -205
q-55 -253 -67.5 -318.5t-12.5 -97.5q0 -114 114 -114q80 0 170 51l-12 -156q-124 -66 -254 -71l-49 -93q174 -23 174 -135z" />
    <glyph glyph-name="Tcaron" unicode="&#x164;" horiz-adv-x="1103" 
d="M1094 1903l53 -58q-145 -109 -295 -246l-176 -16q-97 151 -197 262l78 58q94 -48 242 -154q194 110 295 154zM569 0h-252l258 1221q-100 -1 -413 -15l57 203h1045l-27 -203q-309 14 -410 15z" />
    <glyph glyph-name="tcaron" unicode="&#x165;" horiz-adv-x="763" 
d="M1038 1573l11 -41q-102 -203 -289 -432l-82 6q109 265 164 461zM774 887l-285 4q-17 -78 -44 -205q-55 -253 -67.5 -318.5t-12.5 -97.5q0 -114 114 -114q80 0 170 51l-12 -156q-134 -71 -275 -71q-247 0 -247 239q0 45 13 113.5t67 323.5q31 146 51 239l-142 2l19 92
l156 31l112 252l158 12l24 -29l-57 -235h279l14 -29z" />
    <glyph glyph-name="Tbar" unicode="&#x166;" horiz-adv-x="1103" 
d="M569 0h-252l136 639h-258l28 131h258l94 451q-100 -1 -413 -15l57 203h1045l-27 -203q-309 14 -410 15l-94 -451h258l-28 -131h-258z" />
    <glyph glyph-name="tbar" unicode="&#x167;" horiz-adv-x="763" 
d="M705 549h-289q-51 -238 -51 -279q0 -114 114 -114q80 0 170 51l-12 -156q-134 -71 -275 -71q-247 0 -247 239q0 42 10.5 101.5t46.5 228.5h-139l26 129h142q6 34 22 107.5t23 109.5l-142 2l19 92l156 31l112 252l158 12l24 -29l-57 -235h279l14 -29l-35 -104l-285 4
q-9 -44 -24.5 -115t-20.5 -98h287z" />
    <glyph glyph-name="Utilde" unicode="&#x168;" horiz-adv-x="1388" 
d="M848 1884q43 0 83.5 -18.5t67 -40t62 -40t69.5 -18.5q42 0 75.5 25.5t74.5 77.5l63 -12q-27 -103 -96.5 -179.5t-161.5 -76.5q-41 0 -83 18t-71.5 39t-66.5 39t-69 18q-71 0 -146 -100l-63 12q12 47 34 90t53.5 81.5t77 61.5t97.5 23zM156 336q0 80 41 271t89 421.5
t60 382.5l254 19l18 -25q-187 -870 -198 -941q-6 -38 -6 -67q0 -108 60.5 -164.5t166.5 -56.5q129 0 221.5 80.5t124.5 232.5q122 570 146 694.5t28 227.5l266 16l-202 -954q-34 -158 -131.5 -271.5t-227.5 -167.5t-280 -54q-195 0 -312.5 94t-117.5 262z" />
    <glyph glyph-name="utilde" unicode="&#x169;" horiz-adv-x="1122" 
d="M588 1513q41 0 81.5 -18t67 -39t61 -39t66.5 -18q37 0 68.5 25.5t68.5 74.5l68 -10q-29 -113 -97.5 -197t-158.5 -84q-39 0 -80.5 18.5t-72 40t-66.5 40t-64 18.5q-62 0 -135 -102l-67 12q14 52 36.5 98.5t54 88t75.5 66.5t94 25zM109 303l92 432l16 285l262 20
q0 -87 -14 -184t-44.5 -242.5t-37.5 -181.5q-11 -62 -15 -101.5t0 -75.5t23 -52.5t53 -16.5q93 0 172 121t127 316q38 180 48 288q4 74 4 109l256 20q-4 -71 -15 -152t-22 -139.5t-38 -191.5t-44 -221q-35 -158 -35 -336h-246q0 109 21 256h-2q-71 -138 -171.5 -207
t-203.5 -69q-119 0 -168 87.5t-18 235.5z" />
    <glyph glyph-name="Umacron" unicode="&#x16a;" horiz-adv-x="1388" 
d="M662 1663l30 147h572l-31 -147h-571zM156 336q0 80 41 271t89 421.5t60 382.5l254 19l18 -25q-187 -870 -198 -941q-6 -38 -6 -67q0 -108 60.5 -164.5t166.5 -56.5q129 0 221.5 80.5t124.5 232.5q122 570 146 694.5t28 227.5l266 16l-202 -954q-34 -158 -131.5 -271.5
t-227.5 -167.5t-280 -54q-195 0 -312.5 94t-117.5 262z" />
    <glyph glyph-name="umacron" unicode="&#x16b;" horiz-adv-x="1122" 
d="M387 1290l29 142h581l-30 -142h-580zM109 303l92 432l16 285l262 20q0 -87 -14 -184t-44.5 -242.5t-37.5 -181.5q-11 -62 -15 -101.5t0 -75.5t23 -52.5t53 -16.5q93 0 172 121t127 316q38 180 48 288q4 74 4 109l256 20q-4 -71 -15 -152t-22 -139.5t-38 -191.5t-44 -221
q-35 -158 -35 -336h-246q0 109 21 256h-2q-71 -138 -171.5 -207t-203.5 -69q-119 0 -168 87.5t-18 235.5z" />
    <glyph glyph-name="Ubreve" unicode="&#x16c;" horiz-adv-x="1388" 
d="M1153 1872l100 8q-42 -128 -138 -206.5t-220 -78.5q-113 0 -174.5 72t-46.5 193l102 14q7 -52 52 -82.5t114 -30.5q66 0 123.5 31t87.5 80zM156 336q0 80 41 271t89 421.5t60 382.5l254 19l18 -25q-187 -870 -198 -941q-6 -38 -6 -67q0 -108 60.5 -164.5t166.5 -56.5
q129 0 221.5 80.5t124.5 232.5q122 570 146 694.5t28 227.5l266 16l-202 -954q-34 -158 -131.5 -271.5t-227.5 -167.5t-280 -54q-195 0 -312.5 94t-117.5 262z" />
    <glyph glyph-name="ubreve" unicode="&#x16d;" horiz-adv-x="1122" 
d="M911 1534l103 6q-46 -151 -146 -243.5t-223 -92.5q-116 0 -174 85t-39 231l105 14q1 -76 42.5 -120t110.5 -44q67 0 127.5 45.5t93.5 118.5zM109 303l92 432l16 285l262 20q0 -87 -14 -184t-44.5 -242.5t-37.5 -181.5q-11 -62 -15 -101.5t0 -75.5t23 -52.5t53 -16.5
q93 0 172 121t127 316q38 180 48 288q4 74 4 109l256 20q-4 -71 -15 -152t-22 -139.5t-38 -191.5t-44 -221q-35 -158 -35 -336h-246q0 109 21 256h-2q-71 -138 -171.5 -207t-203.5 -69q-119 0 -168 87.5t-18 235.5z" />
    <glyph glyph-name="Uring" unicode="&#x16e;" horiz-adv-x="1388" 
d="M1188 1798q0 -97 -87 -174.5t-194 -77.5q-76 0 -122 41t-46 105q0 92 89 168.5t198 76.5q73 0 117.5 -38t44.5 -101zM854 1712q0 -34 22 -55t58 -21q54 0 95.5 44t41.5 98q0 33 -19.5 52t-54.5 19q-55 0 -99 -42t-44 -95zM156 336q0 80 41 271t89 421.5t60 382.5l254 19
l18 -25q-187 -870 -198 -941q-6 -38 -6 -67q0 -108 60.5 -164.5t166.5 -56.5q129 0 221.5 80.5t124.5 232.5q122 570 146 694.5t28 227.5l266 16l-202 -954q-34 -158 -131.5 -271.5t-227.5 -167.5t-280 -54q-195 0 -312.5 94t-117.5 262z" />
    <glyph glyph-name="uring" unicode="&#x16f;" horiz-adv-x="1122" 
d="M918 1419q0 -97 -87 -174.5t-194 -77.5q-74 0 -121 41t-47 103q0 93 89.5 170.5t197.5 77.5q73 0 117.5 -39t44.5 -101zM586 1331q0 -33 21 -54.5t57 -21.5q54 0 95.5 44t41.5 98q0 33 -19.5 52t-54.5 19q-55 0 -98 -42t-43 -95zM109 303l92 432l16 285l262 20
q0 -87 -14 -184t-44.5 -242.5t-37.5 -181.5q-11 -62 -15 -101.5t0 -75.5t23 -52.5t53 -16.5q93 0 172 121t127 316q38 180 48 288q4 74 4 109l256 20q-4 -71 -15 -152t-22 -139.5t-38 -191.5t-44 -221q-35 -158 -35 -336h-246q0 109 21 256h-2q-71 -138 -171.5 -207
t-203.5 -69q-119 0 -168 87.5t-18 235.5z" />
    <glyph glyph-name="Uhungarumlaut" unicode="&#x170;" horiz-adv-x="1388" 
d="M979 1774l-21 -41q-210 -125 -462 -148l-7 64q242 132 396 254zM1440 1774l-21 -41q-210 -125 -463 -148l-6 64q242 132 396 254zM156 336q0 80 41 271t89 421.5t60 382.5l254 19l18 -25q-187 -870 -198 -941q-6 -38 -6 -67q0 -108 60.5 -164.5t166.5 -56.5
q129 0 221.5 80.5t124.5 232.5q122 570 146 694.5t28 227.5l266 16l-202 -954q-34 -158 -131.5 -271.5t-227.5 -167.5t-280 -54q-195 0 -312.5 94t-117.5 262z" />
    <glyph glyph-name="uhungarumlaut" unicode="&#x171;" horiz-adv-x="1122" 
d="M786 1548l5 -43q-151 -192 -353 -334l-86 23q181 229 260 375zM1110 1548l6 -43q-156 -196 -352 -334l-86 23q173 219 260 375zM109 303l92 432l16 285l262 20q0 -87 -14 -184t-44.5 -242.5t-37.5 -181.5q-11 -62 -15 -101.5t0 -75.5t23 -52.5t53 -16.5q93 0 172 121
t127 316q38 180 48 288q4 74 4 109l256 20q-4 -71 -15 -152t-22 -139.5t-38 -191.5t-44 -221q-35 -158 -35 -336h-246q0 109 21 256h-2q-71 -138 -171.5 -207t-203.5 -69q-119 0 -168 87.5t-18 235.5z" />
    <glyph glyph-name="Uogonek" unicode="&#x172;" horiz-adv-x="1388" 
d="M156 336q0 80 41 271t89 421.5t60 382.5l254 19l18 -25q-187 -870 -198 -941q-6 -38 -6 -67q0 -108 60.5 -164.5t166.5 -56.5q129 0 221.5 80.5t124.5 232.5q122 570 146 694.5t28 227.5l266 16l-202 -954q-33 -150 -120.5 -258.5t-213.5 -169.5q-141 -82 -219 -164.5
t-78 -156.5q0 -70 80 -70q51 0 119 24l18 -88q-124 -88 -252 -88q-83 0 -132.5 40.5t-49.5 109.5q0 173 260 330q-16 -2 -51 -2q-195 0 -312.5 94t-117.5 262z" />
    <glyph glyph-name="uogonek" unicode="&#x173;" horiz-adv-x="1122" 
d="M109 303l92 432l16 285l262 20q0 -87 -14 -184t-44.5 -242.5t-37.5 -181.5q-11 -62 -15 -101.5t0 -75.5t23 -52.5t53 -16.5q93 0 172 121t127 316q38 180 48 288q4 74 4 109l256 20q-4 -71 -15 -152t-22 -139.5t-38 -191.5t-44 -221q-35 -158 -35 -336
q-134 -61 -211.5 -135.5t-77.5 -145.5q0 -65 82 -65q51 0 119 24l16 -88q-54 -39 -121.5 -63.5t-130.5 -24.5q-84 0 -133 39.5t-49 108.5q0 96 89 188t245 162h-74q0 109 21 256h-2q-71 -138 -171.5 -207t-203.5 -69q-119 0 -168 87.5t-18 235.5z" />
    <glyph glyph-name="Wcircumflex" unicode="&#x174;" horiz-adv-x="1968" 
d="M963 1579l-54 57q161 123 295 246l176 16q85 -133 199 -262l-80 -57q-89 45 -239 156q-173 -102 -297 -156zM319 -4l-100 1407l270 27l37 -781q12 -174 4 -397q41 101 185 405l364 756l244 17l41 -781q15 -265 10 -397q49 132 180 407l365 771l197 -17l10 -27l-690 -1390
h-260l-56 694q-6 87 -10 387h-6q-70 -167 -178 -389l-346 -692h-261z" />
    <glyph glyph-name="wcircumflex" unicode="&#x175;" horiz-adv-x="1544" 
d="M659 1155l-65 55q160 166 291 328l178 16q63 -164 160 -344l-90 -55q-78 70 -197 219q-179 -155 -277 -219zM1438 1040q58 0 88 -18t30 -66q0 -135 -138 -427.5t-322 -528.5h-277q25 363 19 745h-4q-120 -387 -367 -745h-274q0 582 -70 1020l260 18q55 -382 20 -862h5
q122 207 205.5 432t103.5 412h297q50 -375 16 -844h4q120 206 202.5 435.5t102.5 416.5q49 12 99 12z" />
    <glyph glyph-name="Ycircumflex" unicode="&#x176;" horiz-adv-x="1148" 
d="M578 1579l-52 57q148 114 293 246l178 16q90 -141 197 -262l-80 -57q-97 51 -240 156q-177 -103 -296 -156zM442 477l-223 926l273 27l90 -465q5 -33 16 -99.5t18.5 -120t10.5 -90.5h4q26 48 96 164.5t86 145.5l285 465l198 -17l11 -27l-615 -911l-100 -475h-252z" />
    <glyph glyph-name="ycircumflex" unicode="&#x177;" horiz-adv-x="958" 
d="M371 1155l-66 55q176 183 291 328l178 16q63 -164 160 -344l-90 -55q-85 76 -195 219q-176 -152 -278 -219zM850 1040q59 0 90 -18t31 -64q0 -65 -39.5 -179.5t-109.5 -251.5t-159 -284.5t-194 -284t-209.5 -246t-211 -175t-191.5 -65.5q-64 0 -101 36t-37 99q0 53 29 98
q57 -14 123 -14q125 0 254.5 90.5t208.5 218.5h-117q-9 601 -94 1020l260 20q71 -391 43 -860h4q127 214 216 440.5t108 407.5q49 12 96 12z" />
    <glyph glyph-name="Ydieresis" unicode="&#x178;" horiz-adv-x="1148" 
d="M1229 1778q0 -66 -57.5 -119t-129.5 -53q-48 0 -76 26t-28 66q0 64 58.5 117t129.5 53q46 0 74.5 -25t28.5 -65zM780 1778q0 -66 -57 -119t-129 -53q-48 0 -75 26t-27 66q0 64 57.5 117t128.5 53q46 0 74 -25t28 -65zM442 477l-223 926l273 27l90 -465q5 -33 16 -99.5
t18.5 -120t10.5 -90.5h4q26 48 96 164.5t86 145.5l285 465l198 -17l11 -27l-615 -911l-100 -475h-252z" />
    <glyph glyph-name="Zacute" unicode="&#x179;" horiz-adv-x="1075" 
d="M1100 1769l-21 -40q-257 -122 -573 -144l-6 64q291 131 477 254zM-29 0l-8 162l920 1040l-674 -12l61 219h889l29 -162l-912 -1040l693 14l-62 -221h-936z" />
    <glyph glyph-name="zacute" unicode="&#x17a;" horiz-adv-x="919" 
d="M817 1542l6 -41q-169 -195 -395 -332l-84 23q184 237 258 373zM53 -20l-80 118q467 486 656 707q-133 41 -230 41q-151 0 -239 -117l-72 43q58 153 133.5 210.5t184.5 57.5q141 0 335 -98q24 29 76 98q38 0 68 -20t30 -62q0 -77 -166 -272t-477 -483q28 4 52 4
q44 0 120.5 -15.5t108.5 -15.5q128 0 215 133l84 -49q-57 -161 -132.5 -220.5t-191.5 -59.5q-76 0 -187.5 26.5t-150.5 26.5q-71 0 -137 -53z" />
    <glyph glyph-name="Zdotaccent" unicode="&#x17b;" horiz-adv-x="1075" 
d="M958 1790q0 -74 -61.5 -131t-140.5 -57q-53 0 -86 28.5t-33 73.5q0 69 65.5 125.5t143.5 56.5q52 0 82 -26.5t30 -69.5zM-29 0l-8 162l920 1040l-674 -12l61 219h889l29 -162l-912 -1040l693 14l-62 -221h-936z" />
    <glyph glyph-name="zdotaccent" unicode="&#x17c;" horiz-adv-x="919" 
d="M743 1413q0 -79 -63 -143t-141 -64q-54 0 -85.5 31t-31.5 80q0 74 65 137.5t144 63.5q52 0 82 -28.5t30 -76.5zM53 -20l-80 118q467 486 656 707q-133 41 -230 41q-151 0 -239 -117l-72 43q58 153 133.5 210.5t184.5 57.5q141 0 335 -98q24 29 76 98q38 0 68 -20t30 -62
q0 -77 -166 -272t-477 -483q28 4 52 4q44 0 120.5 -15.5t108.5 -15.5q128 0 215 133l84 -49q-57 -161 -132.5 -220.5t-191.5 -59.5q-76 0 -187.5 26.5t-150.5 26.5q-71 0 -137 -53z" />
    <glyph glyph-name="Zcaron" unicode="&#x17d;" horiz-adv-x="1075" 
d="M1081 1903l52 -58q-152 -114 -293 -246l-178 -16q-97 151 -197 262l80 58q103 -54 239 -154q187 106 297 154zM-29 0l-8 162l920 1040l-674 -12l61 219h889l29 -162l-912 -1040l693 14l-62 -221h-936z" />
    <glyph glyph-name="zcaron" unicode="&#x17e;" horiz-adv-x="919" 
d="M860 1575l66 -55q-156 -159 -293 -328l-178 -16q-73 190 -160 344l90 55q78 -70 197 -219q158 137 278 219zM53 -20l-80 118q467 486 656 707q-133 41 -230 41q-151 0 -239 -117l-72 43q58 153 133.5 210.5t184.5 57.5q141 0 335 -98q24 29 76 98q38 0 68 -20t30 -62
q0 -77 -166 -272t-477 -483q28 4 52 4q44 0 120.5 -15.5t108.5 -15.5q128 0 215 133l84 -49q-57 -161 -132.5 -220.5t-191.5 -59.5q-76 0 -187.5 26.5t-150.5 26.5q-71 0 -137 -53z" />
    <glyph glyph-name="Schwa" unicode="&#x18f;" horiz-adv-x="1378" 
d="M197 770l55 45h784v4q0 418 -340 418q-171 0 -356 -98l35 190q63 36 181.5 68.5t242.5 32.5q243 0 376.5 -139.5t133.5 -409.5q0 -182 -60.5 -348t-163.5 -287.5t-246.5 -193.5t-303.5 -72q-197 0 -305.5 109t-108.5 317q0 31 3 64t7 60t10.5 57.5t12 50.5t13.5 46t12 37
t11 29.5t7 19.5zM375 434q0 -274 217 -274q165 0 283.5 147.5t150.5 372.5l-614 -29q-37 -109 -37 -217z" />
    <glyph glyph-name="florin" unicode="&#x192;" horiz-adv-x="1062" 
d="M358 604l-231 8l33 95l229 28h4l33 137q32 129 78 228.5t112.5 175t157 115t203.5 39.5q158 0 250 -64l-113 -192q-88 73 -174 73q-103 0 -164 -95.5t-106 -287.5l-33 -129h356l8 -24l-45 -107h-352l-149 -598q-10 -38 -17 -62t-22.5 -70.5t-30.5 -79t-40.5 -78
t-52 -76.5t-65 -65t-81 -55t-97.5 -34.5t-117 -13.5q-106 0 -204 43l73 192q87 -53 166 -53q51 0 90.5 22.5t65.5 65t42 85t30 101.5l165 676h-2z" />
    <glyph glyph-name="Nhookleft" unicode="&#x19d;" horiz-adv-x="1466" 
d="M-102 -395l-52 94q201 176 271 502l186 870q37 169 53 338l260 16q48 -129 123 -325t95 -248q131 -320 176 -522h4q16 129 37 243.5t86 421.5q55 266 69 414l236 18l22 -28l-299 -1399h-241q-40 99 -112.5 289.5t-109.5 279.5q-127 314 -174 498h-6q-22 -207 -76 -446
l-88 -420q-52 -237 -153 -370.5t-307 -225.5z" />
    <glyph glyph-name="Acaron" unicode="&#x1cd;" horiz-adv-x="1323" 
d="M1186 1903l53 -58q-162 -122 -295 -246l-178 -16q-97 151 -197 262l80 58q101 -52 240 -154q187 106 297 154zM182 0h-239l641 1198q59 109 106 217l289 12l33 -32l151 -1395h-254l-37 348h-503zM578 741l-113 -211h387l-23 211q-27 312 -24 453h-6q-89 -198 -221 -453z
" />
    <glyph glyph-name="acaron" unicode="&#x1ce;" horiz-adv-x="1122" 
d="M1032 1575l66 -55q-156 -159 -293 -328l-176 -16q-74 185 -160 344l88 55q78 -70 197 -219q158 137 278 219zM76 287q0 106 29 213t87 203.5t137.5 172t188 120t230.5 44.5q75 0 164.5 -16t158.5 -49l-82 -359q-92 -405 -92 -616h-246q0 144 41 371q-31 -72 -72 -138.5
t-92 -124.5t-113 -93t-124 -35q-100 0 -157.5 79t-57.5 228zM328 348q0 -77 24 -119.5t68 -42.5q62 0 135.5 92.5t127.5 213.5t85 235q8 43 31 137q-66 29 -111 29q-91 0 -176 -88t-134.5 -214.5t-49.5 -242.5z" />
    <glyph glyph-name="Icaron" unicode="&#x1cf;" horiz-adv-x="655" 
d="M877 1903l53 -58q-162 -122 -295 -246l-176 -16q-97 151 -197 262l78 58q101 -52 240 -154q207 114 297 154zM354 0h-252l226 1061q43 195 55 348l248 21l20 -29z" />
    <glyph glyph-name="icaron" unicode="&#x1d0;" horiz-adv-x="563" 
d="M629 1571l73 -37q-119 -184 -198 -340l-238 -16q-33 232 -61 356l90 37q66 -94 125 -225q108 138 209 225zM340 0h-244q0 196 76 547l41 188l16 285l263 20q0 -96 -24 -238t-52 -266.5t-52 -275t-24 -260.5z" />
    <glyph glyph-name="Ocaron" unicode="&#x1d1;" horiz-adv-x="1429" 
d="M1253 1903l54 -58q-162 -122 -295 -246l-176 -16q-90 140 -197 262l78 58q98 -50 239 -154q187 106 297 154zM1366 905q0 -136 -36 -271t-104.5 -252t-160.5 -207.5t-212.5 -142.5t-252.5 -52q-214 0 -334.5 134.5t-120.5 383.5q0 137 36 273t105 254t161 209t212 143.5
t250 52.5q215 0 336 -137.5t121 -387.5zM406 504q0 -160 59 -247t178 -87q105 0 195 69t147 177.5t89 236.5t32 252q0 160 -58 247t-176 87q-84 0 -159.5 -45.5t-130.5 -121.5t-95.5 -171.5t-60.5 -197.5t-20 -199z" />
    <glyph glyph-name="ocaron" unicode="&#x1d2;" horiz-adv-x="1101" 
d="M989 1575l66 -55q-176 -183 -291 -328l-178 -16q-63 164 -160 344l90 55q78 -70 197 -219q166 143 276 219zM1018 666q0 -127 -45 -250.5t-121.5 -220t-188 -156t-235.5 -59.5q-157 0 -248.5 94t-91.5 276q0 127 45.5 251.5t122.5 221.5t188 157t234 60q159 0 249.5 -97
t90.5 -277zM342 332q0 -205 129 -205q67 0 124.5 56.5t93 143t55.5 182t20 179.5q0 205 -129 205q-68 0 -125.5 -56t-93 -142t-55 -181.5t-19.5 -181.5z" />
    <glyph glyph-name="Ucaron" unicode="&#x1d3;" horiz-adv-x="1388" 
d="M1245 1903l53 -58q-157 -118 -294 -246l-177 -16q-92 144 -196 262l78 58q98 -50 239 -154q187 106 297 154zM156 336q0 80 41 271t89 421.5t60 382.5l254 19l18 -25q-187 -870 -198 -941q-6 -38 -6 -67q0 -108 60.5 -164.5t166.5 -56.5q129 0 221.5 80.5t124.5 232.5
q122 570 146 694.5t28 227.5l266 16l-202 -954q-34 -158 -131.5 -271.5t-227.5 -167.5t-280 -54q-195 0 -312.5 94t-117.5 262z" />
    <glyph glyph-name="ucaron" unicode="&#x1d4;" horiz-adv-x="1122" 
d="M967 1575l65 -55q-160 -166 -291 -328l-178 -16q-63 164 -160 344l91 55q75 -67 196 -219q162 140 277 219zM109 303l92 432l16 285l262 20q0 -87 -14 -184t-44.5 -242.5t-37.5 -181.5q-11 -62 -15 -101.5t0 -75.5t23 -52.5t53 -16.5q93 0 172 121t127 316q38 180 48 288
q4 74 4 109l256 20q-4 -71 -15 -152t-22 -139.5t-38 -191.5t-44 -221q-35 -158 -35 -336h-246q0 109 21 256h-2q-71 -138 -171.5 -207t-203.5 -69q-119 0 -168 87.5t-18 235.5z" />
    <glyph glyph-name="Udieresismacron" unicode="&#x1d5;" horiz-adv-x="1388" 
d="M756 2111l30 146h572l-31 -146h-571zM1331 1778q0 -66 -56 -119t-128 -53q-49 0 -77 26t-28 66q0 65 58.5 117.5t130.5 52.5q44 0 72 -25t28 -65zM883 1778q0 -66 -56.5 -119t-128.5 -53q-49 0 -76.5 26t-27.5 66q0 65 58 117.5t130 52.5q44 0 72.5 -25t28.5 -65z
M156 336q0 80 41 271t89 421.5t60 382.5l254 19l18 -25q-187 -870 -198 -941q-6 -38 -6 -67q0 -108 60.5 -164.5t166.5 -56.5q129 0 221.5 80.5t124.5 232.5q122 570 146 694.5t28 227.5l266 16l-202 -954q-34 -158 -131.5 -271.5t-227.5 -167.5t-280 -54q-195 0 -312.5 94
t-117.5 262z" />
    <glyph glyph-name="udieresismacron" unicode="&#x1d6;" horiz-adv-x="1122" 
d="M492 1780l28 141h582l-31 -141h-579zM618 1411q0 -75 -58.5 -136t-131.5 -61q-49 0 -76.5 29t-27.5 74q0 72 61 132t133 60q46 0 73 -27t27 -71zM1063 1411q0 -75 -59 -136t-132 -61q-49 0 -76.5 29t-27.5 74q0 72 61.5 132t133.5 60q46 0 73 -27t27 -71zM109 303l92 432
l16 285l262 20q0 -87 -14 -184t-44.5 -242.5t-37.5 -181.5q-11 -62 -15 -101.5t0 -75.5t23 -52.5t53 -16.5q93 0 172 121t127 316q38 180 48 288q4 74 4 109l256 20q-4 -71 -15 -152t-22 -139.5t-38 -191.5t-44 -221q-35 -158 -35 -336h-246q0 109 21 256h-2
q-71 -138 -171.5 -207t-203.5 -69q-119 0 -168 87.5t-18 235.5z" />
    <glyph glyph-name="Udieresisacute" unicode="&#x1d7;" horiz-adv-x="1388" 
d="M1360 2216l-21 -39q-259 -124 -573 -143l-6 63q284 125 477 252zM1331 1778q0 -66 -56 -119t-128 -53q-49 0 -77 26t-28 66q0 65 58.5 117.5t130.5 52.5q44 0 72 -25t28 -65zM883 1778q0 -66 -56.5 -119t-128.5 -53q-49 0 -76.5 26t-27.5 66q0 65 58 117.5t130 52.5
q44 0 72.5 -25t28.5 -65zM156 336q0 80 41 271t89 421.5t60 382.5l254 19l18 -25q-187 -870 -198 -941q-6 -38 -6 -67q0 -108 60.5 -164.5t166.5 -56.5q129 0 221.5 80.5t124.5 232.5q122 570 146 694.5t28 227.5l266 16l-202 -954q-34 -158 -131.5 -271.5t-227.5 -167.5
t-280 -54q-195 0 -312.5 94t-117.5 262z" />
    <glyph glyph-name="udieresisacute" unicode="&#x1d8;" horiz-adv-x="1122" 
d="M1030 2032l6 -41q-169 -195 -395 -332l-84 22q184 237 258 375zM618 1411q0 -75 -58.5 -136t-131.5 -61q-49 0 -76.5 29t-27.5 74q0 72 61 132t133 60q46 0 73 -27t27 -71zM1063 1411q0 -75 -59 -136t-132 -61q-49 0 -76.5 29t-27.5 74q0 72 61.5 132t133.5 60
q46 0 73 -27t27 -71zM109 303l92 432l16 285l262 20q0 -87 -14 -184t-44.5 -242.5t-37.5 -181.5q-11 -62 -15 -101.5t0 -75.5t23 -52.5t53 -16.5q93 0 172 121t127 316q38 180 48 288q4 74 4 109l256 20q-4 -71 -15 -152t-22 -139.5t-38 -191.5t-44 -221q-35 -158 -35 -336
h-246q0 109 21 256h-2q-71 -138 -171.5 -207t-203.5 -69q-119 0 -168 87.5t-18 235.5z" />
    <glyph glyph-name="Udieresiscaron" unicode="&#x1d9;" horiz-adv-x="1388" 
d="M1339 2425l66 -58q-161 -164 -293 -327l-176 -15q-76 186 -160 342l88 58q79 -71 197 -219q182 153 278 219zM1331 1778q0 -66 -56 -119t-128 -53q-49 0 -77 26t-28 66q0 65 58.5 117.5t130.5 52.5q44 0 72 -25t28 -65zM883 1778q0 -66 -56.5 -119t-128.5 -53
q-49 0 -76.5 26t-27.5 66q0 65 58 117.5t130 52.5q44 0 72.5 -25t28.5 -65zM156 336q0 80 41 271t89 421.5t60 382.5l254 19l18 -25q-187 -870 -198 -941q-6 -38 -6 -67q0 -108 60.5 -164.5t166.5 -56.5q129 0 221.5 80.5t124.5 232.5q122 570 146 694.5t28 227.5l266 16
l-202 -954q-34 -158 -131.5 -271.5t-227.5 -167.5t-280 -54q-195 0 -312.5 94t-117.5 262z" />
    <glyph glyph-name="udieresiscaron" unicode="&#x1da;" horiz-adv-x="1122" 
d="M1073 2064l66 -55q-156 -159 -293 -328l-178 -16q-73 190 -160 344l90 55q78 -70 197 -219q176 152 278 219zM618 1411q0 -75 -58.5 -136t-131.5 -61q-49 0 -76.5 29t-27.5 74q0 72 61 132t133 60q46 0 73 -27t27 -71zM1063 1411q0 -75 -59 -136t-132 -61q-49 0 -76.5 29
t-27.5 74q0 72 61.5 132t133.5 60q46 0 73 -27t27 -71zM109 303l92 432l16 285l262 20q0 -87 -14 -184t-44.5 -242.5t-37.5 -181.5q-11 -62 -15 -101.5t0 -75.5t23 -52.5t53 -16.5q93 0 172 121t127 316q38 180 48 288q4 74 4 109l256 20q-4 -71 -15 -152t-22 -139.5
t-38 -191.5t-44 -221q-35 -158 -35 -336h-246q0 109 21 256h-2q-71 -138 -171.5 -207t-203.5 -69q-119 0 -168 87.5t-18 235.5z" />
    <glyph glyph-name="Udieresisgrave" unicode="&#x1db;" horiz-adv-x="1388" 
d="M1300 2034q-311 20 -512 143l-4 39l179 133q158 -137 370 -252zM1331 1778q0 -66 -56 -119t-128 -53q-49 0 -77 26t-28 66q0 65 58.5 117.5t130.5 52.5q44 0 72 -25t28 -65zM883 1778q0 -66 -56.5 -119t-128.5 -53q-49 0 -76.5 26t-27.5 66q0 65 58 117.5t130 52.5
q44 0 72.5 -25t28.5 -65zM156 336q0 80 41 271t89 421.5t60 382.5l254 19l18 -25q-187 -870 -198 -941q-6 -38 -6 -67q0 -108 60.5 -164.5t166.5 -56.5q129 0 221.5 80.5t124.5 232.5q122 570 146 694.5t28 227.5l266 16l-202 -954q-34 -158 -131.5 -271.5t-227.5 -167.5
t-280 -54q-195 0 -312.5 94t-117.5 262z" />
    <glyph glyph-name="udieresisgrave" unicode="&#x1dc;" horiz-adv-x="1122" 
d="M877 1661q-173 147 -254 332l22 41l225 24q23 -166 103 -375zM618 1411q0 -75 -58.5 -136t-131.5 -61q-49 0 -76.5 29t-27.5 74q0 72 61 132t133 60q46 0 73 -27t27 -71zM1063 1411q0 -75 -59 -136t-132 -61q-49 0 -76.5 29t-27.5 74q0 72 61.5 132t133.5 60q46 0 73 -27
t27 -71zM109 303l92 432l16 285l262 20q0 -87 -14 -184t-44.5 -242.5t-37.5 -181.5q-11 -62 -15 -101.5t0 -75.5t23 -52.5t53 -16.5q93 0 172 121t127 316q38 180 48 288q4 74 4 109l256 20q-4 -71 -15 -152t-22 -139.5t-38 -191.5t-44 -221q-35 -158 -35 -336h-246
q0 109 21 256h-2q-71 -138 -171.5 -207t-203.5 -69q-119 0 -168 87.5t-18 235.5z" />
    <glyph glyph-name="Gcaron" unicode="&#x1e6;" horiz-adv-x="1341" 
d="M1257 1903l54 -58q-162 -122 -295 -246l-178 -16q-97 151 -197 262l80 58q101 -52 240 -154q191 108 296 154zM1208 641l21 -27l-119 -542q-195 -92 -436 -92q-260 0 -395.5 131t-135.5 385q0 142 41 280t118 255t179.5 207t233.5 141t272 51q94 0 190 -22.5t164 -64.5
l-88 -217q-128 101 -299 101q-121 0 -225 -60.5t-172.5 -158.5t-107.5 -220.5t-39 -248.5q0 -363 331 -363q80 0 158 17l8 36q28 133 39.5 207t20.5 185z" />
    <glyph glyph-name="gcaron" unicode="&#x1e7;" horiz-adv-x="987" 
d="M948 1575l66 -55q-156 -159 -293 -328l-176 -16q-74 185 -160 344l88 55q78 -70 197 -219q158 137 278 219zM285 -528q-188 0 -297 70.5t-109 178.5q0 148 217 236l54 -51q-48 -58 -48 -111q0 -88 61.5 -143t168.5 -55q102 0 170.5 47.5t68.5 111.5q0 49 -44 85.5
t-140 82.5q-37 18 -55 27.5t-45.5 27t-41 31.5t-24 34.5t-10.5 43.5q0 46 40.5 88t90.5 67t109 44v6q-25 -3 -43 0q-133 6 -213 87t-80 216q0 129 69 232t178.5 157.5t235.5 54.5q187 0 263 4t153 21q22 -22 22 -64q0 -37 -24 -67.5t-78 -30.5q-26 0 -53 6.5t-64 19.5
t-51 17l-2 -4q133 -75 133 -233q0 -74 -25 -139.5t-65 -112.5t-88.5 -87t-97.5 -69.5t-89 -54t-65 -47t-25 -41.5q0 -31 101 -80q4 -2 6.5 -3.5t5.5 -2.5q57 -28 97 -52t81 -58t62.5 -75.5t21.5 -89.5q0 -133 -151.5 -229t-380.5 -96zM668 743q0 77 -28 122.5t-81 45.5
q-56 0 -106.5 -52.5t-79.5 -130.5t-29 -155q0 -80 31 -126t86 -46q59 0 108 54t74 131.5t25 156.5z" />
    <glyph glyph-name="Oogonek" unicode="&#x1ea;" horiz-adv-x="1429" 
d="M918 63q-140 -77 -224 -165t-84 -170q0 -74 82 -74q51 0 119 24l16 -88q-54 -40 -122 -64t-132 -24q-83 0 -131.5 41.5t-48.5 116.5q0 82 63 165t175 155h-31q-214 0 -334.5 134.5t-120.5 383.5q0 137 36 273t105 254t161 209t212 143.5t250 52.5q215 0 336 -137.5
t121 -387.5q0 -258 -122.5 -492t-325.5 -350zM406 504q0 -160 59 -247t178 -87q105 0 195 69t147 177.5t89 236.5t32 252q0 160 -58 247t-176 87q-84 0 -159.5 -45.5t-130.5 -121.5t-95.5 -171.5t-60.5 -197.5t-20 -199z" />
    <glyph glyph-name="oogonek" unicode="&#x1eb;" horiz-adv-x="1101" 
d="M709 63q-144 -109 -219.5 -192t-75.5 -150t80 -67q50 0 118 24l19 -88q-124 -88 -254 -88q-82 0 -131 40.5t-49 109.5q0 78 66 162.5t186 165.5h-21q-157 0 -248.5 94t-91.5 276q0 127 45.5 251.5t122.5 221.5t188 157t234 60q159 0 249.5 -97t90.5 -277t-85 -345.5
t-226 -257.5h2zM342 332q0 -205 129 -205q67 0 124.5 56.5t93 143t55.5 182t20 179.5q0 205 -129 205q-68 0 -125.5 -56t-93 -142t-55 -181.5t-19.5 -181.5z" />
    <glyph glyph-name="Gacute" unicode="&#x1f4;" horiz-adv-x="1341" 
d="M1276 1769l-21 -40q-254 -122 -573 -144l-6 64q291 131 477 254zM1208 641l21 -27l-119 -542q-195 -92 -436 -92q-260 0 -395.5 131t-135.5 385q0 142 41 280t118 255t179.5 207t233.5 141t272 51q94 0 190 -22.5t164 -64.5l-88 -217q-128 101 -299 101
q-121 0 -225 -60.5t-172.5 -158.5t-107.5 -220.5t-39 -248.5q0 -363 331 -363q80 0 158 17l8 36q28 133 39.5 207t20.5 185z" />
    <glyph glyph-name="gacute" unicode="&#x1f5;" horiz-adv-x="987" 
d="M907 1542l4 -41q-169 -195 -395 -332l-84 23q184 237 258 373zM285 -528q-188 0 -297 70.5t-109 178.5q0 148 217 236l54 -51q-48 -58 -48 -111q0 -88 61.5 -143t168.5 -55q102 0 170.5 47.5t68.5 111.5q0 49 -44 85.5t-140 82.5q-37 18 -55 27.5t-45.5 27t-41 31.5
t-24 34.5t-10.5 43.5q0 46 40.5 88t90.5 67t109 44v6q-25 -3 -43 0q-133 6 -213 87t-80 216q0 129 69 232t178.5 157.5t235.5 54.5q187 0 263 4t153 21q22 -22 22 -64q0 -37 -24 -67.5t-78 -30.5q-26 0 -53 6.5t-64 19.5t-51 17l-2 -4q133 -75 133 -233q0 -74 -25 -139.5
t-65 -112.5t-88.5 -87t-97.5 -69.5t-89 -54t-65 -47t-25 -41.5q0 -31 101 -80q4 -2 6.5 -3.5t5.5 -2.5q57 -28 97 -52t81 -58t62.5 -75.5t21.5 -89.5q0 -133 -151.5 -229t-380.5 -96zM668 743q0 77 -28 122.5t-81 45.5q-56 0 -106.5 -52.5t-79.5 -130.5t-29 -155
q0 -80 31 -126t86 -46q59 0 108 54t74 131.5t25 156.5z" />
    <glyph glyph-name="Aringacute" unicode="&#x1fa;" horiz-adv-x="1323" 
d="M1313 2288l-21 -41q-262 -125 -573 -144l-6 64q287 126 477 254zM1126 1798q0 -97 -86 -174.5t-192 -77.5q-76 0 -122 41t-46 105q0 92 89 168.5t198 76.5q73 0 116 -38t43 -101zM795 1712q0 -34 21.5 -55t57.5 -21q54 0 96 44t42 98q0 33 -19.5 52t-54.5 19
q-55 0 -99 -42t-44 -95zM182 0h-239l641 1198q59 109 106 217l289 12l33 -32l151 -1395h-254l-37 348h-503zM578 741l-113 -211h387l-23 211q-27 312 -24 453h-6q-89 -198 -221 -453z" />
    <glyph glyph-name="aringacute" unicode="&#x1fb;" horiz-adv-x="1122" 
d="M1106 2081l4 -43q-170 -194 -395 -330l-84 23q186 239 258 372zM981 1419q0 -96 -86.5 -174t-192.5 -78q-76 0 -123 41t-47 103q0 92 90 170t197 78q73 0 117.5 -39t44.5 -101zM649 1331q0 -33 21.5 -54.5t58.5 -21.5q52 0 93.5 44t41.5 98q0 33 -19 52t-54 19
q-54 0 -98 -42.5t-44 -94.5zM76 287q0 106 29 213t87 203.5t137.5 172t188 120t230.5 44.5q75 0 164.5 -16t158.5 -49l-82 -359q-92 -405 -92 -616h-246q0 144 41 371q-31 -72 -72 -138.5t-92 -124.5t-113 -93t-124 -35q-100 0 -157.5 79t-57.5 228zM328 348
q0 -77 24 -119.5t68 -42.5q62 0 135.5 92.5t127.5 213.5t85 235q8 43 31 137q-66 29 -111 29q-91 0 -176 -88t-134.5 -214.5t-49.5 -242.5z" />
    <glyph glyph-name="AEacute" unicode="&#x1fc;" horiz-adv-x="1828" 
d="M1524 1769l-21 -40q-255 -122 -573 -144l-6 64q291 131 477 254zM182 0h-239l831 1198q27 40 66 101.5t71 109.5h865l20 -29l-41 -168l-543 13l-47 -445l463 8l-45 -182l-436 8l-45 -432l575 15l-41 -197h-809l45 348h-450zM694 741l-145 -211h346l27 211q35 240 69 453
h-6q-126 -212 -291 -453z" />
    <glyph glyph-name="aeacute" unicode="&#x1fd;" horiz-adv-x="1595" 
d="M1227 1542l4 -41q-167 -194 -393 -332l-86 23q183 236 260 373zM78 301q0 106 28.5 211t86.5 200t137.5 168.5t190.5 116.5t237 43q156 0 301 -53q109 53 221 53q131 0 210 -65.5t79 -177.5q0 -150 -158.5 -251t-468.5 -120q-2 -16 -2 -49q0 -106 50.5 -169t146.5 -63
q136 0 280 127l37 -96q-77 -93 -188 -144.5t-226 -51.5q-159 0 -256.5 96t-97.5 274q-32 -70 -72.5 -133t-90.5 -117.5t-109 -87t-117 -32.5q-101 0 -160 84t-59 237zM1241 897q-67 0 -128 -61t-99.5 -146.5t-59.5 -181.5q198 25 292.5 102t94.5 181q0 52 -26.5 79t-73.5 27
zM330 348q0 -78 24 -120t68 -42q52 0 112 65.5t109 156.5t90 198q45 124 137 234q-84 53 -163 53q-77 0 -149 -52.5t-121 -133.5t-78 -176.5t-29 -182.5z" />
    <glyph glyph-name="Oslashacute" unicode="&#x1fe;" horiz-adv-x="1429" 
d="M1272 1769l-21 -40q-255 -122 -573 -144l-6 64q291 131 477 254zM1366 905q0 -136 -36 -271t-104.5 -252t-160.5 -207.5t-212.5 -142.5t-252.5 -52q-245 0 -364 172l-185 -168l-78 84l209 192q-37 101 -37 238t36 273t105 254t161 209t212 143.5t250 52.5q237 0 359 -166
l176 163l82 -81l-203 -187q43 -107 43 -254zM406 504v-35l673 621q-54 149 -207 149q-84 0 -159.5 -45.5t-130.5 -121.5t-95.5 -171.5t-60.5 -197.5t-20 -199zM1106 905q0 8 -1 24.5t-1 24.5l-676 -622q55 -162 215 -162q105 0 195 69t147 177.5t89 236.5t32 252z" />
    <glyph glyph-name="oslashacute" unicode="&#x1ff;" horiz-adv-x="1101" 
d="M948 1542l6 -41q-169 -195 -395 -332l-84 23q184 237 258 373zM1018 666q0 -127 -45 -250.5t-121.5 -220t-188 -156t-235.5 -59.5q-178 0 -266 114l-146 -127l-71 86l166 144q-23 71 -23 153q0 127 45.5 251.5t122.5 221.5t188 157t234 60q178 0 266 -116l148 129l71 -84
l-168 -146q23 -77 23 -157zM635 893q-61 0 -114 -46t-89 -120t-58.5 -158t-29.5 -168l416 361q-21 131 -125 131zM471 127q60 0 113 46t88.5 119.5t58.5 157.5t31 168l-416 -362q22 -129 125 -129z" />
    <glyph glyph-name="Scommaaccent" unicode="&#x218;" horiz-adv-x="1085" 
d="M961 422q0 -192 -164.5 -317t-423.5 -125q-101 0 -203.5 20t-161.5 55l64 213q66 -43 166.5 -67.5t177.5 -24.5q124 0 200 60t76 155q0 25 -7 48t-15.5 40.5t-27.5 37.5t-31 31.5t-39 29.5t-39.5 26t-43.5 26t-40 23q-52 30 -87.5 56.5t-73 66.5t-56.5 92t-19 115
q0 191 170 319t428 128q91 0 176 -16.5t139 -43.5l-77 -217q-60 39 -136.5 59.5t-146.5 20.5q-124 0 -204.5 -60.5t-80.5 -152.5q0 -31 11 -58.5t24 -46t43.5 -42.5t48.5 -35.5t60.5 -37t60.5 -36.5q49 -31 83.5 -58t72 -68.5t57 -96t19.5 -119.5zM176 -649q98 105 141 194
q-41 5 -62.5 37.5t-14.5 79.5q8 60 57 107t113 47q55 0 84.5 -36.5t17.5 -103.5q-23 -167 -272 -387z" />
    <glyph glyph-name="scommaaccent" unicode="&#x219;" horiz-adv-x="894" 
d="M854 987l-59 -188q-121 75 -246 75q-77 0 -126.5 -36t-49.5 -93q0 -34 21.5 -62.5t55.5 -49t75.5 -41t82.5 -45t75 -54t55.5 -75t21.5 -101.5q0 -148 -131 -242.5t-322 -94.5q-84 0 -166 19t-135 54l57 187q64 -45 144 -70t143 -25q77 0 126.5 37.5t49.5 93.5
q0 33 -21.5 61t-56 49t-76 41.5t-82.5 45t-75.5 54t-56 74t-21.5 99.5q0 98 64 176.5t167.5 121t223.5 42.5q138 0 262 -53zM92 -649q95 98 144 194q-41 5 -63.5 37.5t-16.5 79.5q8 59 58 106.5t114 47.5q55 0 83.5 -36.5t18.5 -103.5q-23 -167 -272 -387z" />
    <glyph glyph-name="Tcommaaccent" unicode="&#x21a;" horiz-adv-x="1103" 
d="M569 0h-252l258 1221q-100 -1 -413 -15l57 203h1045l-27 -203q-309 14 -410 15zM178 -649q95 98 144 194q-42 5 -64.5 37.5t-15.5 79.5q8 59 58 106.5t114 47.5q53 0 82.5 -37t19.5 -103q-27 -173 -274 -387z" />
    <glyph glyph-name="tcommaaccent" unicode="&#x21b;" horiz-adv-x="763" 
d="M774 887l-285 4q-17 -78 -44 -205q-55 -253 -67.5 -318.5t-12.5 -97.5q0 -114 114 -114q80 0 170 51l-12 -156q-134 -71 -275 -71q-247 0 -247 239q0 45 13 113.5t67 323.5q31 146 51 239l-142 2l19 92l156 31l112 252l158 12l24 -29l-57 -235h279l14 -29zM74 -649
q92 96 143 194q-41 5 -63.5 37.5t-16.5 79.5q8 59 58 106.5t114 47.5q55 0 84 -36.5t19 -103.5q-23 -166 -273 -387z" />
    <glyph glyph-name="Ymacron" unicode="&#x232;" horiz-adv-x="1148" 
d="M557 1663l31 147h571l-31 -147h-571zM442 477l-223 926l273 27l90 -465q5 -33 16 -99.5t18.5 -120t10.5 -90.5h4q26 48 96 164.5t86 145.5l285 465l198 -17l11 -27l-615 -911l-100 -475h-252z" />
    <glyph glyph-name="ymacron" unicode="&#x233;" horiz-adv-x="958" 
d="M315 1290l31 142h580l-29 -142h-582zM850 1040q59 0 90 -18t31 -64q0 -65 -39.5 -179.5t-109.5 -251.5t-159 -284.5t-194 -284t-209.5 -246t-211 -175t-191.5 -65.5q-64 0 -101 36t-37 99q0 53 29 98q57 -14 123 -14q125 0 254.5 90.5t208.5 218.5h-117q-9 601 -94 1020
l260 20q71 -391 43 -860h4q127 214 216 440.5t108 407.5q49 12 96 12z" />
    <glyph glyph-name="dotlessj" unicode="&#x237;" horiz-adv-x="528" 
d="M-98 -528l-80 88q86 95 139 202.5t84 249.5l154 723l16 285l262 20q0 -51 -6.5 -112t-26 -165t-33.5 -173t-51 -242.5t-57 -267.5q-48 -230 -135.5 -369t-265.5 -239z" />
    <glyph glyph-name="schwa" unicode="&#x259;" horiz-adv-x="980" 
d="M164 784l14 170q68 38 159.5 62t178.5 24q173 0 276 -97t103 -277q0 -167 -86.5 -326.5t-229 -259.5t-294.5 -100q-121 0 -196 60.5t-75 170.5q0 71 35.5 135t107 118.5t196.5 89t288 40.5q0 8 1 24.5t1 24.5q0 107 -51 169t-152 62q-121 0 -276 -90zM242 229
q0 -53 25.5 -80.5t72.5 -27.5q67 0 128 61t100 147.5t59 182.5q-198 -25 -291.5 -102.5t-93.5 -180.5z" />
    <glyph glyph-name="nhookleft" unicode="&#x272;" horiz-adv-x="1230" 
d="M10 -471l-80 88q72 103 119 208t78 245l141 665l17 285l262 20q0 -88 -31 -286h4q75 143 181.5 214.5t213.5 71.5q120 0 169.5 -86.5t17.5 -236.5l-86 -408q-27 -126 -27 -309h-244q0 108 18 223.5t68 364.5q17 86 18 136.5t-18.5 80t-64.5 29.5q-109 0 -202.5 -153.5
t-137.5 -385.5q-31 -149 -33 -158q-40 -223 -127.5 -364t-255.5 -244z" />
    <glyph glyph-name="circumflex" unicode="&#x2c6;" horiz-adv-x="821" 
d="M311 1155l-65 57q183 190 293 326l176 16q83 -204 159 -342l-90 -57q-73 67 -194 219q-177 -149 -279 -219z" />
    <glyph glyph-name="caron" unicode="&#x2c7;" horiz-adv-x="821" 
d="M877 1581l65 -57q-151 -154 -293 -326l-178 -16q-78 199 -160 342l90 57q84 -78 197 -219q177 149 279 219z" />
    <glyph glyph-name="breve" unicode="&#x2d8;" horiz-adv-x="772" 
d="M793 1536l100 8q-45 -152 -145 -245t-224 -93q-115 0 -173 85.5t-38 230.5l103 14q3 -75 44.5 -119.5t110.5 -44.5q67 0 127.5 45.5t94.5 118.5z" />
    <glyph glyph-name="dotaccent" unicode="&#x2d9;" horiz-adv-x="501" 
d="M592 1413q0 -79 -64 -143t-143 -64q-53 0 -84 31t-31 78q0 75 65 139t144 64q52 0 82.5 -28.5t30.5 -76.5z" />
    <glyph glyph-name="ring" unicode="&#x2da;" horiz-adv-x="626" 
d="M719 1417q0 -96 -86.5 -173t-194.5 -77q-75 0 -121.5 40.5t-46.5 103.5q0 92 89 168.5t198 76.5q73 0 117.5 -38t44.5 -101zM387 1331q0 -34 21 -55t59 -21q52 0 93.5 44t41.5 98q0 33 -19.5 52t-54.5 19q-55 0 -98 -42t-43 -95z" />
    <glyph glyph-name="ogonek" unicode="&#x2db;" horiz-adv-x="745" 
d="M487 0q-134 -61 -211 -135.5t-77 -145.5q0 -65 82 -65q50 0 118 24l17 -88q-54 -39 -121.5 -63.5t-130.5 -24.5q-84 0 -133 39.5t-49 108.5q0 106 107.5 207t293.5 170z" />
    <glyph glyph-name="tilde" unicode="&#x2dc;" horiz-adv-x="851" 
d="M508 1513q41 0 81.5 -18t67.5 -39t61.5 -39t65.5 -18q38 0 69.5 25t68.5 75l69 -10q-20 -72 -54 -133.5t-88 -104.5t-114 -43q-39 0 -81.5 18.5t-72.5 40t-66 40t-64 18.5q-63 0 -136 -102l-67 12q14 52 36.5 98.5t54 88t75.5 66.5t94 25z" />
    <glyph glyph-name="hungarumlaut" unicode="&#x2dd;" horiz-adv-x="837" 
d="M674 1548l4 -43q-153 -193 -352 -334l-86 23q181 229 260 375zM999 1548l5 -43q-154 -195 -353 -334l-86 23q173 219 260 375z" />
    <glyph glyph-name="Delta" unicode="&#x394;" horiz-adv-x="1306" 
d="M711 1413h274l170 -1372l-12 -41h-1196l4 41zM256 184h612l-104 944z" />
    <glyph glyph-name="Omega" unicode="&#x3a9;" horiz-adv-x="1603" 
d="M563 0h-555l6 176l33 29l420 -84q-108 74 -171 215t-63 309q0 162 60 308t161.5 250t240.5 165.5t290 61.5q235 0 366.5 -137t131.5 -353q0 -158 -70.5 -320.5t-184.5 -290.5t-249 -206l446 82l23 -29l-72 -176h-555l-2 111q173 148 284 371t111 425q0 152 -69.5 242
t-200.5 90q-129 0 -234.5 -85.5t-167 -238.5t-61.5 -342q0 -277 129 -462z" />
    <glyph glyph-name="mu" unicode="&#x3bc;" horiz-adv-x="1122" 
d="M651 0q0 109 21 256h-2q-71 -138 -171.5 -207t-203.5 -69q-35 0 -62 12q10 -93 -2.5 -264t-11.5 -213l-244 -11q0 104 26.5 263.5t98.5 498.5l101 469l16 285l262 20q0 -87 -14 -184t-44.5 -242.5t-37.5 -181.5q-11 -62 -15 -101.5t0 -75.5t23 -52.5t53 -16.5
q93 0 172 121t127 316q38 180 48 288q4 74 4 109l256 20q-2 -49 -8 -100.5t-11 -90.5t-18.5 -109.5t-21 -109t-28.5 -140t-32 -154.5q-35 -158 -35 -336h-246z" />
    <glyph glyph-name="pi" unicode="&#x3c0;" horiz-adv-x="1288" 
d="M94 848l74 176l1188 16l10 -28l-76 -150l-166 -2q-108 -452 -118 -608q0 -33 9.5 -49.5t39.5 -16.5q37 0 86 17l-56 -203q-75 -20 -153 -20q-94 0 -139.5 45t-44.5 143q1 55 19 159.5t38 199t72 331.5l-324 -4q-5 -22 -28.5 -129.5t-30.5 -141t-25.5 -123t-25.5 -133.5
t-17.5 -111.5t-14 -118.5t-3.5 -97h-244q0 119 28 290t97 488l14 72z" />
    <glyph glyph-name="Ddotbelow" unicode="&#x1e0c;" horiz-adv-x="1452" 
d="M1384 881q0 -136 -37.5 -265t-112 -240.5t-179 -195.5t-247 -132t-306.5 -48h-400l228 1071q46 214 53 338h442q271 0 415 -131.5t144 -396.5zM760 1227h-146l-221 -1045h164q111 0 205 39.5t159 105.5t110.5 153.5t67 182t21.5 191.5q0 89 -19.5 156t-51.5 107.5
t-79.5 65.5t-97.5 34.5t-112 9.5zM705 -281q0 -79 -63.5 -142.5t-143.5 -63.5q-54 0 -84.5 30.5t-30.5 79.5q0 74 65 137.5t144 63.5q52 0 82.5 -28.5t30.5 -76.5z" />
    <glyph glyph-name="ddotbelow" unicode="&#x1e0d;" horiz-adv-x="1124" 
d="M899 0h-244q0 145 43 377q-43 -107 -100 -193t-138.5 -145t-168.5 -59q-100 0 -157.5 78.5t-57.5 226.5q0 106 29 213.5t87 204.5t136 172.5t185 120t226 44.5q51 0 95 -8l47 215l16 285l262 20q0 -129 -40.5 -348.5t-89.5 -419t-89.5 -423.5t-40.5 -361zM328 348
q0 -77 24 -119.5t68 -42.5q47 0 102.5 54t102 136.5t85 175.5t58.5 175q6 24 12 51l19 86q-66 29 -111 29q-91 0 -176 -88t-134.5 -214.5t-49.5 -242.5zM575 -281q0 -79 -63 -142.5t-141 -63.5q-54 0 -85.5 31t-31.5 79q0 74 65 137.5t144 63.5q52 0 82 -28.5t30 -76.5z" />
    <glyph glyph-name="Hdotbelow" unicode="&#x1e24;" horiz-adv-x="1486" 
d="M354 0h-252l226 1061q45 219 55 348l248 21l20 -29l-129 -610h580l57 270q43 195 55 348l248 21l21 -29l-297 -1401h-252l129 608h-580zM725 -281q0 -79 -63.5 -142.5t-141.5 -63.5q-54 0 -85.5 31t-31.5 79q0 74 65 137.5t146 63.5q52 0 81.5 -28.5t29.5 -76.5z" />
    <glyph glyph-name="hdotbelow" unicode="&#x1e25;" horiz-adv-x="1163" 
d="M340 0h-244q0 111 26.5 276.5t98.5 501.5l101 469l16 285l262 20q0 -97 -23.5 -246t-45 -248t-68.5 -304h6q74 142 180.5 214t212.5 72q95 0 146 -53.5t51 -152.5q0 -51 -13 -119.5t-73 -345.5q-39 -180 -39 -369h-244q0 182 67 486q1 5 1.5 8t1.5 7.5t2 8.5
q37 174 37 223q0 101 -86 101q-97 0 -182.5 -120.5t-136 -312t-54.5 -401.5zM606 -281q0 -79 -63.5 -142.5t-143.5 -63.5q-53 0 -83.5 31t-30.5 79q0 74 65 137.5t144 63.5q52 0 82 -28.5t30 -76.5z" />
    <glyph glyph-name="Ndotaccent" unicode="&#x1e44;" horiz-adv-x="1495" 
d="M1153 1790q0 -74 -62 -131t-141 -57q-55 0 -87 28.5t-32 73.5q0 69 65 125.5t144 56.5q51 0 82 -26.5t31 -69.5zM862 852q68 -178 107 -294.5t67 -242.5h4q15 128 36.5 244t88.5 436q50 234 70 414l233 18l23 -28l-297 -1399h-244q-44 109 -115 297.5t-104 271.5
q-130 331 -176 514h-4q-23 -225 -78 -462l-131 -621h-240l228 1071q41 185 53 338l260 16q200 -524 219 -573z" />
    <glyph glyph-name="ndotaccent" unicode="&#x1e45;" horiz-adv-x="1163" 
d="M893 1413q0 -79 -63.5 -143t-143.5 -64q-53 0 -84 31.5t-31 79.5q0 74 65 137.5t144 63.5q52 0 82.5 -28.5t30.5 -76.5zM340 0h-244q0 136 26.5 295t90.5 440l16 285l263 20q0 -88 -31 -286h4q75 143 181.5 214.5t215.5 71.5q94 0 145.5 -52.5t51.5 -143.5
q0 -81 -62 -364q-5 -25 -8 -38q-33 -154 -44 -240.5t-11 -201.5h-244q0 102 13.5 198t46.5 259q45 225 45 272q0 105 -84 105q-93 0 -177.5 -118t-137 -311t-56.5 -405z" />
    <glyph glyph-name="Rdotbelow" unicode="&#x1e5a;" horiz-adv-x="1261" 
d="M354 0h-252l228 1071q43 192 53 338h397q223 0 342 -89.5t119 -254.5q0 -161 -96.5 -289t-265.5 -188l223 -588l-285 -23q-92 262 -170 541h-184zM729 1233h-113l-116 -545h104q173 0 274 93.5t101 244.5q0 207 -250 207zM627 -281q0 -79 -63.5 -142.5t-143.5 -63.5
q-53 0 -84 31t-31 79q0 74 65 137.5t144 63.5q52 0 82.5 -28.5t30.5 -76.5z" />
    <glyph glyph-name="rdotbelow" unicode="&#x1e5b;" horiz-adv-x="825" 
d="M340 0h-244q0 196 76 547l41 188l16 285l263 20q0 -120 -50 -370h4q69 192 157.5 281t180.5 89q42 0 79 -17t59 -42l-121 -223q-59 24 -111 24q-100 0 -179 -109.5t-122 -285.5t-49 -387zM315 -281q0 -79 -63.5 -142.5t-142.5 -63.5q-53 0 -84 31t-31 79q0 74 65 137.5
t144 63.5q52 0 82 -28.5t30 -76.5z" />
    <glyph glyph-name="Sdotbelow" unicode="&#x1e62;" horiz-adv-x="1085" 
d="M961 422q0 -192 -164.5 -317t-423.5 -125q-101 0 -203.5 20t-161.5 55l64 213q66 -43 166.5 -67.5t177.5 -24.5q124 0 200 60t76 155q0 25 -7 48t-15.5 40.5t-27.5 37.5t-31 31.5t-39 29.5t-39.5 26t-43.5 26t-40 23q-52 30 -87.5 56.5t-73 66.5t-56.5 92t-19 115
q0 191 170 319t428 128q91 0 176 -16.5t139 -43.5l-77 -217q-60 39 -136.5 59.5t-146.5 20.5q-124 0 -204.5 -60.5t-80.5 -152.5q0 -31 11 -58.5t24 -46t43.5 -42.5t48.5 -35.5t60.5 -37t60.5 -36.5q49 -31 83.5 -58t72 -68.5t57 -96t19.5 -119.5zM532 -281
q0 -79 -64 -142.5t-142 -63.5q-54 0 -84.5 30.5t-30.5 79.5q0 75 64 138t145 63q52 0 82 -28.5t30 -76.5z" />
    <glyph glyph-name="sdotbelow" unicode="&#x1e63;" horiz-adv-x="894" 
d="M854 987l-59 -188q-121 75 -246 75q-77 0 -126.5 -36t-49.5 -93q0 -34 21.5 -62.5t55.5 -49t75.5 -41t82.5 -45t75 -54t55.5 -75t21.5 -101.5q0 -148 -131 -242.5t-322 -94.5q-84 0 -166 19t-135 54l57 187q64 -45 144 -70t143 -25q77 0 126.5 37.5t49.5 93.5
q0 33 -21.5 61t-56 49t-76 41.5t-82.5 45t-75.5 54t-56 74t-21.5 99.5q0 98 64 176.5t167.5 121t223.5 42.5q138 0 262 -53zM449 -281q0 -79 -63.5 -142.5t-141.5 -63.5q-54 0 -85.5 31t-31.5 79q0 74 65 137.5t144 63.5q52 0 82.5 -28.5t30.5 -76.5z" />
    <glyph glyph-name="Tdotbelow" unicode="&#x1e6c;" horiz-adv-x="1103" 
d="M569 0h-252l258 1221q-100 -1 -413 -15l57 203h1045l-27 -203q-309 14 -410 15zM535 -281q0 -79 -63.5 -142.5t-143.5 -63.5q-53 0 -84 31t-31 79q0 74 65 137.5t144 63.5q52 0 82.5 -28.5t30.5 -76.5z" />
    <glyph glyph-name="tdotbelow" unicode="&#x1e6d;" horiz-adv-x="763" 
d="M774 887l-285 4q-17 -78 -44 -205q-55 -253 -67.5 -318.5t-12.5 -97.5q0 -114 114 -114q80 0 170 51l-12 -156q-134 -71 -275 -71q-247 0 -247 239q0 45 13 113.5t67 323.5q31 146 51 239l-142 2l19 92l156 31l112 252l158 12l24 -29l-57 -235h279l14 -29zM430 -281
q0 -79 -63.5 -142.5t-141.5 -63.5q-54 0 -85 30.5t-31 79.5q0 74 64.5 137.5t143.5 63.5q52 0 82.5 -28.5t30.5 -76.5z" />
    <glyph glyph-name="Wgrave" unicode="&#x1e80;" horiz-adv-x="1968" 
d="M1485 1585q-308 23 -510 144l-4 40l178 134q142 -129 371 -254zM319 -4l-100 1407l270 27l37 -781q12 -174 4 -397q41 101 185 405l364 756l244 17l41 -781q15 -265 10 -397q49 132 180 407l365 771l197 -17l10 -27l-690 -1390h-260l-56 694q-6 87 -10 387h-6
q-70 -167 -178 -389l-346 -692h-261z" />
    <glyph glyph-name="wgrave" unicode="&#x1e81;" horiz-adv-x="1544" 
d="M989 1171q-173 147 -254 332l23 41l225 25q24 -170 102 -375zM1438 1040q58 0 88 -18t30 -66q0 -135 -138 -427.5t-322 -528.5h-277q25 363 19 745h-4q-120 -387 -367 -745h-274q0 582 -70 1020l260 18q55 -382 20 -862h5q122 207 205.5 432t103.5 412h297
q50 -375 16 -844h4q120 206 202.5 435.5t102.5 416.5q49 12 99 12z" />
    <glyph glyph-name="Wacute" unicode="&#x1e82;" horiz-adv-x="1968" 
d="M1546 1769l-22 -40q-255 -122 -574 -144l-6 64q297 134 479 254zM319 -4l-100 1407l270 27l37 -781q12 -174 4 -397q41 101 185 405l364 756l244 17l41 -781q15 -265 10 -397q49 132 180 407l365 771l197 -17l10 -27l-690 -1390h-260l-56 694q-6 87 -10 387h-6
q-70 -167 -178 -389l-346 -692h-261z" />
    <glyph glyph-name="wacute" unicode="&#x1e83;" horiz-adv-x="1544" 
d="M1145 1542l4 -41q-169 -195 -395 -332l-84 23q184 237 258 373zM1438 1040q58 0 88 -18t30 -66q0 -135 -138 -427.5t-322 -528.5h-277q25 363 19 745h-4q-120 -387 -367 -745h-274q0 582 -70 1020l260 18q55 -382 20 -862h5q122 207 205.5 432t103.5 412h297
q50 -375 16 -844h4q120 206 202.5 435.5t102.5 416.5q49 12 99 12z" />
    <glyph glyph-name="Wdieresis" unicode="&#x1e84;" horiz-adv-x="1968" 
d="M1612 1778q0 -66 -56.5 -119t-128.5 -53q-48 0 -76 26t-28 66q0 65 58 117.5t130 52.5q45 0 73 -25t28 -65zM1163 1778q0 -66 -56 -119t-128 -53q-48 0 -76.5 26.5t-28.5 65.5q0 64 59 117t130 53q45 0 72.5 -25t27.5 -65zM319 -4l-100 1407l270 27l37 -781
q12 -174 4 -397q41 101 185 405l364 756l244 17l41 -781q15 -265 10 -397q49 132 180 407l365 771l197 -17l10 -27l-690 -1390h-260l-56 694q-6 87 -10 387h-6q-70 -167 -178 -389l-346 -692h-261z" />
    <glyph glyph-name="wdieresis" unicode="&#x1e85;" horiz-adv-x="1544" 
d="M836 1411q0 -75 -59 -136t-132 -61q-48 0 -76 29.5t-28 73.5q0 72 61 132t133 60q47 0 74 -26.5t27 -71.5zM1280 1411q0 -75 -58.5 -136t-131.5 -61q-49 0 -77 29t-28 74q0 72 61.5 132t133.5 60q46 0 73 -27t27 -71zM1438 1040q58 0 88 -18t30 -66q0 -135 -138 -427.5
t-322 -528.5h-277q25 363 19 745h-4q-120 -387 -367 -745h-274q0 582 -70 1020l260 18q55 -382 20 -862h5q122 207 205.5 432t103.5 412h297q50 -375 16 -844h4q120 206 202.5 435.5t102.5 416.5q49 12 99 12z" />
    <glyph glyph-name="Zdotbelow" unicode="&#x1e92;" horiz-adv-x="1075" 
d="M-29 0l-8 162l920 1040l-674 -12l61 219h889l29 -162l-912 -1040l693 14l-62 -221h-936zM514 -281q0 -79 -63.5 -142.5t-143.5 -63.5q-53 0 -83.5 31t-30.5 79q0 74 64.5 137.5t143.5 63.5q52 0 82.5 -28.5t30.5 -76.5z" />
    <glyph glyph-name="zdotbelow" unicode="&#x1e93;" horiz-adv-x="919" 
d="M53 -20l-80 118q467 486 656 707q-133 41 -230 41q-151 0 -239 -117l-72 43q58 153 133.5 210.5t184.5 57.5q141 0 335 -98q24 29 76 98q38 0 68 -20t30 -62q0 -77 -166 -272t-477 -483q28 4 52 4q44 0 120.5 -15.5t108.5 -15.5q128 0 215 133l84 -49
q-57 -161 -132.5 -220.5t-191.5 -59.5q-76 0 -187.5 26.5t-150.5 26.5q-71 0 -137 -53zM422 -281q0 -79 -63.5 -142.5t-143.5 -63.5q-53 0 -84 31t-31 79q0 74 65 137.5t144 63.5q52 0 82.5 -28.5t30.5 -76.5z" />
    <glyph glyph-name="Germandbls" unicode="&#x1e9e;" horiz-adv-x="1386" 
d="M143 285l140 651q50 233 220.5 363.5t403.5 130.5q175 0 287 -76t127 -215l-383 -353q72 -34 124.5 -69.5t98 -83t69 -109t23.5 -135.5q0 -171 -135.5 -290t-347.5 -119q-173 0 -283 55l45 213q46 -32 108.5 -52t119.5 -20q110 0 170.5 57t60.5 146q0 90 -73.5 156.5
t-251.5 152.5l12 66l366 364q-39 117 -180 117q-122 0 -212 -84t-122 -231l-151 -713q-14 -63 -42.5 -129.5t-62.5 -97.5l-227 20q62 120 96 285z" />
    <glyph glyph-name="Adotbelow" unicode="&#x1ea0;" horiz-adv-x="1323" 
d="M182 0h-239l641 1198q59 109 106 217l289 12l33 -32l151 -1395h-254l-37 348h-503zM578 741l-113 -211h387l-23 211q-27 312 -24 453h-6q-89 -198 -221 -453zM653 -281q0 -79 -63 -142.5t-141 -63.5q-54 0 -85.5 31t-31.5 79q0 74 65 137.5t146 63.5q52 0 81 -28.5
t29 -76.5z" />
    <glyph glyph-name="adotbelow" unicode="&#x1ea1;" horiz-adv-x="1122" 
d="M76 287q0 106 29 213t87 203.5t137.5 172t188 120t230.5 44.5q75 0 164.5 -16t158.5 -49l-82 -359q-92 -405 -92 -616h-246q0 144 41 371q-31 -72 -72 -138.5t-92 -124.5t-113 -93t-124 -35q-100 0 -157.5 79t-57.5 228zM328 348q0 -77 24 -119.5t68 -42.5
q62 0 135.5 92.5t127.5 213.5t85 235q8 43 31 137q-66 29 -111 29q-91 0 -176 -88t-134.5 -214.5t-49.5 -242.5zM606 -281q0 -79 -64.5 -142.5t-142.5 -63.5q-54 0 -84 30.5t-30 79.5q0 75 64 138t145 63q52 0 82 -28.5t30 -76.5z" />
    <glyph glyph-name="Edotbelow" unicode="&#x1eb8;" horiz-adv-x="1146" 
d="M993 197l-41 -197h-850l228 1071q46 207 53 338h825l23 -29l-41 -168l-576 15l-94 -447l486 8l-45 -182l-476 10l-92 -434zM618 -281q0 -79 -63 -142.5t-141 -63.5q-54 0 -85.5 31t-31.5 79q0 74 65 137.5t146 63.5q51 0 80.5 -28.5t29.5 -76.5z" />
    <glyph glyph-name="edotbelow" unicode="&#x1eb9;" horiz-adv-x="995" 
d="M819 272l37 -96q-77 -93 -188 -144.5t-226 -51.5q-161 0 -257.5 97t-96.5 281q0 124 46.5 247t125 219t191 156t235.5 60q129 0 207 -62t78 -169q0 -154 -160.5 -262t-466.5 -121q-2 -16 -2 -49q0 -106 50.5 -169t146.5 -63q136 0 280 127zM643 897q-67 0 -128 -61
t-99.5 -146.5t-59.5 -181.5q198 25 292.5 102t94.5 181q0 52 -26.5 79t-73.5 27zM555 -281q0 -79 -63.5 -142.5t-143.5 -63.5q-53 0 -84 31t-31 79q0 74 65 137.5t144 63.5q52 0 82.5 -28.5t30.5 -76.5z" />
    <glyph glyph-name="Etilde" unicode="&#x1ebc;" horiz-adv-x="1146" 
d="M760 1884q43 0 83.5 -18.5t67 -40t62 -40t69.5 -18.5q42 0 75.5 25.5t74.5 77.5l63 -12q-27 -103 -96.5 -179.5t-161.5 -76.5q-41 0 -83 18t-71.5 39t-66.5 39t-69 18q-71 0 -146 -100l-63 12q12 47 34 90t53.5 81.5t77 61.5t97.5 23zM993 197l-41 -197h-850l228 1071
q46 207 53 338h825l23 -29l-41 -168l-576 15l-94 -447l486 8l-45 -182l-476 10l-92 -434z" />
    <glyph glyph-name="etilde" unicode="&#x1ebd;" horiz-adv-x="995" 
d="M584 1513q41 0 80.5 -18t66.5 -39t61.5 -39t65.5 -18q38 0 68.5 25t68.5 75l70 -10q-20 -72 -54 -133.5t-88 -104.5t-114 -43q-39 0 -80.5 18.5t-72 40t-66.5 40t-64 18.5q-62 0 -135 -102l-69 12q14 51 36.5 98t55 88.5t76.5 66.5t94 25zM819 272l37 -96
q-77 -93 -188 -144.5t-226 -51.5q-161 0 -257.5 97t-96.5 281q0 124 46.5 247t125 219t191 156t235.5 60q129 0 207 -62t78 -169q0 -154 -160.5 -262t-466.5 -121q-2 -16 -2 -49q0 -106 50.5 -169t146.5 -63q136 0 280 127zM643 897q-67 0 -128 -61t-99.5 -146.5
t-59.5 -181.5q198 25 292.5 102t94.5 181q0 52 -26.5 79t-73.5 27z" />
    <glyph glyph-name="Idotbelow" unicode="&#x1eca;" horiz-adv-x="655" 
d="M354 0h-252l226 1061q43 195 55 348l248 21l20 -29zM307 -281q0 -79 -63.5 -142.5t-141.5 -63.5q-54 0 -85 30.5t-31 79.5q0 74 65 137.5t146 63.5q51 0 80.5 -28.5t29.5 -76.5z" />
    <glyph glyph-name="idotbelow" unicode="&#x1ecb;" horiz-adv-x="563" 
d="M590 1413q0 -79 -63.5 -143t-141.5 -64q-54 0 -85.5 31t-31.5 80q0 74 65 137.5t144 63.5q52 0 82.5 -28.5t30.5 -76.5zM340 0h-244q0 196 76 547l41 188l16 285l263 20q0 -96 -24 -238t-52 -266.5t-52 -275t-24 -260.5zM315 -281q0 -79 -63.5 -142.5t-142.5 -63.5
q-53 0 -84 31t-31 79q0 74 65 137.5t144 63.5q52 0 82 -28.5t30 -76.5z" />
    <glyph glyph-name="Odotbelow" unicode="&#x1ecc;" horiz-adv-x="1429" 
d="M1366 905q0 -136 -36 -271t-104.5 -252t-160.5 -207.5t-212.5 -142.5t-252.5 -52q-214 0 -334.5 134.5t-120.5 383.5q0 137 36 273t105 254t161 209t212 143.5t250 52.5q215 0 336 -137.5t121 -387.5zM406 504q0 -160 59 -247t178 -87q105 0 195 69t147 177.5t89 236.5
t32 252q0 160 -58 247t-176 87q-84 0 -159.5 -45.5t-130.5 -121.5t-95.5 -171.5t-60.5 -197.5t-20 -199zM705 -281q0 -79 -63.5 -142.5t-141.5 -63.5q-54 0 -85.5 31t-31.5 79q0 74 65 137.5t146 63.5q52 0 81.5 -28.5t29.5 -76.5z" />
    <glyph glyph-name="odotbelow" unicode="&#x1ecd;" horiz-adv-x="1101" 
d="M1018 666q0 -127 -45 -250.5t-121.5 -220t-188 -156t-235.5 -59.5q-157 0 -248.5 94t-91.5 276q0 127 45.5 251.5t122.5 221.5t188 157t234 60q159 0 249.5 -97t90.5 -277zM342 332q0 -205 129 -205q67 0 124.5 56.5t93 143t55.5 182t20 179.5q0 205 -129 205
q-68 0 -125.5 -56t-93 -142t-55 -181.5t-19.5 -181.5zM559 -281q0 -79 -63.5 -142.5t-141.5 -63.5q-54 0 -85 30.5t-31 79.5q0 74 64.5 137.5t143.5 63.5q52 0 82.5 -28.5t30.5 -76.5z" />
    <glyph glyph-name="Udotbelow" unicode="&#x1ee4;" horiz-adv-x="1388" 
d="M156 336q0 80 41 271t89 421.5t60 382.5l254 19l18 -25q-187 -870 -198 -941q-6 -38 -6 -67q0 -108 60.5 -164.5t166.5 -56.5q129 0 221.5 80.5t124.5 232.5q122 570 146 694.5t28 227.5l266 16l-202 -954q-34 -158 -131.5 -271.5t-227.5 -167.5t-280 -54
q-195 0 -312.5 94t-117.5 262zM686 -281q0 -79 -63.5 -142.5t-141.5 -63.5q-54 0 -85 30.5t-31 79.5q0 75 64.5 138t145.5 63q51 0 81 -29t30 -76z" />
    <glyph glyph-name="udotbelow" unicode="&#x1ee5;" horiz-adv-x="1122" 
d="M109 303l92 432l16 285l262 20q0 -87 -14 -184t-44.5 -242.5t-37.5 -181.5q-11 -62 -15 -101.5t0 -75.5t23 -52.5t53 -16.5q93 0 172 121t127 316q38 180 48 288q4 74 4 109l256 20q-4 -71 -15 -152t-22 -139.5t-38 -191.5t-44 -221q-35 -158 -35 -336h-246q0 109 21 256
h-2q-71 -138 -171.5 -207t-203.5 -69q-119 0 -168 87.5t-18 235.5zM610 -281q0 -79 -63.5 -142.5t-143.5 -63.5q-53 0 -83.5 31t-30.5 79q0 74 65 137.5t144 63.5q52 0 82 -28.5t30 -76.5z" />
    <glyph glyph-name="Ygrave" unicode="&#x1ef2;" horiz-adv-x="1148" 
d="M1102 1585q-310 23 -512 144l-4 40l178 134q144 -128 371 -254zM442 477l-223 926l273 27l90 -465q5 -33 16 -99.5t18.5 -120t10.5 -90.5h4q26 48 96 164.5t86 145.5l285 465l198 -17l11 -27l-615 -911l-100 -475h-252z" />
    <glyph glyph-name="ygrave" unicode="&#x1ef3;" horiz-adv-x="958" 
d="M702 1171q-175 145 -256 332l25 41l225 25q19 -150 101 -375zM850 1040q59 0 90 -18t31 -64q0 -65 -39.5 -179.5t-109.5 -251.5t-159 -284.5t-194 -284t-209.5 -246t-211 -175t-191.5 -65.5q-64 0 -101 36t-37 99q0 53 29 98q57 -14 123 -14q125 0 254.5 90.5
t208.5 218.5h-117q-9 601 -94 1020l260 20q71 -391 43 -860h4q127 214 216 440.5t108 407.5q49 12 96 12z" />
    <glyph glyph-name="Ytilde" unicode="&#x1ef8;" horiz-adv-x="1148" 
d="M745 1884q43 0 83.5 -18.5t67 -40t62 -40t68.5 -18.5q43 0 77 26t73 77l63 -12q-27 -103 -96.5 -179.5t-161.5 -76.5q-40 0 -82 18t-72 39t-67 39t-68 18q-72 0 -147 -100l-64 12q12 47 34.5 90t54.5 81.5t77.5 61.5t97.5 23zM442 477l-223 926l273 27l90 -465
q5 -33 16 -99.5t18.5 -120t10.5 -90.5h4q26 48 96 164.5t86 145.5l285 465l198 -17l11 -27l-615 -911l-100 -475h-252z" />
    <glyph glyph-name="ytilde" unicode="&#x1ef9;" horiz-adv-x="958" 
d="M516 1513q41 0 81.5 -18t68 -39t62 -39t65.5 -18q38 0 68.5 25t68.5 75l69 -10q-20 -72 -54 -133.5t-88 -104.5t-114 -43q-39 0 -81 18.5t-72 40t-66.5 40t-64.5 18.5q-62 0 -135 -102l-68 12q30 112 98 195t162 83zM850 1040q59 0 90 -18t31 -64q0 -65 -39.5 -179.5
t-109.5 -251.5t-159 -284.5t-194 -284t-209.5 -246t-211 -175t-191.5 -65.5q-64 0 -101 36t-37 99q0 53 29 98q57 -14 123 -14q125 0 254.5 90.5t208.5 218.5h-117q-9 601 -94 1020l260 20q71 -391 43 -860h4q127 214 216 440.5t108 407.5q49 12 96 12z" />
    <glyph glyph-name="figurespace" unicode="&#x2007;" 
 />
    <glyph glyph-name="endash" unicode="&#x2013;" horiz-adv-x="1126" 
d="M76 539l10 90h997l-12 -90h-995z" />
    <glyph glyph-name="emdash" unicode="&#x2014;" horiz-adv-x="1730" 
d="M70 539l16 90h1608l-19 -90h-1605z" />
    <glyph glyph-name="quoteleft" unicode="&#x2018;" horiz-adv-x="530" 
d="M657 1509q-151 -176 -206 -311q42 -6 68 -36.5t26 -74.5q0 -77 -64 -139.5t-141 -62.5q-55 0 -88 31t-33 90q0 80 64 192.5t147 208t166 166.5z" />
    <glyph glyph-name="quoteright" unicode="&#x2019;" horiz-adv-x="530" 
d="M174 930q152 176 209 309q-43 8 -68.5 38.5t-25.5 74.5q0 76 63 139t140 63q54 0 87 -31t33 -89q0 -61 -36.5 -142t-94 -158.5t-121 -146.5t-124.5 -121z" />
    <glyph glyph-name="quotesinglbase" unicode="&#x201a;" horiz-adv-x="530" 
d="M-94 -330q151 176 209 312q-43 6 -69 36t-26 74q0 78 63 140.5t140 62.5q55 0 88 -30.5t33 -88.5q0 -81 -64 -194t-146.5 -208.5t-166.5 -166.5z" />
    <glyph glyph-name="quotedblleft" unicode="&#x201c;" horiz-adv-x="983" 
d="M657 1509q-151 -176 -206 -311q42 -6 68 -36.5t26 -74.5q0 -77 -64 -139.5t-141 -62.5q-55 0 -88 31t-33 90q0 80 64 192.5t147 208t166 166.5zM1110 1509q-153 -178 -207 -311q42 -6 68 -36.5t26 -74.5q0 -77 -63.5 -139.5t-140.5 -62.5q-55 0 -88 31t-33 90
q0 80 64 192.5t147 208t166 166.5z" />
    <glyph glyph-name="quotedblright" unicode="&#x201d;" horiz-adv-x="983" 
d="M627 932q150 171 209 309q-43 6 -69 36.5t-26 74.5q0 78 63 140t140 62q55 0 88 -30t33 -88q0 -80 -64 -193.5t-146.5 -208.5t-166.5 -166zM174 932q150 171 209 309q-43 6 -68.5 36.5t-25.5 74.5q0 78 63 140t140 62q55 0 87.5 -30t32.5 -88q0 -61 -36.5 -142
t-94 -158.5t-121 -146.5t-124.5 -121z" />
    <glyph glyph-name="quotedblbase" unicode="&#x201e;" horiz-adv-x="974" 
d="M-94 -330q151 176 209 312q-43 6 -69 36t-26 74q0 78 63 140.5t140 62.5q55 0 88 -30.5t33 -88.5q0 -81 -64 -194t-146.5 -208.5t-166.5 -166.5zM352 -330q147 171 207 312q-42 6 -68 36t-26 74q0 78 63.5 140.5t141.5 62.5q55 0 88 -30.5t33 -88.5q0 -81 -64 -194
t-146.5 -208.5t-166.5 -166.5z" />
    <glyph glyph-name="dagger" unicode="&#x2020;" horiz-adv-x="1036" 
d="M473 0l-125 -2l-10 22l6 304l203 608l-342 -31l-4 6q4 79 22 160l25 14l321 -30l21 360l8 8q116 11 219 11l14 -17l-135 -362l340 30l6 -6q-8 -86 -22 -160l-27 -14l-325 31l-56 -608l-123 -306z" />
    <glyph glyph-name="daggerdbl" unicode="&#x2021;" horiz-adv-x="1036" 
d="M293 -14l-12 16l147 369l-340 -49l-20 14q28 123 51 188l8 6l326 -51q4 176 16 234q6 30 18 63.5t34.5 88.5t29.5 73l-348 -51l-6 6q8 91 30 188l25 15l321 -49l7 364l8 8q128 11 237 11l15 -17l-148 -366l346 49l6 -6q-7 -76 -28 -187l-25 -16l-323 51q-4 -175 -15 -225
q-6 -25 -16.5 -57t-19 -54.5t-25 -64t-23.5 -58.5l344 51l19 -16q-16 -84 -49 -186l-9 -6l-327 49l-8 -367l-9 -8q-165 -10 -237 -10z" />
    <glyph glyph-name="bullet" unicode="&#x2022;" horiz-adv-x="958" 
d="M418 270q-98 0 -156.5 56.5t-58.5 144.5q0 133 114 242.5t252 109.5q93 0 148 -53t55 -143q0 -138 -108 -247.5t-246 -109.5z" />
    <glyph glyph-name="ellipsis" unicode="&#x2026;" horiz-adv-x="1476" 
d="M356 186q0 -78 -65.5 -142t-145.5 -64q-55 0 -87.5 31t-32.5 81q0 75 68 139t147 64q53 0 84.5 -30t31.5 -79zM825 186q0 -78 -65 -142t-146 -64q-55 0 -87.5 31t-32.5 81q0 75 68 139t149 64q51 0 82.5 -30t31.5 -79zM1294 186q0 -78 -65 -142t-144 -64q-55 0 -87.5 31
t-32.5 81q0 75 68 139t147 64q52 0 83 -29.5t31 -79.5z" />
    <glyph glyph-name="perthousand" unicode="&#x2030;" horiz-adv-x="2918" 
d="M975 1130q0 -99 -36.5 -193.5t-99 -168.5t-154.5 -119t-196 -45q-133 0 -210.5 76.5t-77.5 222.5q0 134 62.5 255t176 197.5t248.5 76.5t211 -78.5t76 -223.5zM1571 1430l-866 -1450h-111l864 1450h113zM414 891q0 -164 110 -164q56 0 103 43t76 108t45 137t16 136
q0 160 -111 160q-56 0 -103.5 -42.5t-76 -107.5t-44 -136t-15.5 -134zM1886 369q0 -99 -36.5 -194t-99 -168.5t-154 -119t-195.5 -45.5q-133 0 -211 76.5t-78 222.5q0 134 62.5 255t176 197.5t248.5 76.5t211 -78t76 -223zM2775 369q0 -99 -36.5 -194t-99.5 -168.5
t-154.5 -119t-194.5 -45.5q-133 0 -211 76.5t-78 222.5q0 134 62.5 255t175.5 197.5t247 76.5q135 0 212 -78t77 -223zM1325 129q0 -164 111 -164q55 0 101.5 43t75 108t44.5 137t16 136q0 160 -108 160q-56 0 -103.5 -42.5t-76 -107.5t-44.5 -136t-16 -134zM2214 129
q0 -164 108 -164q56 0 103 43t76 108t45 137t16 136q0 160 -111 160q-55 0 -102 -42.5t-75.5 -107.5t-44 -136t-15.5 -134z" />
    <glyph glyph-name="guilsinglleft" unicode="&#x2039;" horiz-adv-x="593" 
d="M111 565l14 68q188 137 432 387l57 -29q-118 -210 -292 -391q103 -201 127 -393l-70 -29q-144 260 -268 387z" />
    <glyph glyph-name="guilsinglright" unicode="&#x203a;" horiz-adv-x="593" 
d="M520 633l-14 -68q-199 -147 -430 -387l-58 29q119 213 291 391q-101 196 -125 393l70 29q143 -259 266 -387z" />
    <glyph glyph-name="fraction" unicode="&#x2044;" horiz-adv-x="1017" 
d="M1307 1434l-1180 -1454h-117l1178 1454h119z" />
    <glyph glyph-name="zerosuperior" unicode="&#x2070;" horiz-adv-x="944" 
d="M1098 1255q0 -144 -65.5 -270.5t-178.5 -203t-244 -76.5q-130 0 -206 78.5t-76 228.5q0 143 66.5 272t180.5 207t244 78q131 0 205 -81.5t74 -232.5zM518 993q0 -180 119 -180q74 0 138 75t98 181t34 209q0 180 -116 180q-74 0 -138.5 -74t-99.5 -180.5t-35 -210.5z" />
    <glyph glyph-name="foursuperior" unicode="&#x2074;" horiz-adv-x="854" 
d="M295 1032l457 524l209 13l16 -19l-107 -501q43 2 125 10l-45 -139h-106l-43 -199h-178l43 199h-373zM455 1047v-3q18 0 92.5 1.5t142.5 1.5h2l35 163q32 152 55 226h-4z" />
    <glyph glyph-name="fivesuperior" unicode="&#x2075;" horiz-adv-x="804" 
d="M274 733l43 125q32 -13 83 -22t92 -9q99 0 166 46t67 120q0 58 -40.5 87.5t-106.5 29.5q-91 0 -177 -33l-22 17l96 458h320q124 0 215 13l-43 -152h-367l-41 -192q62 10 121 10q109 0 177.5 -54t68.5 -155q0 -137 -124 -227t-313 -90q-112 0 -215 28z" />
    <glyph glyph-name="sixsuperior" unicode="&#x2076;" horiz-adv-x="845" 
d="M600 705q-129 0 -205 68t-76 208q0 148 81 284t219.5 220t293.5 84q79 0 113 -15l-43 -129q-43 15 -94 15q-104 0 -199.5 -69.5t-140.5 -201.5h4q73 45 174 45q112 0 178 -52.5t66 -147.5q0 -128 -107.5 -218.5t-263.5 -90.5zM664 1106q-36 0 -76.5 -15.5t-63.5 -39.5
q-16 -47 -16 -103q0 -133 104 -133q68 0 114 53.5t46 126.5q0 52 -27.5 81.5t-80.5 29.5z" />
    <glyph glyph-name="sevensuperior" unicode="&#x2077;" horiz-adv-x="735" 
d="M367 1393l49 159h583l19 -20l-21 -98q-393 -316 -491 -713h-197q53 188 197.5 377t310.5 313v2h-184q-166 0 -266 -20z" />
    <glyph glyph-name="eightsuperior" unicode="&#x2078;" horiz-adv-x="854" 
d="M571 705q-134 0 -211 50t-77 134q0 80 72 148.5t190 107.5v4q-133 82 -133 182t103 169t247 69q123 0 190.5 -51t67.5 -125q0 -67 -59 -132t-158 -104v-4q164 -80 164 -201q0 -104 -113 -175.5t-283 -71.5zM733 1466q-60 0 -101.5 -33t-41.5 -85q0 -39 29.5 -74t80.5 -60
q65 32 104.5 77.5t39.5 88.5q0 39 -31.5 62.5t-79.5 23.5zM637 1075q-70 -25 -121 -72.5t-51 -99.5q0 -44 36 -71t101 -27q78 0 129 37.5t51 89.5q0 83 -145 143z" />
    <glyph glyph-name="ninesuperior" unicode="&#x2079;" horiz-adv-x="845" 
d="M592 1036q-108 0 -172 55t-64 152q0 135 105 230.5t258 95.5q129 0 211 -76.5t82 -228.5q0 -109 -45 -211t-121 -178.5t-185.5 -123t-230.5 -46.5q-74 0 -108 10l22 125q70 -9 96 -9q125 0 217 72.5t123 190.5q-82 -58 -188 -58zM709 1450q-65 0 -108.5 -58t-43.5 -132
q0 -115 111 -115q79 0 133 43q14 63 14 117q0 69 -27 107t-79 38zM844 1241l-23 -35q15 18 23 35z" />
    <glyph glyph-name="zeroinferior" unicode="&#x2080;" horiz-adv-x="944" 
d="M913 387q0 -107 -39 -208.5t-104 -176.5t-155.5 -120.5t-188.5 -45.5q-130 0 -206.5 78.5t-76.5 228.5q0 143 67 272t181 207t244 78q131 0 204.5 -81t73.5 -232zM334 125q0 -180 119 -180q74 0 138 75t98 181t34 209q0 180 -117 180q-74 0 -138.5 -74t-99 -180.5
t-34.5 -210.5z" />
    <glyph glyph-name="oneinferior" unicode="&#x2081;" horiz-adv-x="557" 
d="M326 526h-2l-142 -20l-4 106l352 93l17 -21l-176 -827h-189l107 499q17 96 37 170z" />
    <glyph glyph-name="twoinferior" unicode="&#x2082;" horiz-adv-x="770" 
d="M68 -143l6 125q80 46 140 84t131 90.5t116.5 99t76.5 101.5t31 106q0 53 -33.5 82.5t-93.5 29.5q-111 0 -241 -88l12 140q60 34 143.5 56t161.5 22q117 0 186.5 -54.5t69.5 -148.5q0 -60 -31 -121t-80.5 -113.5t-119 -104t-138.5 -91.5t-147 -78h195q109 0 217 12
l-45 -149h-557z" />
    <glyph glyph-name="threeinferior" unicode="&#x2083;" horiz-adv-x="759" 
d="M229 635q53 26 134 45.5t153 19.5q103 0 167.5 -42.5t64.5 -112.5q0 -80 -75.5 -149.5t-183.5 -98.5q99 -9 156 -56t57 -120q0 -120 -124.5 -202.5t-305.5 -82.5q-124 0 -219 29l43 119q74 -29 176 -29q98 0 165 40t67 101q0 52 -49.5 75.5t-128.5 23.5q-56 0 -121 -9
l24 119q141 17 227.5 69t86.5 120q0 36 -28.5 56.5t-82.5 20.5q-102 0 -219 -57z" />
    <glyph glyph-name="fourinferior" unicode="&#x2084;" horiz-adv-x="854" 
d="M111 168l456 524l209 13l17 -19l-107 -502q23 1 125 11l-45 -140h-107l-43 -198h-178l43 198h-372zM270 182v-2q18 0 93 1t143 1h2l35 164q32 148 55 225h-4z" />
    <glyph glyph-name="fiveinferior" unicode="&#x2085;" horiz-adv-x="804" 
d="M90 -135l43 125q74 -31 174 -31q99 0 166.5 46t67.5 120q0 58 -41 87.5t-107 29.5q-90 0 -176 -33l-22 16l96 459h319q131 0 215 12l-43 -151h-366l-41 -193q62 10 121 10q109 0 177 -53.5t68 -154.5q0 -137 -123.5 -227.5t-312.5 -90.5q-108 0 -215 29z" />
    <glyph glyph-name="sixinferior" unicode="&#x2086;" horiz-adv-x="845" 
d="M416 -164q-128 0 -204.5 68.5t-76.5 208.5q0 111 48.5 218.5t128.5 188.5t190 130.5t227 49.5q82 0 113 -14l-43 -129q-40 14 -94 14q-104 0 -199.5 -69.5t-140.5 -200.5h4q73 45 174 45q112 0 177.5 -53t65.5 -148q0 -128 -107 -218.5t-263 -90.5zM479 238
q-36 0 -76 -16t-63 -40q-16 -47 -16 -102q0 -133 104 -133q68 0 114 53.5t46 126.5q0 52 -28 81.5t-81 29.5z" />
    <glyph glyph-name="seveninferior" unicode="&#x2087;" horiz-adv-x="735" 
d="M182 528l49 160h584l19 -20l-21 -99q-191 -153 -316.5 -333.5t-174.5 -378.5h-197q53 188 197.5 377t310.5 313v2h-184q-162 0 -267 -21z" />
    <glyph glyph-name="eightinferior" unicode="&#x2088;" horiz-adv-x="854" 
d="M387 -164q-134 0 -211.5 50t-77.5 134q0 80 72 148.5t190 107.5v5q-133 82 -133 182t103.5 168.5t247.5 68.5q123 0 190.5 -51t67.5 -125q0 -66 -59.5 -130.5t-158.5 -104.5v-4q164 -80 164 -201q0 -104 -112.5 -176t-282.5 -72zM549 598q-60 0 -101.5 -33.5t-41.5 -85.5
q0 -78 110 -133q65 32 104 77.5t39 88.5q0 39 -31 62.5t-79 23.5zM453 207q-70 -25 -121 -72.5t-51 -99.5q0 -44 36 -71t101 -27q78 0 129 37t51 89q0 42 -39 79t-106 65z" />
    <glyph glyph-name="nineinferior" unicode="&#x2089;" horiz-adv-x="845" 
d="M408 168q-108 0 -172 55t-64 152q0 134 105 229.5t258 95.5q128 0 210 -76.5t82 -228.5q0 -109 -44.5 -211t-121 -178.5t-185.5 -123t-230 -46.5q-75 0 -109 10l23 125q62 -8 96 -8q126 0 217.5 72.5t122.5 189.5q-80 -57 -188 -57zM524 582q-65 0 -108 -58.5t-43 -132.5
q0 -115 110 -115q79 0 133 43q15 68 15 117q0 69 -27.5 107.5t-79.5 38.5zM659 373l-22 -35q12 15 22 35z" />
    <glyph glyph-name="euro" unicode="&#x20ac;" horiz-adv-x="1222" 
d="M84 508l31 96h135q12 93 39 178h-119l31 97h123q101 243 293 397t417 154q84 0 163 -23.5t132 -63.5l-92 -217q-119 95 -246 95q-121 0 -230 -94t-177 -248h422l-29 -97h-428q-29 -93 -35 -178h406l-29 -96h-381q3 -158 69 -240t189 -82q73 0 154.5 27t148.5 70l-16 -205
q-162 -98 -365 -98q-217 0 -332.5 125t-115.5 370v33h-158z" />
    <glyph glyph-name="trademark" unicode="&#x2122;" horiz-adv-x="1189" 
d="M1221 1413l12 -10l-49 -461h-109l19 168q14 127 26 195h-2q-51 -123 -88 -197l-82 -166h-123l-8 166q-9 95 -4 199h-2q-6 -21 -19 -70.5t-38 -128.5l-56 -166h-92l152 467l151 4l13 -149q5 -79 -4 -220h2q61 161 90 220l73 145zM428 942h-113l82 383q-49 0 -139 -4l25 86
h379l-13 -86q-94 4 -139 4z" />
    <glyph glyph-name="partialdiff" unicode="&#x2202;" horiz-adv-x="1359" 
d="M885 1552q237 0 351 -144.5t114 -414.5q0 -201 -60 -385.5t-164.5 -323.5t-257 -221.5t-327.5 -82.5q-189 0 -291.5 94.5t-102.5 259.5q0 121 54 233t145.5 194.5t219 131.5t268.5 49q134 0 247 -53q2 25 2 74q0 401 -280 401q-83 0 -174 -33t-160 -82l-51 160
q92 62 215 102.5t252 40.5zM412 371q0 -201 190 -201q85 0 160.5 43t131 117t95.5 166t64 198q-104 58 -226 58q-184 0 -299.5 -108t-115.5 -273z" />
    <glyph glyph-name="product" unicode="&#x220f;" horiz-adv-x="1542" 
d="M1731 1380l-43 -161h-197l-320 -1506h-243l319 1506h-438l-320 -1506h-243l319 1506h-196l32 186l1309 4z" />
    <glyph glyph-name="summation" unicode="&#x2211;" horiz-adv-x="1189" 
d="M78 -100l633 673l-346 674l77 162h967l23 -29l-46 -168l-759 15l321 -621l-14 -65l-584 -621l770 14l-43 -196h-991z" />
    <glyph glyph-name="minus" unicode="&#x2212;" 
d="M1090 643h-922l29 129q352 10 925 10l8 -14z" />
    <glyph glyph-name="radical" unicode="&#x221a;" horiz-adv-x="1280" 
d="M1554 1509l-766 -1509h-266l-125 836h-196l39 184h370l95 -838l641 1370l196 -16z" />
    <glyph glyph-name="infinity" unicode="&#x221e;" horiz-adv-x="1648" 
d="M1597 795q0 -121 -59.5 -227t-161.5 -169t-221 -63q-63 0 -114.5 18t-88.5 52.5t-62 71t-48 85.5q-198 -227 -422 -227q-128 0 -204.5 77.5t-76.5 207.5q0 121 59 226.5t159 167.5t214 62q120 0 195.5 -62t126.5 -169q202 231 424 231q129 0 204.5 -76.5t75.5 -205.5z
M1268 942q-86 0 -171.5 -58t-156.5 -155q19 -49 34 -82.5t37 -69.5t45.5 -57t56 -35t71.5 -14q104 0 184 88t80 203q0 83 -49 131.5t-131 48.5zM291 657q0 -86 49 -135t133 -49q79 0 165 57t157 148q-22 52 -35 80.5t-38 69.5t-48 61.5t-58.5 36.5t-76.5 16
q-103 0 -175.5 -85.5t-72.5 -199.5z" />
    <glyph glyph-name="integral" unicode="&#x222b;" horiz-adv-x="1019" 
d="M201 -528q-134 0 -254 57l59 190q50 -38 107.5 -59.5t105.5 -21.5q51 0 86 25.5t54.5 77t29 110t14.5 143.5q15 121 29 584q4 118 7 187.5t10 168t17 156t28 132t42 116.5t59 89t79.5 70.5t103.5 39t131 15.5q138 0 258 -57l-59 -190q-114 81 -217 81q-107 0 -151 -112
q-38 -95 -49 -356q-1 -15 -9 -238q-4 -84 -9 -213.5t-9.5 -212.5t-10.5 -156q-29 -314 -132.5 -470t-319.5 -156z" />
    <glyph glyph-name="approxequal" unicode="&#x2248;" 
d="M936 735q-52 0 -268 62.5t-242 62.5q-11 0 -27 -10t-42.5 -35t-43.5 -42.5t-55 -57.5l-72 57q36 46 63.5 79t67.5 73.5t77.5 62t70.5 21.5q51 0 268 -62.5t242 -62.5q6 0 14.5 3.5t19.5 12t21 17t25.5 23t27 25.5t30.5 30l32 32l69 -53q-39 -50 -64.5 -80.5t-66.5 -73
t-77.5 -63.5t-69.5 -21zM844 305q-52 0 -268 62.5t-242 62.5q-5 0 -11 -2t-14.5 -7.5t-15.5 -11t-18 -15.5t-18.5 -17t-21 -21t-21.5 -22t-24 -24.5t-24 -24.5l-72 55q37 48 64 80t67 73t77.5 63t70.5 22q51 0 268 -63.5t242 -63.5q6 0 14.5 3.5t19.5 12t20.5 16.5t26 23.5
t27 26t31 31.5t31.5 32l69 -55q-33 -41 -50.5 -63t-52.5 -60.5t-60 -58.5t-57 -37t-58 -17z" />
    <glyph glyph-name="notequal" unicode="&#x2260;" 
d="M244 260l139 199h-254l29 131q152 4 319 4l178 260h-440l27 131q388 7 510 8l170 246l18 4l96 -57l-131 -193q102 2 262 2l11 -14l-41 -127h-328l-178 -258q344 4 452 4l9 -14l-41 -127h-516l-175 -252l-20 -4z" />
    <glyph glyph-name="lessequal" unicode="&#x2264;" 
d="M420 803l649 -266l-31 -140l-858 357l19 88l14 18q159 57 489.5 167.5t503.5 164.5l-28 -139zM971 92h-922l27 129q352 10 928 10l8 -14z" />
    <glyph glyph-name="greaterequal" unicode="&#x2265;" 
d="M127 393l31 144l772 264l-660 250l29 141q551 -208 854 -334l6 -18l-20 -101zM981 92h-922l27 129q352 10 926 10l10 -14z" />
    <glyph glyph-name="lozenge" unicode="&#x25ca;" horiz-adv-x="1228" 
d="M127 664l16 75l578 674l160 21l301 -697l-17 -75l-581 -662l-158 -20zM776 1311l-502 -613l248 -594h8l506 596l-250 611h-10z" />
    <glyph glyph-name="fi" unicode="&#xfb01;" horiz-adv-x="1167" 
d="M-27 -471l-77 88q144 207 194 453l170 798l-147 9l20 90l154 30q3 20 9.5 58t11 64t7.5 38q37 187 167.5 291t326.5 104q115 0 208 -33t152 -89l-147 -154q-112 94 -244 94q-93 0 -146 -51t-75 -154q-14 -66 -31 -168h308l262 43q0 -96 -24 -238t-52 -266.5t-52 -275
t-24 -260.5h-244q0 196 76 547l41 188l8 125l-321 8l-156 -731q-48 -229 -130.5 -368t-244.5 -240z" />
    <glyph glyph-name="fl" unicode="&#xfb02;" horiz-adv-x="1169" 
d="M557 1165q-14 -66 -31 -168h351l55 250l4 84q-76 39 -158 39q-93 0 -146 -51t-75 -154zM-27 -471l-77 88q144 207 194 453l170 798l-147 9l20 90l154 30q3 20 9.5 58t11 64t7.5 38q37 187 167.5 291t326.5 104q71 0 156 -18l245 18q0 -129 -40.5 -348.5t-89.5 -419
t-89.5 -423.5t-40.5 -361h-243q0 112 26.5 278.5t97.5 499.5l17 82l-344 8l-156 -731q-48 -229 -130.5 -368t-244.5 -240z" />
    <glyph glyph-name="a.inferior" horiz-adv-x="935" 
d="M18 96q0 82 23.5 164t71 155.5t112.5 130.5t154 90.5t190 33.5q158 0 273 -49l-66 -287q-74 -328 -71 -484h-205q-3 108 28 283q-54 -117 -141.5 -204t-183.5 -87q-85 0 -135 66.5t-50 187.5zM229 135q0 -60 20.5 -94.5t57.5 -34.5q51 0 110 68.5t103 162t68 183.5
q12 50 24 108q-51 23 -88 23q-76 0 -145.5 -65.5t-109.5 -161.5t-40 -189z" />
    <glyph glyph-name="b.inferior" horiz-adv-x="940" 
d="M190 831l11 222l221 16q1 -76 -18.5 -199.5t-39 -211.5t-59.5 -261q60 123 144 198t178 75q88 0 139 -65.5t51 -186.5q0 -80 -23.5 -161.5t-71 -156t-112 -132t-154 -92t-190.5 -34.5q-66 0 -141.5 14t-124.5 40q12 91 113 569zM223 -6l4 53q-2 -12 -5 -32.5t-5 -32.5
q46 -19 86 -19q80 0 150.5 62t110.5 154.5t40 185.5q0 65 -21 103t-59 38q-58 0 -123.5 -81.5t-113 -200t-64.5 -230.5z" />
    <glyph glyph-name="c.inferior" horiz-adv-x="796" 
d="M614 74l33 -82q-65 -68 -158.5 -109t-187.5 -41q-133 0 -212 80.5t-79 224.5q0 134 66 254t183 194.5t255 74.5q114 0 209 -39l-49 -160q-88 64 -172 64q-76 0 -141 -52.5t-101.5 -136.5t-36.5 -176q0 -90 39 -140t119 -50q116 0 233 94z" />
    <glyph glyph-name="d.inferior" horiz-adv-x="933" 
d="M696 -141h-204q-6 103 26 276q-55 -123 -142.5 -208t-187.5 -85q-85 0 -135.5 68t-50.5 190q0 104 40 205t110 182.5t178 132t233 50.5q43 0 66 -2l35 163l10 222l221 16q2 -139 -68 -453q-8 -37 -35.5 -157t-38.5 -175t-28 -146t-23.5 -157t-5.5 -122zM215 143
q0 -137 78 -137q55 0 117.5 75.5t107.5 176t64 191.5v-7q0 7 4 23l14 65q-54 21 -80 21q-82 0 -153.5 -62.5t-111.5 -156.5t-40 -189z" />
    <glyph glyph-name="e.inferior" horiz-adv-x="837" 
d="M623 74l32 -82q-58 -69 -152 -109.5t-192 -40.5q-137 0 -219 79.5t-82 225.5q0 132 67.5 253t183 195.5t247.5 74.5q107 0 171 -48.5t64 -132.5q0 -121 -136.5 -206.5t-383.5 -98.5q0 -4 -1 -12t-1 -12q0 -83 43 -131.5t123 -48.5q113 0 236 94zM475 553q-81 0 -149 -93
t-93 -210q158 22 239 86.5t81 140.5q0 37 -21 56.5t-57 19.5z" />
    <glyph glyph-name="f.inferior" horiz-adv-x="634" 
d="M-53 -512l-68 72q120 170 158 360l131 608l-123 9l16 73l129 25q1 8 23 127q31 147 135.5 227t263.5 80q137 0 211 -49l-73 -154q-83 52 -164 52q-136 0 -168 -144q-4 -21 -12.5 -67t-12.5 -72h219l13 -23l-25 -90l-227 6l-117 -548q-40 -187 -107.5 -299.5
t-201.5 -192.5z" />
    <glyph glyph-name="g.inferior" horiz-adv-x="831" 
d="M207 -545q-159 0 -253.5 55.5t-94.5 137.5q0 110 180 176l43 -39q-35 -44 -35 -78q0 -65 52.5 -106t142.5 -41q85 0 140.5 32.5t55.5 81.5q0 35 -35 60.5t-120 64.5q-76 34 -113 61t-37 66q0 55 60 94.5t139 61.5v2q-44 0 -64 4q-98 8 -159.5 72.5t-61.5 167.5
q0 150 119 246t280 96q156 0 220.5 3t128.5 17q18 -18 18 -51q0 -31 -20 -56.5t-64 -25.5q-21 0 -43.5 5.5t-52.5 16.5t-45 15l-2 -2q114 -60 114 -191q0 -65 -27.5 -121.5t-69 -93t-89.5 -69t-89.5 -53t-69 -40.5t-27.5 -36q0 -32 96 -70q98 -41 159.5 -91.5t61.5 -123.5
q0 -102 -125.5 -175t-312.5 -73zM508 430q0 62 -24.5 98.5t-67.5 36.5q-71 0 -123.5 -82t-52.5 -174q0 -62 26.5 -98.5t71.5 -36.5q72 0 121 82.5t49 173.5z" />
    <glyph glyph-name="h.inferior" horiz-adv-x="966" 
d="M233 -141h-204q-1 88 18.5 216.5t75.5 389.5l78 366l10 222l223 16q0 -76 -18 -190t-35 -193.5t-53 -234.5h4q62 109 149 164t178 55q80 0 123 -44t43 -126q0 -11 -1 -22.5t-3.5 -29.5t-5.5 -33.5t-9.5 -47t-12 -56.5t-16 -75.5t-19.5 -92.5q-27 -124 -27 -284h-205
q-1 89 13 181t49 259q16 76 16 111q0 88 -69 88q-79 0 -149 -92.5t-111 -240t-42 -306.5z" />
    <glyph glyph-name="i.inferior" horiz-adv-x="471" 
d="M412 989q0 -62 -51 -114t-117 -52q-44 0 -70.5 26t-26.5 66q0 62 54 113t118 51q42 0 67.5 -24.5t25.5 -65.5zM233 -141h-204q-2 157 57 426l33 147l8 221l221 17q2 -91 -27.5 -240t-59 -306t-28.5 -265z" />
    <glyph glyph-name="j.inferior" horiz-adv-x="456" 
d="M410 989q0 -61 -51.5 -113.5t-116.5 -52.5q-44 0 -71.5 26t-27.5 66q0 62 54.5 113t117.5 51q43 0 69 -24.5t26 -65.5zM-94 -549l-68 72q59 84 97 167.5t63 192.5l117 549l10 221l221 17q1 -41 -4 -89t-20 -129t-25 -130.5t-39.5 -183t-42.5 -197.5q-40 -186 -107.5 -298
t-201.5 -192z" />
    <glyph glyph-name="k.inferior" horiz-adv-x="923" 
d="M838 522q0 -84 -78 -167.5t-199 -141.5q115 -212 230 -354h-259q-104 154 -165 323q128 89 196 160t68 129q0 29 -16.5 46.5t-45.5 17.5q-75 0 -153 -101.5t-129.5 -260.5t-53.5 -314h-204q-1 88 18.5 216.5t75.5 389.5l78 366l10 222l223 16q0 -40 -5 -92t-11 -93
t-21 -116.5t-22.5 -109t-28.5 -127.5t-27 -119h3q61 118 158.5 188t195.5 70q77 0 119.5 -41.5t42.5 -106.5z" />
    <glyph glyph-name="l.inferior" horiz-adv-x="471" 
d="M233 -141h-204q-1 88 18.5 216.5t75.5 389.5l78 366l10 222l223 16q1 -100 -31 -271.5t-70.5 -327.5t-69.5 -330.5t-30 -280.5z" />
    <glyph glyph-name="m.inferior" horiz-adv-x="1447" 
d="M330 451q58 104 145.5 161.5t175.5 57.5q81 0 123.5 -45.5t42.5 -128.5q0 -29 -2 -45q58 105 146.5 162t177.5 57q82 0 125 -44.5t43 -123.5q0 -63 -52 -287q-24 -105 -33.5 -180.5t-9.5 -175.5h-204q-1 68 6.5 136.5t14 102t24.5 117.5q32 164 32 203q0 80 -69 80
q-54 0 -107 -47.5t-95.5 -129.5t-67.5 -204t-23 -258h-205q0 159 43 352q35 167 35 201q0 86 -72 86t-139.5 -89t-109 -237.5t-42.5 -312.5h-204q-1 96 17.5 218t70.5 355l10 221l219 17q3 -85 -20 -219h4z" />
    <glyph glyph-name="n.inferior" horiz-adv-x="964" 
d="M330 451q58 104 146 161.5t179 57.5q81 0 125.5 -44.5t44.5 -123.5q0 -64 -49 -274q-4 -16 -6 -25q-27 -118 -34.5 -185.5t-4.5 -158.5h-205q-2 143 41 352q37 163 37 203q0 84 -74 84q-76 0 -144.5 -88.5t-110 -236.5t-42.5 -314h-204q-1 96 17.5 218t70.5 355l10 221
l219 17q3 -85 -20 -219h4z" />
    <glyph glyph-name="o.inferior" horiz-adv-x="899" 
d="M784 369q0 -99 -36.5 -194t-99.5 -168.5t-154.5 -119t-194.5 -45.5q-133 0 -211 76.5t-78 222.5q0 134 63 255t176 197.5t247 76.5q135 0 211.5 -78t76.5 -223zM221 129q0 -164 111 -164q56 0 103 43t75.5 108t44.5 137t16 136q0 160 -110 160q-56 0 -103 -42.5t-76 -107
t-45 -136t-16 -134.5z" />
    <glyph glyph-name="p.inferior" horiz-adv-x="952" 
d="M274 -158q-21 0 -75 4q-52 -235 -49 -374h-205q-1 86 19.5 215.5t74.5 378.5l78 366l10 221l221 17q3 -101 -31 -273q55 116 140 194.5t182 78.5q87 0 137.5 -64t50.5 -186q0 -102 -38.5 -203.5t-107 -185.5t-175.5 -136.5t-232 -52.5zM537 506q-53 0 -112.5 -67
t-104 -161t-68.5 -190q-4 -17 -12.5 -52t-12.5 -52q51 -21 86 -21q79 0 150.5 66.5t111 161.5t39.5 184q0 62 -20 96.5t-57 34.5z" />
    <glyph glyph-name="q.inferior" horiz-adv-x="921" 
d="M209 -158q-89 0 -141 67.5t-52 188.5q0 83 25 165.5t74.5 155.5t116.5 129t157.5 89t190.5 33q144 0 264 -54l-154 -682q-70 -314 -67 -462h-207q-2 153 98 604l6 28q-56 -110 -138 -186t-173 -76zM229 137q0 -60 20.5 -95.5t57.5 -35.5q53 0 111 64t102.5 155.5
t69.5 186.5l26 118q-47 21 -81 21q-82 0 -154.5 -67t-112 -162.5t-39.5 -184.5z" />
    <glyph glyph-name="r.inferior" horiz-adv-x="694" 
d="M233 -141h-204q-3 164 55 426l33 147l10 221l219 17q3 -107 -37 -287h6q54 148 127.5 217.5t151.5 69.5q34 0 65.5 -13.5t49.5 -33.5l-99 -189q-54 21 -94 21q-84 0 -148.5 -82.5t-98 -216.5t-36.5 -297z" />
    <glyph glyph-name="s.inferior" horiz-adv-x="765" 
d="M666 631l-48 -160q-103 64 -208 64q-64 0 -104 -27.5t-40 -67.5q0 -35 34 -62.5t82 -49t96 -47t82 -70t34 -105.5q0 -115 -107.5 -189.5t-265.5 -74.5q-68 0 -139 16t-115 44l47 153q53 -35 120 -55t120 -20q64 0 104.5 27t40.5 67q0 34 -34 61t-82 49t-96.5 48t-82.5 71
t-34 105q0 115 109 188.5t263 73.5q126 0 224 -39z" />
    <glyph glyph-name="t.inferior" horiz-adv-x="667" 
d="M598 545l-240 4q-12 -56 -24.5 -113.5t-20 -93.5t-15.5 -73t-12.5 -58t-8.5 -43t-6.5 -33.5t-4 -23t-2 -18t-0.5 -13.5q0 -90 96 -90q62 0 142 39l-8 -129q-114 -58 -230 -58q-211 0 -211 199q0 9 0.5 18t2.5 23t4.5 27t7.5 38t9.5 47t13.5 63t17 77.5t22 99t26 119.5
l-121 2l16 76l129 22l92 199l131 10l23 -22l-45 -187h233l13 -20z" />
    <glyph glyph-name="u.inferior" horiz-adv-x="942" 
d="M37 20q0 11 1.5 24.5t5 35t7 41t11 56t14 67t18 86.5t21.5 102l12 221l219 17q1 -51 -6.5 -115.5t-15 -105t-22.5 -114.5t-19 -93q-25 -121 -25 -148q0 -78 70 -78q79 0 146 98t102.5 244.5t33.5 294.5l215 17q-2 -53 -10.5 -116t-16.5 -105.5t-30.5 -155.5t-34.5 -176
q-27 -129 -24 -258h-207q0 90 16 196h-4q-57 -107 -140 -160t-169 -53q-81 0 -124.5 47t-43.5 131z" />
    <glyph glyph-name="v.inferior" horiz-adv-x="815" 
d="M139 -141q-12 477 -92 794l219 17q66 -296 47 -666h4q103 164 175 338t86 309q32 19 84 19q100 0 100 -78q0 -102 -116.5 -323.5t-276.5 -409.5h-230z" />
    <glyph glyph-name="w.inferior" horiz-adv-x="1308" 
d="M1153 670q100 0 100 -78q0 -104 -113 -328.5t-263 -404.5h-232q15 290 6 571h-4q-90 -287 -297 -571h-229q-9 485 -74 794l221 17q48 -296 27 -666h4q99 160 167 333t83 316h248q43 -270 24 -649h4q95 156 162 332t82 315q32 19 84 19z" />
    <glyph glyph-name="x.inferior" horiz-adv-x="770" 
d="M-84 -141q32 116 113 228.5t202 195.5q-86 233 -196 370l211 17q47 -56 82.5 -128.5t72.5 -174.5q55 57 92 131t46 151q31 21 88 21q98 0 98 -72q0 -61 -80.5 -166t-200.5 -188q92 -249 177 -385h-215q-57 91 -132 301q-57 -51 -101.5 -134.5t-59.5 -166.5h-197z" />
    <glyph glyph-name="y.inferior" horiz-adv-x="817" 
d="M664 670q39 0 68.5 -16.5t29.5 -57.5q0 -59 -43.5 -167.5t-114.5 -235t-167 -258t-194.5 -238t-203.5 -174.5t-189 -68q-57 0 -88.5 31.5t-31.5 85.5q0 46 24 80q46 -12 107 -12q101 0 207 64t170 155h-99q-13 489 -90 794l219 17q64 -304 45 -666h4q103 166 175.5 339.5
t85.5 307.5q32 19 86 19z" />
    <glyph glyph-name="z.inferior" horiz-adv-x="821" 
d="M-2 -158l-68 101q409 369 570 536q-29 3 -113 16t-119 13q-115 0 -190 -84l-62 35q47 121 110 166t157 45q60 0 179 -20.5t173 -24.5q17 17 41 45q37 0 57.5 -16t20.5 -44q0 -63 -149 -216.5t-421 -368.5q21 6 45 6q30 0 116.5 -11.5t117.5 -11.5q104 0 170 105l72 -41
q-44 -132 -105.5 -181t-159.5 -49q-66 0 -180 21.5t-151 21.5q-61 0 -111 -43z" />
    <glyph glyph-name="a.superior" horiz-adv-x="935" 
d="M174 834q0 82 23.5 164t71 155.5t112.5 130t154 90t190 33.5q157 0 272 -49l-65 -287q-75 -332 -72 -483h-205q-3 102 29 282q-54 -117 -142 -203.5t-184 -86.5q-85 0 -134.5 66.5t-49.5 187.5zM385 872q0 -60 20.5 -94.5t57.5 -34.5q51 0 110 69t102.5 162t67.5 183
q17 71 25 109q-49 22 -88 22q-76 0 -145.5 -65.5t-109.5 -161.5t-40 -189z" />
    <glyph glyph-name="b.superior" horiz-adv-x="940" 
d="M348 1569l8 221l222 16q2 -75 -19 -203.5t-37.5 -202t-60.5 -265.5q60 123 144.5 197.5t178.5 74.5q88 0 138.5 -65.5t50.5 -186.5q0 -80 -23 -161.5t-70.5 -156t-111.5 -132t-153.5 -91.5t-190.5 -34q-68 0 -143 13.5t-123 39.5q17 134 112 569zM381 731l4 53
q-2 -12 -6 -32.5t-6 -32.5q46 -19 86 -19q81 0 152 62t111 154.5t40 185.5q0 65 -21.5 103t-60.5 38q-58 0 -123 -81.5t-112.5 -200t-63.5 -230.5z" />
    <glyph glyph-name="c.superior" horiz-adv-x="798" 
d="M772 811l33 -82q-65 -68 -158 -108.5t-188 -40.5q-133 0 -212 80.5t-79 224.5q0 134 66 254t183 194t255 74q114 0 209 -39l-50 -160q-88 64 -172 64q-76 0 -140.5 -52.5t-101 -136.5t-36.5 -176q0 -90 39 -140t119 -50q116 0 233 94z" />
    <glyph glyph-name="d.superior" horiz-adv-x="933" 
d="M852 596h-205q-6 99 27 276q-55 -123 -142.5 -207.5t-187.5 -84.5q-85 0 -135.5 68t-50.5 190q0 82 24.5 164t73.5 154.5t115.5 129t156.5 89t191 32.5q42 0 65 -2l35 164l10 221l222 16q2 -138 -68 -452q-8 -35 -35.5 -157t-38.5 -175.5t-28.5 -145.5t-23.5 -158
t-5 -122zM371 881q0 -138 78 -138q55 0 117.5 75.5t107 176t63.5 191.5v-6q0 6 4 22l15 66q-52 20 -80 20q-82 0 -153.5 -62t-111.5 -156t-40 -189z" />
    <glyph glyph-name="e.superior" horiz-adv-x="839" 
d="M780 811l33 -82q-58 -69 -151.5 -109t-192.5 -40q-137 0 -219 79.5t-82 225.5q0 132 67.5 252.5t183 195t247.5 74.5q107 0 171 -48t64 -132q0 -121 -136.5 -206.5t-383.5 -98.5q0 -4 -1 -12.5t-1 -12.5q0 -83 43 -131.5t123 -48.5q112 0 235 94zM633 1290
q-81 0 -149 -93t-93 -210q158 22 239 86.5t81 140.5q0 37 -21 56.5t-57 19.5z" />
    <glyph glyph-name="f.superior" horiz-adv-x="634" 
d="M104 225l-69 72q119 169 160 360l129 609l-121 8l14 74l131 24q18 108 23 127q31 147 135.5 227t263.5 80q134 0 211 -49l-74 -153q-81 51 -164 51q-139 0 -168 -144q-6 -26 -24 -139h217l12 -22l-24 -90l-226 6l-118 -549q-38 -185 -106.5 -298.5t-201.5 -193.5z" />
    <glyph glyph-name="g.superior" horiz-adv-x="833" 
d="M365 193q-160 0 -254.5 55t-94.5 137q0 110 181 176l43 -39q-35 -44 -35 -78q0 -66 52.5 -106.5t141.5 -40.5q85 0 141 33t56 82q0 35 -35 60.5t-121 64.5q-76 33 -112.5 60.5t-36.5 66.5q0 55 59.5 94t138.5 61v2q-43 0 -63 4q-98 8 -159.5 72.5t-61.5 167.5
q0 150 119 246t280 96q156 0 220 3t128 17q19 -19 19 -51q0 -31 -20 -56.5t-64 -25.5q-21 0 -43.5 5.5t-53.5 16.5t-45 15l-2 -2q115 -61 115 -190q0 -65 -27.5 -121.5t-69 -93t-90 -69.5t-90 -53.5t-69 -40.5t-27.5 -36q0 -31 97 -70q98 -41 159.5 -91.5t61.5 -123.5
q0 -102 -125.5 -174.5t-312.5 -72.5zM666 1167q0 62 -25 99t-68 37q-71 0 -123.5 -82t-52.5 -174q0 -62 26.5 -99t72.5 -37q72 0 121 82.5t49 173.5z" />
    <glyph glyph-name="h.superior" horiz-adv-x="966" 
d="M389 596h-205q-1 85 19 210t78 396l77 367l11 221l221 16q0 -75 -18.5 -191.5t-34.5 -190t-54 -236.5h6q60 109 147.5 164t180.5 55q78 0 122 -44.5t44 -125.5q0 -16 -2 -32.5t-8 -48t-11.5 -58.5t-20 -94t-26.5 -123q-29 -124 -26 -285h-207q-1 90 13 183.5t48 256.5
q17 69 17 111q0 88 -70 88q-79 0 -148.5 -92.5t-110.5 -240t-42 -306.5z" />
    <glyph glyph-name="i.superior" horiz-adv-x="471" 
d="M569 1726q0 -61 -52 -113t-118 -52q-44 0 -70 26t-26 66q0 62 54.5 113t117.5 51q43 0 68.5 -25t25.5 -66zM391 596h-205q-5 151 56 426l32 147l11 222l219 16q2 -73 -15.5 -183.5t-40 -208t-40.5 -215.5t-17 -204z" />
    </font>
</defs>
</svg>
