<?xml version="1.0" standalone="no"?>
<!DOCTYPE svg PUBLIC "-//W3C//DTD SVG 1.1//EN" "http://www.w3.org/Graphics/SVG/1.1/DTD/svg11.dtd" >
<svg xmlns="http://www.w3.org/2000/svg" xmlns:xlink="http://www.w3.org/1999/xlink" version="1.1">
<metadata>
Created by FontForge 20170731 at Sat Sep  3 03:34:03 2022
 By Aleksey,,,
Universidad La Salle A.C.
</metadata>
<defs>
<font id="IndivisaTextSans-BlackItalic" horiz-adv-x="1269" >
  <font-face 
    font-family="Indivisa Text Sans Black"
    font-weight="700"
    font-style="italic"
    font-stretch="normal"
    units-per-em="2048"
    panose-1="0 0 0 0 0 0 0 0 0 0"
    ascent="1536"
    descent="-512"
    x-height="1044"
    cap-height="1434"
    bbox="-276 -758 11129 2521"
    underline-thickness="184"
    underline-position="-624"
    slope="-12"
    unicode-range="U+0020-FB02"
  />
<missing-glyph horiz-adv-x="1394" 
d="M180 0l328 1536h983l-328 -1536h-983zM647 1454l207 -600l459 600h-666zM883 770l223 -657l278 1314zM565 1425l-278 -1310l504 655zM354 82h670l-207 604z" />
    <glyph glyph-name="f_f" unicode="ff" horiz-adv-x="1466" 
d="M625 1098q-8 -37 -19 -115h279q19 124 22 137q12 59 37 115q-54 45 -137 45q-65 0 -114 -45t-68 -137zM-27 -512l-116 123q81 124 126.5 240.5t77.5 271.5l146 686l-141 10l26 123l152 41q6 53 18 115q27 133 110 228.5t203 142.5t265 47q167 0 284 -60q148 100 365 100
q88 0 165.5 -19.5t121.5 -49.5l-129 -268q-107 71 -205 71q-64 0 -107.5 -36.5t-58.5 -104.5q-8 -40 -16.5 -94t-12.5 -72h252l17 -37l-41 -147l-258 8l-125 -586q-25 -120 -50.5 -206.5t-63 -170.5t-87 -147.5t-119 -121.5t-162.5 -107l-116 122q81 124 126.5 240.5
t77.5 271.5l150 707h-273l-120 -567q-25 -120 -50.5 -206.5t-63 -171t-87 -148t-119.5 -121.5t-162 -107z" />
    <glyph glyph-name="f_f_i" unicode="ffi" horiz-adv-x="1916" 
d="M625 1098q-8 -37 -19 -115h279q5 53 20 127q16 77 41 133q-60 37 -133 37q-148 0 -188 -182zM-27 -512l-116 123q81 124 126.5 240.5t77.5 271.5l146 686l-141 10l26 123l152 41q13 92 18 115q49 205 201 311.5t377 106.5q165 0 290 -54q145 94 349 94q143 0 255.5 -39.5
t176.5 -103.5l-215 -217q-122 94 -252 94q-72 0 -113.5 -39t-58.5 -123q-22 -113 -25 -145h244l387 61q0 -113 -38 -305.5t-76 -396t-38 -342.5h-368q0 196 76 547l41 188l4 64l-262 8l-121 -565q-26 -121 -51.5 -207.5t-63 -171t-86.5 -147.5t-118.5 -121t-162.5 -107
l-116 123q81 124 126.5 240.5t77.5 271.5l146 686h-273l-120 -567q-25 -120 -50.5 -206.5t-63 -171t-87 -148t-119.5 -121.5t-162 -107z" />
    <glyph glyph-name="f_f_l" unicode="ffl" horiz-adv-x="1908" 
d="M1272 1128q-22 -113 -25 -145h277l57 264v13q-64 30 -137 30q-72 0 -113.5 -39t-58.5 -123zM625 1098q-8 -37 -19 -115h279q5 53 20 127q9 53 39 125q-54 45 -131 45q-148 0 -188 -182zM-27 -512l-116 123q81 124 126.5 240.5t77.5 271.5l146 686l-141 10l26 123l152 41
q13 92 18 115q49 205 201 311.5t377 106.5q164 0 284 -60q142 100 355 100q93 0 170 -18l336 18q0 -128 -41 -349.5t-89.5 -424t-89.5 -426.5t-41 -356h-368q0 111 26.5 276.5t98.5 501.5l4 21l-268 8l-121 -565q-26 -121 -51.5 -207.5t-63 -171t-86.5 -147.5t-118.5 -121
t-162.5 -107l-116 123q81 124 126.5 240.5t77.5 271.5l146 686h-273l-120 -567q-25 -120 -50.5 -206.5t-63 -171t-87 -148t-119.5 -121.5t-162 -107z" />
    <glyph glyph-name="f_i" unicode="fi" horiz-adv-x="1275" 
d="M-27 -512l-116 123q81 124 126.5 240.5t77.5 271.5l146 686l-141 10l26 123l152 41q5 53 20 127q42 213 194.5 329.5t379.5 116.5q143 0 255.5 -39.5t176.5 -103.5l-215 -217q-122 94 -252 94q-72 0 -113.5 -39t-58.5 -123q-22 -113 -25 -145h244l387 61
q0 -113 -38 -305.5t-76 -396t-38 -342.5h-368q0 196 76 547l41 188l4 64l-263 8l-120 -565q-26 -121 -51.5 -207.5t-63 -171t-86.5 -147.5t-118.5 -121t-162.5 -107z" />
    <glyph glyph-name="f_l" unicode="fl" horiz-adv-x="1267" 
d="M631 1128q-22 -113 -25 -145h277l57 264v13q-65 30 -137 30t-113.5 -39t-58.5 -123zM-27 -512l-116 123q81 124 126.5 240.5t77.5 271.5l146 686l-141 10l26 123l152 41q5 53 20 127q42 213 194.5 329.5t379.5 116.5q94 0 170 -18l335 18q0 -128 -40.5 -349.5t-89.5 -424
t-89.5 -426.5t-40.5 -356h-368q0 111 26.5 276.5t98.5 501.5l4 21l-269 8l-120 -565q-26 -121 -51.5 -207.5t-63 -171t-86.5 -147.5t-118.5 -121t-162.5 -107z" />
    <glyph glyph-name="symbol1" unicode="&#x2f;symbol&#x31;&#x2f;" horiz-adv-x="11333" 
d="M3820 844q-52 0 -83.5 29t-31.5 77q0 71 67 131t144 60q50 0 80 -28t30 -77q0 -74 -63.5 -133t-142.5 -59zM2630 844q-54 0 -85.5 29t-31.5 77q0 71 68 131t145 60q50 0 79 -28t29 -77q0 -73 -63 -132.5t-141 -59.5zM1964 0q0 80 23 221q-33 -103 -105.5 -169t-161.5 -66
q-84 0 -129 60.5t-45 168.5q0 74 20 150t62 146t100 124.5t140 87.5t176 33q35 0 51 -2l33 149l12 209l279 14q0 -92 -29.5 -252t-65 -306.5t-65 -309t-29.5 -258.5h-266zM205 0l160 745q36 182 43 279l262 14l22 -30l-213 -1008h-274zM7174 1008l-117 -1008h-268l41 358
q7 72 68 441h-6q-64 -206 -166 -441l-156 -358h-305l-4 358q-3 249 18 441h-4q-66 -269 -121 -441l-108 -358h-224l316 1024l377 12l2 -280q4 -279 -31 -531h4q78 253 193 531l114 268l346 14zM10887 614q-16 -79 -31.5 -151t-22.5 -104.5t-13 -60.5t-7.5 -38.5t-1.5 -19.5
q0 -34 19.5 -52t54.5 -18q52 0 121 37l-18 -162q-105 -59 -234 -59q-104 0 -159.5 51.5t-55.5 152.5q0 13 1 24.5t4 31.5t6 36t10.5 53.5t14 68.5t20.5 95.5t26 121.5l-96 2l18 90l111 28l108 195l166 12l27 -30l-41 -177h203l12 -28l-35 -105zM688 0q0 157 84 532l12 209
l281 15q0 -64 -14 -183h4q55 94 128 138.5t146 44.5q69 0 108.5 -40t39.5 -106q0 -55 -54 -301q-22 -102 -29.5 -165t-7.5 -144h-268q0 115 39 307q5 28 12 63t10.5 52t6 34.5t2.5 28.5q0 50 -35 50q-46 0 -91.5 -79t-74.5 -204t-31 -252h-268zM2396 0q0 150 55 395l29 137
l12 209l281 15q0 -94 -55.5 -362.5t-55.5 -393.5h-266zM2865 741l287 15q27 -273 -10 -592h4q70 139 121.5 298t64.5 283q50 11 102 11q66 0 100 -17t34 -69q0 -95 -104.5 -302.5t-237.5 -367.5h-306q-9 470 -55 741zM3588 0q0 144 53 395l31 137l12 209l281 15
q0 -94 -55.5 -362.5t-55.5 -393.5h-266zM9658 0q0 157 84 532l13 209l280 15q0 -24 -14 -183h4q55 94 127.5 138.5t146.5 44.5q69 0 108.5 -40t39.5 -106q0 -60 -53 -301q-23 -106 -31 -168t-8 -141h-267q0 115 39 307q5 28 12 63t10.5 52t6 34.5t2.5 28.5q0 50 -35 50
q-47 0 -92 -79t-74 -203.5t-32 -252.5h-267zM4598 524q-50 29 -105 45.5t-94 16.5q-36 0 -61 -15t-25 -39t27 -43.5t65.5 -37.5t77 -40.5t65.5 -64t27 -96.5q0 -118 -108.5 -191t-261.5 -73q-69 0 -137.5 15.5t-104.5 41.5l55 190q53 -35 118 -56t110 -21q38 0 59.5 15
t21.5 38t-27 43t-65.5 38.5t-77 42t-65.5 63.5t-27 93q0 115 111.5 191t263.5 76q119 0 213 -37zM5171 756q72 0 155.5 -16.5t143.5 -49.5l-59 -262q-64 -300 -64 -428h-266q0 69 25 229q-32 -106 -106 -174.5t-165 -68.5q-84 0 -128 60.5t-44 170.5q0 74 20 149t62 145.5
t100.5 124.5t143 87t182.5 33zM9529 104q-65 -57 -150.5 -87.5t-174.5 -30.5q-133 0 -212 71t-79 209q0 125 61.5 237t174 182.5t247.5 70.5q111 0 177.5 -48t66.5 -133q0 -118 -123 -197.5t-330 -88.5v-2q0 -131 129 -131q89 0 185 57zM8061 0q0 84 19 201.5t67 330.5
l10 209l281 15q0 -56 -15 -183h5q56 94 129 138.5t145 44.5q70 0 108.5 -40t38.5 -106q0 -60 -53 -301q-22 -102 -29.5 -165t-7.5 -144h-268q0 115 39 307q31 149 31 178q0 50 -35 50q-46 0 -91.5 -79t-74.5 -204t-31 -252h-268zM7717 756q72 0 154.5 -16.5t142.5 -49.5
l-58 -262q-63 -296 -63 -428h-266q0 91 24 229q-32 -106 -105.5 -174.5t-164.5 -68.5q-84 0 -129 60.5t-45 170.5q0 93 33 186.5t94.5 173t161.5 129.5t221 50zM9196 362q95 21 148.5 70t53.5 121q0 63 -45 63q-57 0 -99 -78.5t-58 -175.5zM7530 207q48 0 97.5 88.5
t77.5 206.5q2 17 9.5 50t8.5 40q-32 16 -55 16q-46 0 -91 -55.5t-70.5 -129.5t-25.5 -134q0 -38 13 -60t36 -22zM1870 207q45 0 91.5 81t76.5 193q2 16 16 82l6 29q-29 16 -55 16q-45 0 -89 -55.5t-69.5 -129.5t-25.5 -134q0 -38 13 -60t36 -22zM4987 207q47 0 96.5 89
t75.5 206q9 44 18 90q-29 16 -55 16q-46 0 -90 -55.5t-69 -129.5t-25 -134q0 -82 49 -82z" />
    <glyph glyph-name="symbol2" unicode="&#x2f;symbol&#x32;&#x2f;" horiz-adv-x="1908" 
d="M1012 1167l106 -184l-280 -491h-211l280 491l-106 184h211zM731 1167l107 -184l-283 -491h-211l283 491l-107 184h211zM1540 246h-211l-280 491l104 185l281 -492h211zM1399 0h-211l-281 492l105 184l282 -492h211zM205 246l104 184h563l105 -184h-561l-107 -185zM344 0
l107 184h561l106 -184h-563l-104 -184zM1616 180q37 0 62.5 -26.5t25.5 -63.5t-25.5 -63.5t-62.5 -26.5t-62.5 26.5t-25.5 63.5t25.5 63.5t62.5 26.5zM1698 90q0 34 -24 58t-58 24t-58 -24t-24 -58t24 -58t58 -24t58 24t24 58zM1579 141h37q14 0 22 -4q11 -8 11 -22
q0 -10 -7 -17q-2 -3 -12 -8q14 -3 17 -18q0 -18 6 -33h-17q-1 3 -2 13t-2 14q-2 12 -5.5 16t-16.5 4h-17v-47h-14v102zM1593 96h21q10 0 14 2q6 6 6 15q0 16 -20 16h-21v-33z" />
    <glyph glyph-name="symbol3" unicode="&#x2f;symbol&#x33;&#x2f;" horiz-adv-x="1959" 
d="M1034 1307l140 -553h552l-415 -277l278 -553l-555 277l-553 -553l277 829l-553 416l692 -139zM1667 178q37 0 62.5 -26t25.5 -64q0 -37 -25.5 -62.5t-62.5 -25.5t-62.5 25.5t-25.5 62.5q0 38 25.5 64t62.5 26zM1749 88q0 35 -24 59.5t-58 24.5t-58 -24.5t-24 -59.5
q0 -34 24 -58t58 -24t58 24t24 58zM1630 139h37q17 0 23 -4q12 -6 12 -20q0 -11 -8 -19q-6 -6 -13 -6q15 -6 17 -20q5 -30 6 -33h-14q-2 4 -3 9t-2 11t-2 9q0 11 -4 14.5t-16 3.5h-18v-47h-15v102zM1645 96h20q10 0 14 2q7 7 7 13q0 18 -21 18h-20v-33z" />
    <glyph glyph-name="symbol4" unicode="&#x2f;symbol&#x34;&#x2f;" horiz-adv-x="5339" 
d="M3449 831q0 128 -23 263l258 28l31 -30v-1092h-266v831zM3869 831q0 122 -21 263l258 28l29 -30v-1092h-266v831zM874 207v-207h-655v741q0 165 -14 277l258 14l29 -28v-811zM1894 43l15 223q59 -35 142.5 -54t152.5 -19q102 0 102 73q0 26 -22.5 50.5t-59 46.5t-80.5 46
t-88 54.5t-80.5 66.5t-59 88t-22.5 113q0 141 113 221t283 80q167 0 260 -37l-29 -227q-115 59 -227 59q-56 0 -87.5 -22.5t-31.5 -59.5q0 -31 22.5 -58t59 -50t80.5 -47t88 -54t80.5 -65t59 -86t22.5 -111q0 -134 -109.5 -211t-286.5 -77q-85 0 -171.5 16.5t-125.5 40.5z
M1628 0l-217 -14q-24 37 -43 100h-8q-31 -45 -88 -72.5t-125 -27.5q-89 0 -144 46.5t-55 135.5q0 119 104.5 178t286.5 64v41q0 110 -118 110q-114 0 -222 -59l-16 198q148 54 307 54q156 0 236 -70.5t80 -206.5q0 -52 -4.5 -142t-4.5 -142q0 -102 31 -193zM3330 0l-219 -14
q-27 46 -43 100h-6q-31 -45 -88.5 -72.5t-126.5 -27.5q-87 0 -142 46.5t-55 135.5q0 119 104 178t287 64v41q0 110 -119 110q-111 0 -223 -59l-14 198q148 54 307 54q156 0 234.5 -70.5t78.5 -206.5q0 -52 -3 -142t-3 -142q0 -102 31 -193zM4925 436q0 -49 -2 -74l-22 -22
h-391q28 -170 200 -170q91 0 172 43l15 -166q-92 -61 -260 -61q-186 0 -296 97t-110 275q0 175 107 285.5t270 110.5q147 0 232 -88.5t85 -229.5zM4504 424l159 8q4 28 4 53q0 51 -16.5 86t-52.5 35q-45 0 -68.5 -50.5t-25.5 -131.5zM1339 152v180q-59 -6 -96 -36.5
t-37 -80.5q0 -37 21 -59.5t55 -22.5q32 0 57 19zM3041 152v180q-59 -6 -96 -36.5t-37 -80.5q0 -37 20.5 -59.5t55.5 -22.5q32 0 57 19zM5046 174q37 0 62.5 -26.5t25.5 -63.5t-25.5 -63.5t-62.5 -26.5t-63.5 26.5t-26.5 63.5t26.5 63.5t63.5 26.5zM5128 84q0 34 -24 58
t-58 24t-58 -24t-24 -58t24 -58t58 -24t58 24t24 58zM5009 135h37q15 0 23 -6q10 -5 10 -20q0 -10 -6 -19q-6 -6 -12 -6q13 -3 16 -21q0 -15 6 -30h-16q-1 3 -2 12.5t-2 13.5q-2 11 -6 15t-17 4h-16v-45h-15v102zM5024 90h20q11 0 15 2q6 6 6 14q0 17 -21 17h-20v-33z" />
    <glyph glyph-name="symbol5" unicode="&#x2f;symbol&#x35;&#x2f;" horiz-adv-x="1443" 
d="M475 -12l-270 278l254 479l264 -278zM971 -12l-248 479l262 278l254 -479z" />
    <glyph glyph-name=".notdef" horiz-adv-x="1394" 
d="M180 0l328 1536h983l-328 -1536h-983zM647 1454l207 -600l459 600h-666zM883 770l223 -657l278 1314zM565 1425l-278 -1310l504 655zM354 82h670l-207 604z" />
    <glyph glyph-name=".null" horiz-adv-x="0" 
 />
    <glyph glyph-name="nonmarkingreturn" horiz-adv-x="682" 
 />
    <glyph glyph-name="space" unicode=" " horiz-adv-x="512" 
 />
    <glyph glyph-name="exclam" unicode="!" horiz-adv-x="718" 
d="M469 475h-223q28 222 112 938l353 21l30 -41q-101 -439 -272 -918zM487 227q0 -92 -80 -167.5t-178 -75.5q-66 0 -105.5 37.5t-39.5 95.5q0 87 81 161t181 74q65 0 103 -33.5t38 -91.5z" />
    <glyph glyph-name="quotedbl" unicode="&#x22;" horiz-adv-x="874" 
d="M594 1556l8 -61l-219 -588h-121l51 649h281zM983 1556l8 -61l-219 -588h-121l51 649h281z" />
    <glyph glyph-name="numbersign" unicode="#" horiz-adv-x="1466" 
d="M342 -20l-162 30l-14 17l106 229h-229l-12 16l59 168h268l105 226h-244l-12 16l59 168h281l129 276l160 -30l14 -17l-107 -229h277l129 276l160 -30l14 -17l-106 -229h223l12 -16l-59 -168h-260l-105 -226h246l14 -16l-61 -168h-285l-127 -276l-162 30l-14 17l106 229
h-276zM555 440h276l105 226h-277z" />
    <glyph glyph-name="dollar" unicode="$" horiz-adv-x="1073" 
d="M297 -287l-12 17l53 250q-108 3 -210 25t-142 54l86 310q65 -48 163.5 -75.5t172.5 -27.5q80 0 118.5 34.5t38.5 84.5q0 34 -20 68.5t-52 66t-71 65.5t-78 74t-71 84t-52 103.5t-20 124.5q0 176 133 298.5t350 153.5l59 271l127 6l15 -17l-56 -249q191 0 295 -52
l-108 -317q-53 38 -120.5 60t-125.5 22q-85 0 -126.5 -37t-41.5 -96q0 -40 20 -77.5t51.5 -69.5t70 -65.5t77.5 -72t70.5 -81t51.5 -100.5t20 -124q0 -122 -66 -216.5t-172 -148t-242 -71.5l-57 -269z" />
    <glyph glyph-name="percent" unicode="%" horiz-adv-x="2115" 
d="M1038 1120q0 -101 -40.5 -195t-110.5 -164.5t-169 -112.5t-210 -42q-149 0 -240.5 78.5t-91.5 230.5q0 136 71.5 256.5t195.5 193.5t268 73q151 0 239 -83t88 -235zM1624 1434l-870 -1454h-133l868 1454h135zM492 889q0 -113 61 -113q41 0 75 42t53.5 104t30.5 125.5
t11 115.5q0 107 -61 107q-41 0 -75.5 -41.5t-54 -103t-30 -124t-10.5 -112.5zM2001 358q0 -101 -41 -195t-110.5 -164t-169 -112.5t-210.5 -42.5q-149 0 -240 79t-91 231q0 102 42.5 198t113.5 167t170.5 114t207.5 43q152 0 240 -83t88 -235zM1454 127q0 -113 62 -113
q41 0 75 42t53.5 104t30.5 125.5t11 115.5q0 107 -62 107q-41 0 -75.5 -41.5t-54 -103t-30 -124t-10.5 -112.5z" />
    <glyph glyph-name="ampersand" unicode="&#x26;" horiz-adv-x="1638" 
d="M1536 252q0 -102 -66 -173t-188 -99l-14 14q10 20 10 49q0 55 -45 102.5t-129 98.5q-103 -124 -244.5 -194t-314.5 -70q-131 0 -238 40.5t-172 120.5t-65 185q0 132 96.5 260.5t253.5 208.5q-33 87 -33 180q0 147 75.5 252.5t198 156t277.5 50.5q162 0 258 -57t96 -160
q0 -69 -41 -122t-104 -63q290 0 557 12l20 -10q0 -52 -14.5 -133t-30.5 -135q-166 14 -358 43q-9 -111 -39 -219q120 -74 187 -153.5t67 -184.5zM764 1061q0 -42 12.5 -80t38.5 -72t54.5 -62t73 -58t80.5 -51.5t89 -51.5q10 50 18 154q-34 6 -204 41v80q53 75 53 141
q0 44 -21.5 74t-68.5 30q-54 0 -89.5 -37t-35.5 -108zM449 434q0 -101 64.5 -155t164.5 -54q147 0 260 113q-142 75 -245 143.5t-177 153.5q-67 -98 -67 -201z" />
    <glyph glyph-name="quotesingle" unicode="'" horiz-adv-x="485" 
d="M594 1556l8 -61l-219 -588h-121l51 649h281z" />
    <glyph glyph-name="parenleft" unicode="(" horiz-adv-x="944" 
d="M154 344q0 191 62 374.5t174 338t265.5 282t337.5 217.5l92 -184q-263 -194 -408 -466.5t-145 -567.5q0 -168 52 -303t161 -256l-170 -185q-210 133 -315.5 317t-105.5 433z" />
    <glyph glyph-name="parenright" unicode=")" horiz-adv-x="944" 
d="M817 807q0 -191 -62.5 -374.5t-174.5 -338.5t-265.5 -282.5t-337.5 -217.5l-92 185q263 194 408 466.5t145 567.5q0 168 -52 303t-161 256l170 184q210 -133 316 -316.5t106 -432.5z" />
    <glyph glyph-name="asterisk" unicode="*" horiz-adv-x="1032" 
d="M451 690l-5 49l136 305l-320 -239l-72 192l46 37l323 90l-323 115l151 193l47 -13l184 -217l3 357h221l4 -50l-141 -313l325 248l72 -193l-43 -37l-324 -92l322 -112l-152 -193l-45 12l-188 220v-359h-221z" />
    <glyph glyph-name="plus" unicode="+" 
d="M1108 621h-358l-78 -365h-180l75 365h-381l37 174q106 2 383 6l74 356h184l-76 -354q141 2 363 2l12 -17z" />
    <glyph glyph-name="comma" unicode="," horiz-adv-x="610" 
d="M-102 -303q162 145 233 287q-53 11 -85 49t-32 96q0 101 85 183.5t188 82.5q73 0 119.5 -40.5t46.5 -118.5q0 -79 -46.5 -173.5t-120 -180t-151.5 -157t-153 -124.5z" />
    <glyph glyph-name="hyphen" unicode="-" horiz-adv-x="851" 
d="M76 514l8 102h717l-10 -102h-715z" />
    <glyph glyph-name="period" unicode="." horiz-adv-x="618" 
d="M465 254q0 -104 -88.5 -189t-198.5 -85q-75 0 -118.5 41t-43.5 104q0 101 92.5 185.5t202.5 84.5q69 0 111.5 -38.5t42.5 -102.5z" />
    <glyph glyph-name="slash" unicode="/" horiz-adv-x="749" 
d="M893 1526l12 -17l-708 -1529l-162 30l-12 17l708 1529z" />
    <glyph glyph-name="zero" unicode="0" horiz-adv-x="1406" 
d="M1360 918q0 -146 -40.5 -287t-114.5 -257t-171.5 -205.5t-218 -139t-246.5 -49.5q-203 0 -322.5 129t-119.5 378q0 180 65 353.5t172.5 304t255 210t304.5 79.5q205 0 320.5 -134t115.5 -382zM498 446q0 -241 131 -241q76 0 146 76.5t116.5 192t74 248.5t27.5 249
q0 237 -129 237q-78 0 -148.5 -76t-116.5 -191t-73.5 -247t-27.5 -248z" />
    <glyph glyph-name="one" unicode="1" horiz-adv-x="827" 
d="M397 1063h-6l-198 -21l-3 226l609 164l30 -41l-294 -1391h-369l168 786q45 216 63 277z" />
    <glyph glyph-name="two" unicode="2" horiz-adv-x="1089" 
d="M2 0l14 256q68 38 153 95.5t186 140t183 167.5t137.5 180.5t55.5 174.5q0 69 -40 111t-113 42q-70 0 -167 -37.5t-194 -99.5l27 291q97 46 228 79.5t251 33.5q185 0 296 -85t111 -225q0 -91 -47.5 -191t-124.5 -190t-177.5 -177t-203.5 -156t-206 -123h241q176 0 332 20
l-86 -307h-856z" />
    <glyph glyph-name="three" unicode="3" horiz-adv-x="1099" 
d="M258 1325q93 45 222 77t241 32q166 0 267.5 -72t101.5 -188q0 -127 -108 -243t-261 -163q139 -23 215 -100.5t76 -196.5q0 -133 -92.5 -246t-254.5 -179t-356 -66q-191 0 -340 47l86 245q52 -19 141 -33t152 -14q122 0 200.5 56t78.5 139q0 135 -258 135q-91 0 -183 -14
l54 245q199 19 324.5 96.5t125.5 178.5q0 106 -137 106q-67 0 -158.5 -25.5t-175.5 -66.5z" />
    <glyph glyph-name="four" unicode="4" horiz-adv-x="1222" 
d="M14 541l740 868l409 23l33 -41l-172 -813q69 5 166 16l-82 -285h-141l-66 -309h-348l65 309h-612zM319 575v-6q164 4 357 4l41 195q64 292 98 395h-6z" />
    <glyph glyph-name="five" unicode="5" horiz-adv-x="1189" 
d="M33 27l88 256q48 -19 122.5 -33t143.5 -14q143 0 226 63.5t83 163.5q0 85 -59 123.5t-154 38.5q-115 0 -247 -58l-46 31l175 815h530q173 0 332 21l-86 -308h-541l-55 -264q97 19 180 19q164 0 262 -82.5t98 -243.5q0 -118 -53.5 -223.5t-148.5 -183t-234 -123
t-301 -45.5q-176 0 -315 47z" />
    <glyph glyph-name="six" unicode="6" horiz-adv-x="1243" 
d="M520 -20q-95 0 -171.5 25.5t-135.5 78.5t-91 142t-32 208q0 152 51 301t144 273.5t214 221t270.5 150.5t303.5 54q115 0 166 -21l-88 -268q-68 22 -141 22q-88 0 -176.5 -39t-169.5 -124t-125 -203h6q115 49 258 49q160 0 249 -78.5t89 -230.5q0 -150 -82.5 -279
t-226 -205.5t-312.5 -76.5zM639 625q-38 0 -82 -14t-72 -36q-34 -157 -34 -243q0 -67 23 -97t73 -30q89 0 148 83.5t59 194.5q0 142 -115 142z" />
    <glyph glyph-name="seven" unicode="7" horiz-adv-x="1075" 
d="M178 1085l96 328h932l35 -41l-43 -205q-302 -255 -484 -538.5t-265 -628.5h-379q88 320 304.5 623t479.5 497l2 6h-238q-255 0 -440 -41z" />
    <glyph glyph-name="eight" unicode="8" horiz-adv-x="1273" 
d="M485 -20q-210 0 -331 87t-121 228t115 263.5t286 168.5l2 6q-41 27 -70 52t-58 59.5t-44.5 77.5t-15.5 92q0 113 78.5 209.5t214 153.5t295.5 57q102 0 181 -24.5t125.5 -66.5t69.5 -91.5t23 -104.5q0 -112 -90 -216.5t-234 -172.5l-2 -6q240 -115 240 -308
q0 -126 -90.5 -233t-243.5 -169t-330 -62zM776 1229q-75 0 -129.5 -51t-54.5 -123q0 -108 139 -181q73 52 118.5 120.5t45.5 127.5q0 49 -33 78t-86 29zM604 582q-97 -39 -158 -113t-61 -150q0 -61 43.5 -98t118.5 -37q101 0 171 58.5t70 142.5q0 120 -184 197z" />
    <glyph glyph-name="nine" unicode="9" horiz-adv-x="1228" 
d="M516 528q-163 0 -257.5 81t-94.5 229q0 162 84.5 299.5t229.5 217t315 79.5q93 0 170 -25.5t135 -76t90.5 -133t32.5 -189.5q0 -134 -36.5 -265.5t-100.5 -244t-154.5 -209.5t-196 -165.5t-228 -107t-247.5 -38.5q-93 0 -156 16l52 262q71 -12 137 -12q178 0 292.5 84.5
t184.5 253.5h-6q-100 -56 -246 -56zM741 1188q-75 0 -132.5 -89.5t-57.5 -207.5q0 -68 32 -103.5t93 -35.5q65 0 137 30q31 158 31 242q0 86 -25.5 125t-77.5 39z" />
    <glyph glyph-name="colon" unicode=":" horiz-adv-x="620" 
d="M604 903q0 -104 -88.5 -189t-198.5 -85q-75 0 -118 41t-43 104q0 101 92.5 185.5t202.5 84.5q69 0 111 -38.5t42 -102.5zM465 254q0 -104 -88.5 -189t-198.5 -85q-75 0 -118.5 41t-43.5 104q0 101 92.5 185.5t202.5 84.5q69 0 111.5 -38.5t42.5 -102.5z" />
    <glyph glyph-name="semicolon" unicode=";" horiz-adv-x="610" 
d="M596 903q0 -104 -88.5 -189t-198.5 -85q-75 0 -118.5 41t-43.5 104q0 101 92.5 185.5t202.5 84.5q69 0 111.5 -38.5t42.5 -102.5zM-102 -303q162 145 233 287q-53 11 -85 49t-32 96q0 101 85 183.5t188 82.5q73 0 119.5 -40.5t46.5 -118.5q0 -79 -46.5 -173.5t-120 -180
t-151.5 -157t-153 -124.5z" />
    <glyph glyph-name="less" unicode="&#x3c;" 
d="M1153 1214l-41 -194l-723 -320l586 -311l-41 -194q-137 61 -413.5 204.5t-416.5 225.5l-4 22l31 141z" />
    <glyph glyph-name="equal" unicode="=" 
d="M1153 827h-922l37 174q383 11 928 11l12 -17zM1065 418h-922l37 174q352 10 928 10l12 -16z" />
    <glyph glyph-name="greater" unicode="&#x3e;" 
d="M117 195l41 194l723 320l-586 311l41 194q137 -60 412.5 -204t416.5 -226l4 -22l-30 -141z" />
    <glyph glyph-name="question" unicode="?" horiz-adv-x="1079" 
d="M537 463l-209 -10q-15 47 -15 84q0 54 22.5 101.5t58.5 83t79.5 68.5t87 64t79.5 62t58.5 70t22.5 81q0 48 -35.5 76t-97.5 28q-68 0 -154 -37t-153 -100l-86 197q225 203 526 203q187 0 291 -77t104 -202q0 -72 -28.5 -137t-74 -113.5t-100.5 -90.5t-111.5 -76t-104 -63
t-81.5 -57t-41 -53q-11 -42 -18 -86zM588 227q0 -92 -80 -167.5t-178 -75.5q-66 0 -106 37.5t-40 95.5q0 87 81 161t181 74q65 0 103.5 -33.5t38.5 -91.5z" />
    <glyph glyph-name="at" unicode="@" horiz-adv-x="2297" 
d="M1638 -328q-112 -91 -273.5 -147.5t-348.5 -56.5q-259 0 -464 113t-320 318t-115 466q0 195 65.5 378.5t181.5 329t267.5 255.5t332 169t365.5 59q192 0 356 -64.5t277 -176t176.5 -263t63.5 -323.5q0 -152 -50 -291t-134.5 -239t-201.5 -159.5t-245 -59.5
q-69 0 -126 17.5t-94 46.5t-64 67.5t-37 80.5t-12.5 85.5t9.5 82.5h-10q-24 -87 -78 -171.5t-138 -146.5t-173 -62q-112 0 -177 91t-65 238q0 96 28.5 197t88.5 197.5t142.5 172.5t200 122t251.5 46q101 0 208.5 -24.5t194.5 -65.5l-80 -364q-16 -72 -23 -109.5
t-16.5 -100.5t-6.5 -97t12.5 -71.5t35.5 -54t66 -16.5q63 0 129.5 43t123 116.5t92.5 185.5t36 237q0 212 -99.5 379.5t-272.5 259.5t-386 92q-129 0 -261.5 -35.5t-254.5 -100.5t-229 -162t-186.5 -213.5t-125 -262.5t-45.5 -301q0 -173 58 -322.5t162.5 -257t257 -168.5
t333.5 -61q166 0 293.5 44.5t265.5 123.5zM1053 287q67 0 137 128t104 292l25 120q-29 13 -55 13q-71 0 -138 -77.5t-104 -179.5t-37 -184q0 -54 18 -83t50 -29z" />
    <glyph glyph-name="A" unicode="A" horiz-adv-x="1413" 
d="M301 0h-358l592 1188q60 117 102 225l463 19l51 -52l102 -1380h-379l-16 266h-428zM602 625l-45 -93h287l-6 91q-16 316 -9 487h-10q-90 -218 -217 -485z" />
    <glyph glyph-name="B" unicode="B" horiz-adv-x="1333" 
d="M625 0h-570l224 1047q48 218 57 366h600q191 0 295 -84t104 -225q0 -122 -75.5 -218.5t-206.5 -148.5q100 -38 150 -102.5t50 -165.5q0 -104 -52.5 -193.5t-140 -149t-200.5 -93t-235 -33.5zM815 1157h-143l-70 -332h143q98 0 154.5 61t56.5 144q0 127 -141 127zM715 596
h-162l-72 -340h162q104 0 170 59.5t66 147.5q0 133 -164 133z" />
    <glyph glyph-name="C" unicode="C" horiz-adv-x="1202" 
d="M1077 365l-22 -304q-181 -81 -400 -81q-270 0 -411.5 136t-141.5 402q0 179 63.5 346t172 292.5t264.5 201.5t330 76q100 0 197.5 -23t150.5 -59l-139 -318q-58 42 -132.5 67t-138.5 25q-86 0 -157.5 -49t-116.5 -127t-69.5 -171.5t-24.5 -186.5q0 -305 266 -305
q149 0 309 78z" />
    <glyph glyph-name="D" unicode="D" horiz-adv-x="1482" 
d="M1458 874q0 -138 -37 -266t-112.5 -239t-182.5 -193t-256.5 -129t-324.5 -47h-488l222 1047q51 234 57 366h549q573 0 573 -539zM791 1147h-113l-184 -881h139q90 0 164 35t122.5 92t81.5 132.5t47.5 152.5t14.5 156q0 65 -11 116t-27 83t-42.5 55.5t-47.5 34.5t-53 17
t-48 6.5t-43 0.5z" />
    <glyph glyph-name="E" unicode="E" horiz-adv-x="1189" 
d="M1069 287l-59 -287h-953l222 1047q51 231 57 366h919l33 -41l-59 -246l-551 21l-70 -330l455 10l-66 -260l-438 15l-67 -316z" />
    <glyph glyph-name="F" unicode="F" horiz-adv-x="1105" 
d="M436 0h-379l222 1047q51 231 57 366h878l33 -41l-59 -246l-510 21l-78 -371l412 10l-66 -260l-395 15z" />
    <glyph glyph-name="G" unicode="G" horiz-adv-x="1368" 
d="M1249 682l33 -41l-129 -580q-229 -81 -467 -81q-292 0 -441 132.5t-149 387.5q0 180 73 351t196.5 299t298 206t366.5 78q107 0 209 -23t170 -59l-129 -318q-135 103 -295 103q-110 0 -203.5 -49.5t-155 -131t-96 -183.5t-34.5 -208q0 -299 286 -299q41 0 64 2
q25 122 34.5 191.5t18.5 202.5z" />
    <glyph glyph-name="H" unicode="H" horiz-adv-x="1507" 
d="M436 0h-379l219 1030q50 242 60 383l362 21l33 -41l-119 -559h443l41 196q48 235 59 383l363 21l32 -41l-295 -1393h-378l120 567h-440z" />
    <glyph glyph-name="I" unicode="I" horiz-adv-x="688" 
d="M436 0h-379l219 1030q50 242 60 383l362 21l33 -41z" />
    <glyph glyph-name="J" unicode="J" horiz-adv-x="686" 
d="M-76 -414l-78 127q103 116 167.5 254t103.5 320l157 743q42 208 48 365l378 39l31 -39l-235 -1108q-30 -140 -68.5 -237t-104 -183t-161.5 -152.5t-238 -128.5z" />
    <glyph glyph-name="K" unicode="K" horiz-adv-x="1372" 
d="M274 1030q49 234 62 383l362 21l33 -41l-129 -609h123q234 357 416 650l354 -21l12 -39l-487 -631l244 -743l-441 -10q-88 249 -155 528h-123l-111 -518h-379z" />
    <glyph glyph-name="L" unicode="L" horiz-adv-x="1087" 
d="M1028 287l-59 -287h-912l219 1030q50 242 60 383l362 21l33 -41l-237 -1127z" />
    <glyph glyph-name="M" unicode="M" horiz-adv-x="1908" 
d="M1817 1434l43 -41l-162 -1393h-371l57 496q8 77 23 176t41.5 258t28.5 174h-7q-82 -265 -229 -608l-215 -496h-422l-6 496q-3 361 27 608h-7q-81 -327 -165 -608l-152 -496h-307l434 1413l520 17l4 -386q4 -377 -43 -733h6q53 173 104.5 318.5t81.5 219.5t81 195l157 369
z" />
    <glyph glyph-name="N" unicode="N" horiz-adv-x="1497" 
d="M903 903q69 -201 109 -426h6q18 222 63 436q61 285 84 500l342 17l33 -41l-295 -1389h-358q-44 113 -104 285.5t-83 232.5q-73 203 -116 402h-6q-9 -196 -58 -422l-104 -498h-359l222 1047q46 208 57 366l383 14q124 -364 184 -524z" />
    <glyph glyph-name="O" unicode="O" horiz-adv-x="1443" 
d="M1423 895q0 -138 -38.5 -272.5t-111.5 -250t-172 -203.5t-228 -138.5t-271 -50.5q-237 0 -368.5 139.5t-131.5 398.5q0 139 38 273.5t110.5 250t171 203.5t227 138.5t269.5 50.5q239 0 372 -140.5t133 -398.5zM492 512q0 -256 170 -256q70 0 132 41.5t105 109t74 152.5
t46 173t15 169q0 256 -170 256q-70 0 -132 -41.5t-105 -109t-74 -152.5t-46 -173t-15 -169z" />
    <glyph glyph-name="P" unicode="P" horiz-adv-x="1263" 
d="M436 0h-379l222 1047q51 234 57 366h536q217 0 333 -99t116 -284q0 -168 -93.5 -307.5t-253.5 -219t-349 -79.5h-99zM737 1157h-55l-102 -477h47q146 0 224.5 85t78.5 216q0 88 -43.5 132t-149.5 44z" />
    <glyph glyph-name="Q" unicode="Q" horiz-adv-x="1433" 
d="M1624 -182q0 -120 -103.5 -189t-267.5 -69q-97 0 -203.5 25.5t-213 75.5t-199 136t-145.5 195q-178 38 -284 179t-106 366q0 137 40 270t114.5 245t173 198.5t223 135t256.5 48.5q237 0 369.5 -152.5t132.5 -417.5q0 -163 -52 -313t-141 -262.5t-208.5 -190
t-253.5 -104.5q114 -59 243.5 -94t247.5 -35q101 0 194.5 21.5t145.5 45.5q37 -43 37 -114zM649 256q87 0 160.5 63t118.5 160.5t69.5 208t24.5 213.5q0 256 -170 256q-87 0 -160.5 -63t-118.5 -160.5t-69.5 -208t-24.5 -213.5q0 -256 170 -256z" />
    <glyph glyph-name="R" unicode="R" horiz-adv-x="1331" 
d="M434 0h-379l224 1047q48 218 57 366h479q253 0 381.5 -90.5t128.5 -269.5q0 -152 -86.5 -281.5t-243.5 -198.5l187 -573l-439 -23q-59 220 -96 488h-115zM741 1157h-61l-94 -446h49q143 0 221 79t78 203q0 83 -44 123.5t-149 40.5z" />
    <glyph glyph-name="S" unicode="S" horiz-adv-x="1144" 
d="M1040 449q0 -203 -181 -336t-468 -133q-120 0 -235.5 22.5t-161.5 56.5l86 310q64 -44 177 -73.5t194 -29.5q88 0 138 36.5t50 98.5q0 28 -12 54t-27.5 44.5t-45 39.5t-49.5 33t-56 32t-52 29q-46 27 -80.5 56t-66 68t-48 90t-16.5 111q0 136 87 245t241 170t346 61
q95 0 184 -14.5t142 -37.5l-109 -317q-61 38 -137 60t-147 22q-93 0 -149 -38.5t-56 -102.5q0 -29 11.5 -53.5t38.5 -47t49.5 -37.5t67 -41t68.5 -41q46 -30 79 -58t67.5 -69t52.5 -94t18 -116z" />
    <glyph glyph-name="T" unicode="T" horiz-adv-x="1177" 
d="M670 0h-379l239 1135q-61 -2 -391 -17l82 295h1116l-41 -295q-323 15 -387 17z" />
    <glyph glyph-name="U" unicode="U" horiz-adv-x="1456" 
d="M137 348q0 84 39 263.5t87 407t63 394.5l362 21l33 -41q-51 -239 -116 -543q-55 -255 -67 -317t-12 -95q0 -174 172 -174q212 0 269 260q114 526 138.5 660t29.5 229l383 17l-199 -938q-26 -123 -93.5 -222t-161 -161.5t-206.5 -95.5t-235 -33q-219 0 -352.5 98.5
t-133.5 269.5z" />
    <glyph glyph-name="V" unicode="V" horiz-adv-x="1323" 
d="M344 0l-145 1395l413 39l43 -680q16 -282 4 -402q59 145 138 303l387 779l299 -21l12 -39l-731 -1374h-420z" />
    <glyph glyph-name="W" unicode="W" horiz-adv-x="1976" 
d="M254 0l-55 1395l413 39l-8 -705q0 -74 -6.5 -208.5t-7.5 -158.5q50 123 141 343l305 708l369 21l-2 -705q0 -67 -1 -198t-1 -169q65 183 135 351l301 721l299 -21l12 -39l-641 -1374h-420l-12 457q-2 79 0.5 229t1.5 215h-6q-108 -264 -194 -450l-203 -451h-420z" />
    <glyph glyph-name="X" unicode="X" horiz-adv-x="1249" 
d="M-76 0l-14 41l512 625l-223 737l413 31l131 -529h7l337 529l320 -25l14 -41l-516 -680l225 -688h-421l-125 449h-4l-326 -449h-330z" />
    <glyph glyph-name="Y" unicode="Y" horiz-adv-x="1206" 
d="M399 442l-200 953l413 39l43 -414q18 -190 25 -311h6q144 265 166 309l215 416l299 -21l12 -39l-600 -932l-94 -442h-379z" />
    <glyph glyph-name="Z" unicode="Z" horiz-adv-x="1103" 
d="M-27 0l-10 246l797 856l-588 -17l90 328h916l45 -246l-789 -856l596 17l-90 -328h-967z" />
    <glyph glyph-name="bracketleft" unicode="[" horiz-adv-x="911" 
d="M109 -131h2l299 1413l59 274h561l-59 -274h-213l-299 -1413h211l-58 -275h-561z" />
    <glyph glyph-name="backslash" unicode="\" horiz-adv-x="813" 
d="M393 -20l-57 1529l20 17l174 30l58 -1529l-21 -17z" />
    <glyph glyph-name="bracketright" unicode="]" horiz-adv-x="911" 
d="M469 -406h-561l59 275h213l299 1413h-211l58 274h561l-58 -274h-2l-299 -1413z" />
    <glyph glyph-name="asciicircum" unicode="^" horiz-adv-x="954" 
d="M279 430h-195l455 696h135l160 -696h-195l-92 426z" />
    <glyph glyph-name="underscore" unicode="_" horiz-adv-x="962" 
d="M-213 -492l20 103h963l-20 -103h-963z" />
    <glyph glyph-name="grave" unicode="`" horiz-adv-x="565" 
d="M549 1159q-165 155 -246 348l33 62l332 16q0 -198 28 -405z" />
    <glyph glyph-name="a" unicode="a" horiz-adv-x="1187" 
d="M51 299q0 102 27.5 205.5t86 201t139.5 172.5t198 120.5t252 45.5q99 0 213.5 -23t197.5 -67l-80 -364q-88 -402 -88 -590h-368q0 112 35 317q-44 -147 -145.5 -242t-227.5 -95q-116 0 -178 83.5t-62 235.5zM430 399q0 -54 18 -83t50 -29q66 0 133.5 121.5t105.5 283.5
q3 22 12.5 65.5t12.5 59.5q-44 23 -76 23q-64 0 -125 -77.5t-96 -179.5t-35 -184z" />
    <glyph glyph-name="b" unicode="b" horiz-adv-x="1191" 
d="M283 1247l16 289l387 20q0 -30 -2.5 -65.5t-5.5 -67t-10 -78.5t-11.5 -76.5t-15.5 -86.5t-16.5 -84t-19.5 -92.5t-19 -88t-21 -95t-20 -91.5q47 138 145.5 225.5t218.5 87.5q116 0 178 -83t62 -234q0 -102 -28 -206.5t-86 -201.5t-138.5 -172.5t-193.5 -121t-242 -45.5
q-241 0 -402 88q-3 120 123 710zM461 319q-3 -22 -10 -61t-9 -53q40 -21 72 -21q64 0 125 77.5t96 179.5t35 184q0 54 -18 83t-50 29q-68 0 -138.5 -126.5t-102.5 -291.5z" />
    <glyph glyph-name="c" unicode="c" horiz-adv-x="997" 
d="M881 293l39 -150q-91 -78 -211.5 -120.5t-249.5 -42.5q-181 0 -288.5 99t-107.5 292q0 127 49.5 248.5t136 215.5t215.5 151.5t277 57.5q176 0 293 -67l-92 -295q-127 127 -252 127q-75 0 -133.5 -57t-86.5 -141.5t-28 -178.5q0 -217 183 -217q117 0 256 78z" />
    <glyph glyph-name="d" unicode="d" horiz-adv-x="1187" 
d="M997 0h-368q0 129 30 305q-46 -142 -145.5 -233.5t-222.5 -91.5q-116 0 -178 83t-62 234q0 102 28 206.5t86 201.5t138.5 172.5t193.5 121t242 45.5q24 0 70 -4l45 207l16 289l387 20q0 -128 -40.5 -349.5t-89.5 -424t-89.5 -426.5t-40.5 -356zM430 399q0 -54 18 -83
t50 -29q63 0 127.5 111.5t103.5 267.5q20 86 25 112l8 39q-44 23 -76 23q-64 0 -125 -77.5t-96 -179.5t-35 -184z" />
    <glyph glyph-name="e" unicode="e" horiz-adv-x="1054" 
d="M874 293l39 -150q-90 -78 -209 -120.5t-241 -42.5q-182 0 -291 99t-109 290q0 128 50.5 250.5t137.5 216.5t212.5 151t265.5 57q154 0 246 -66t92 -183q0 -161 -170.5 -272.5t-454.5 -123.5v-2q0 -86 43.5 -134t132.5 -48q117 0 256 78zM670 850q-55 0 -102 -58.5
t-73.5 -133t-41.5 -158.5q133 30 206.5 97t73.5 167q0 86 -63 86z" />
    <glyph glyph-name="f" unicode="f" horiz-adv-x="825" 
d="M-31 -532l-116 122q81 124 126.5 240.5t77.5 271.5l150 707l-141 10l26 123l152 41q19 124 22 137q45 210 199 323t383 113q88 0 165.5 -19.5t121.5 -49.5l-129 -268q-107 71 -205 71q-64 0 -107.5 -36.5t-58.5 -104.5q-8 -40 -16.5 -94t-12.5 -72h252l16 -37l-40 -147
l-259 8l-124 -586q-25 -120 -50.5 -206.5t-63 -170.5t-87 -147.5t-119 -121.5t-162.5 -107z" />
    <glyph glyph-name="g" unicode="g" horiz-adv-x="1091" 
d="M315 -532q-213 0 -340 72.5t-127 180.5q0 80 73.5 139.5t189.5 92.5l69 -64q-4 -32 -4 -49q0 -94 56.5 -151.5t152.5 -57.5q74 0 125 33t51 82q0 24 -12.5 45t-39.5 39.5t-51 32t-64 32.5q-15 7 -23 11q-88 43 -132 80.5t-44 91.5q0 58 52.5 104.5t118 68t121.5 21.5v7
q-38 0 -61 2q-146 13 -239 100t-93 235q0 82 30.5 152t83 120t121.5 86t145.5 53t156.5 17q229 0 319.5 4t177.5 23q33 -29 33 -78q0 -21 -6 -42t-19.5 -42.5t-39 -35t-60.5 -13.5q-30 0 -60.5 10t-66.5 27t-55 23l-2 -7q75 -40 116.5 -99t41.5 -150q0 -70 -26 -130
t-68 -101t-92 -75.5t-100.5 -58t-92.5 -43t-68 -37.5t-26 -35q0 -16 24.5 -33t85.5 -47q117 -60 164 -95q119 -90 119 -204q0 -98 -83.5 -176t-223.5 -119.5t-308 -41.5zM668 733q0 137 -72 137q-66 0 -113 -98.5t-47 -202.5q0 -68 20.5 -109.5t61.5 -41.5q44 0 79.5 51
t53 122t17.5 142z" />
    <glyph glyph-name="h" unicode="h" horiz-adv-x="1210" 
d="M426 0h-369q0 111 26.5 276.5t98.5 501.5l101 469l16 289l387 20q0 -95 -20.5 -233t-43.5 -246t-65 -286h6q77 127 180 190t203 63q95 0 147 -56t52 -159q0 -49 -16 -132t-82 -388q-27 -126 -27 -309h-369q0 31 1.5 62.5t5 67t6.5 61.5t9.5 65.5t9.5 58.5t11 61
t10.5 52.5t11.5 53t9 44.5q23 115 23 140q0 71 -50 71q-64 0 -126.5 -108.5t-102.5 -280t-43 -348.5z" />
    <glyph glyph-name="i" unicode="i" horiz-adv-x="616" 
d="M686 1425q0 -103 -89 -186.5t-198 -83.5q-73 0 -117 42t-44 106q0 97 90 179.5t202 82.5q71 0 113.5 -38t42.5 -102zM426 0h-369q0 196 76 547l41 188l16 289l388 20q0 -113 -38 -305.5t-76 -396t-38 -342.5z" />
    <glyph glyph-name="j" unicode="j" horiz-adv-x="589" 
d="M653 1425q0 -103 -88.5 -186.5t-197.5 -83.5q-74 0 -118 42t-44 106q0 97 90.5 179.5t202.5 82.5q71 0 113 -38t42 -102zM-63 -532l-117 122q81 124 127 241t78 271l133 633l16 289l387 20q0 -49 -8 -117t-28 -176t-30.5 -163.5t-41.5 -200.5t-35 -166
q-25 -120 -50.5 -206.5t-63 -171t-86.5 -147.5t-118.5 -121t-162.5 -107z" />
    <glyph glyph-name="k" unicode="k" horiz-adv-x="1200" 
d="M1192 842q0 -111 -86 -211.5t-199 -161.5q113 -279 236 -469h-457q-85 192 -117 387q254 222 254 358q0 31 -14 47.5t-39 16.5q-52 0 -112 -71.5t-110 -183.5t-84.5 -261t-37.5 -293h-369q0 111 26.5 276.5t98.5 501.5l101 469l16 289l387 20q0 -90 -21.5 -231.5
t-44 -246.5t-65.5 -298h6q81 131 186 197.5t218 66.5q106 0 166.5 -56t60.5 -146z" />
    <glyph glyph-name="l" unicode="l" horiz-adv-x="610" 
d="M426 0h-369q0 111 26.5 276.5t98.5 501.5l101 469l16 289l387 20q0 -128 -40.5 -349.5t-89.5 -424t-89.5 -426.5t-40.5 -356z" />
    <glyph glyph-name="m" unicode="m" horiz-adv-x="1804" 
d="M563 791q77 130 177.5 191.5t201.5 61.5q107 0 159.5 -67t41.5 -186h6q78 129 181 191t204 62q124 0 174 -87.5t18 -239.5l-86 -408q-26 -121 -26 -309h-369q0 108 18 223.5t68 364.5q30 149 -39 149q-43 0 -88.5 -50.5t-83 -134.5t-64.5 -201t-34 -242q-2 -33 -2 -109
h-369q0 108 18 223.5t68 364.5q30 149 -39 149q-64 0 -126.5 -108.5t-102.5 -280t-43 -348.5h-369q0 119 26 284t91 451l16 289l388 20q0 -56 -21 -253h6z" />
    <glyph glyph-name="n" unicode="n" horiz-adv-x="1210" 
d="M426 0h-369q0 119 26 284t91 451l16 289l388 20q0 -56 -21 -253h6q77 130 177.5 191.5t201.5 61.5q96 0 149.5 -54.5t53.5 -145.5q0 -19 -2 -41.5t-6.5 -52t-8.5 -53.5t-12.5 -64t-13.5 -63.5t-15.5 -72t-15.5 -71.5q-30 -140 -40.5 -227.5t-10.5 -198.5h-369
q0 99 12 185.5t42 238.5q43 212 43 246q0 67 -50 67q-64 0 -126.5 -108.5t-102.5 -280t-43 -348.5z" />
    <glyph glyph-name="o" unicode="o" horiz-adv-x="1169" 
d="M1112 647q0 -130 -50 -251.5t-135.5 -213.5t-207.5 -147t-258 -55q-181 0 -289.5 99t-108.5 290q0 171 85.5 326t238 252t332.5 97q184 0 288.5 -103.5t104.5 -293.5zM442 330q0 -146 76 -146q51 0 93.5 55t68 137t39.5 167t14 153q0 144 -76 144q-51 0 -94 -54.5
t-68.5 -135.5t-39 -165.5t-13.5 -154.5z" />
    <glyph glyph-name="p" unicode="p" horiz-adv-x="1181" 
d="M436 -20q-41 0 -61 2q-68 -328 -68 -494h-368q0 170 84 582h-3l3 2q3 16 17 84t23 110l101 469l16 289l387 20q0 -108 -30 -296q49 128 145 212t209 84q116 0 180 -92.5t64 -249.5q0 -85 -20 -170.5t-58 -166.5t-98 -151t-135.5 -122t-175.5 -82t-212 -30zM688 737
q-60 0 -121.5 -99t-101.5 -245q-31 -134 -41 -186q44 -23 76 -23q64 0 125 77.5t96 179.5t35 184q0 54 -18 83t-50 29z" />
    <glyph glyph-name="q" unicode="q" horiz-adv-x="1187" 
d="M299 -20q-116 0 -180 92.5t-64 249.5q0 85 20 170.5t58 166.5t98 151t135.5 122t175.5 82t212 30q102 0 216.5 -23t198.5 -67l-188 -856q-88 -416 -88 -610h-369q0 30 2 63t7.5 76t9 74.5t13.5 88.5l15 85.5t18.5 97t18.5 92t21 102t20 97.5q-52 -124 -146 -204t-204 -80
zM434 399q0 -54 18 -83t50 -29q43 0 89.5 55.5t83 142t60.5 187.5l31 145q-44 23 -76 23q-64 0 -125 -77.5t-96 -179.5t-35 -184z" />
    <glyph glyph-name="r" unicode="r" horiz-adv-x="880" 
d="M426 0h-369q0 196 76 547l41 188l16 289l388 20q0 -116 -50 -370h7q66 196 146 283t161 87q44 0 84.5 -22t60.5 -53l-174 -340q-62 22 -119 22q-129 0 -191.5 -163t-76.5 -488z" />
    <glyph glyph-name="s" unicode="s" horiz-adv-x="915" 
d="M920 993l-78 -270q-67 40 -142.5 63t-130.5 23q-52 0 -85 -20.5t-33 -53.5q0 -25 20 -45.5t51.5 -37.5t70 -35t77 -42t70 -53.5t51.5 -74.5t20 -101q0 -108 -71.5 -193t-187.5 -129t-253 -44q-96 0 -190 21.5t-144 57.5l76 265q73 -50 162 -79.5t153 -29.5q54 0 83.5 21
t29.5 53q0 24 -20 45t-51.5 38t-70 35.5t-77 43t-70 54t-51.5 73.5t-20 98q0 105 73 190.5t190.5 131.5t252.5 46q162 0 295 -51z" />
    <glyph glyph-name="t" unicode="t" horiz-adv-x="819" 
d="M850 840l-287 8q-17 -78 -33.5 -157t-26 -122t-18.5 -86.5t-13 -64t-7.5 -40t-4.5 -29.5t-1 -19q0 -46 27 -70t75 -24q75 0 168 49l-27 -222q-151 -83 -321 -83q-144 0 -220.5 71.5t-76.5 212.5q0 18 1 33.5t5 42.5t8.5 49.5t15 73.5t19.5 94t28.5 132t35.5 167l-134 4
l27 123l152 41l149 268l230 17l36 -43l-57 -242h281l16 -41z" />
    <glyph glyph-name="u" unicode="u" horiz-adv-x="1181" 
d="M74 307l90 428l16 289l387 20q0 -84 -17 -191t-45 -237t-36 -180q-13 -57 -6.5 -103t43.5 -46q63 0 121.5 114t95.5 291q25 147 31 215q6 59 6 117l389 20q-5 -49 -11.5 -95.5t-11.5 -81.5t-18.5 -104.5t-21 -110t-31 -155.5t-37.5 -188q-27 -132 -27 -309h-368
q0 129 14 233h-6q-73 -130 -171.5 -191.5t-197.5 -61.5q-123 0 -171.5 89t-16.5 238z" />
    <glyph glyph-name="v" unicode="v" horiz-adv-x="1069" 
d="M184 0q-6 308 -26.5 581.5t-48.5 442.5l397 20q17 -169 12.5 -391t-29.5 -428h7q97 192 168.5 412t89.5 391q70 16 141 16q90 0 137 -24t47 -94q0 -131 -144 -417.5t-329 -508.5h-422z" />
    <glyph glyph-name="w" unicode="w" horiz-adv-x="1777" 
d="M1606 1044q89 0 135.5 -24t46.5 -94q0 -131 -144 -417.5t-329 -508.5h-422q38 330 53 664h-6q-134 -358 -334 -664h-422q-6 308 -26.5 581.5t-48.5 442.5l397 20q17 -169 12.5 -391t-29.5 -428h7q102 192 176 407.5t92 391.5h453q15 -151 10 -373.5t-29 -425.5h6
q97 192 168.5 412t89.5 391q70 16 144 16z" />
    <glyph glyph-name="x" unicode="x" horiz-adv-x="1040" 
d="M-47 0q14 142 116.5 296t272.5 259q-109 273 -270 469l379 20q91 -100 188 -339q43 58 70.5 138.5t27.5 160.5q66 40 162 40q72 0 123 -27t51 -87q0 -83 -94.5 -212t-253.5 -235q115 -303 219 -483h-379q-16 29 -30.5 59t-31.5 72.5t-25 63t-29.5 78.5t-26.5 71
q-47 -53 -84 -152.5t-37 -191.5h-348z" />
    <glyph glyph-name="y" unicode="y" horiz-adv-x="1069" 
d="M895 1044q90 0 137 -23.5t47 -92.5q0 -61 -38.5 -171.5t-107 -244.5t-156.5 -279.5t-193.5 -281t-212 -244t-218 -174t-204.5 -65.5q-87 0 -137 52t-50 144q0 78 39 137q70 -20 158 -20q137 0 258 57t178 162h-211q-6 308 -26.5 581.5t-48.5 442.5l397 20
q17 -169 12.5 -391t-29.5 -428h7q97 192 168.5 412t89.5 391q70 16 141 16z" />
    <glyph glyph-name="z" unicode="z" horiz-adv-x="1009" 
d="M96 -20l-114 174q362 346 602 589q-76 15 -135 15q-178 0 -271 -115l-96 62q34 100 75.5 168t89.5 104.5t97 51.5t111 15q145 0 329 -96q16 17 47 48.5t46 47.5q46 0 87.5 -27t41.5 -89q0 -85 -120.5 -212t-479.5 -427q24 4 49 4q43 0 94.5 -11.5t77.5 -11.5q69 0 126 37
t93 103l117 -74q-30 -105 -67.5 -175.5t-84.5 -109.5t-98.5 -55t-118.5 -16q-84 0 -188.5 31.5t-139.5 31.5q-79 0 -170 -63z" />
    <glyph glyph-name="braceleft" unicode="{" horiz-adv-x="960" 
d="M326 328q0 63 -40.5 98t-129.5 45l49 231q124 16 192 88.5t68 219.5q0 20 -2 71.5t-2 73.5q0 96 27.5 166.5t77 115.5t128 71.5t169 37t212.5 10.5l-39 -204q-109 0 -169 -70t-60 -213q0 -16 1 -52t1 -50q0 -87 -27 -156t-74 -113.5t-104 -72t-125 -39.5q97 -26 151 -84
t54 -146q0 -51 -20.5 -112.5t-45 -109t-45 -105t-20.5 -101.5q0 -65 40 -99t114 -34l-50 -205q-251 0 -370 57t-119 195q0 62 24.5 132.5t54.5 123.5t54.5 116.5t24.5 113.5z" />
    <glyph glyph-name="bar" unicode="|" horiz-adv-x="585" 
d="M0 -532l-12 16l438 2066l160 6l12 -16l-438 -2066z" />
    <glyph glyph-name="braceright" unicode="}" horiz-adv-x="960" 
d="M662 819q0 -63 40 -98t129 -45l-49 -232q-124 -16 -192 -88t-68 -219q0 -20 2 -71.5t2 -73.5q0 -96 -27.5 -166.5t-77 -115.5t-128 -72t-169 -37.5t-212.5 -10.5l39 205q109 0 169 70t60 213q0 16 -1 52t-1 50q0 87 27 156t74 113.5t104 72t125 39.5q-97 26 -151 84
t-54 146q0 51 20.5 112.5t45 109t45 105t20.5 101.5q0 65 -39.5 99t-113.5 34l49 204q251 0 370 -56.5t119 -194.5q0 -62 -24.5 -132.5t-54 -123.5t-54 -116.5t-24.5 -113.5z" />
    <glyph glyph-name="asciitilde" unicode="~" 
d="M885 434q-51 0 -274 51.5t-253 51.5q-21 0 -122 -99q-13 -12 -19 -18l-90 69q36 48 65 82t69.5 75.5t79 64t71.5 22.5q50 0 274 -51t254 -51q7 0 16.5 5.5t24.5 18.5t27.5 25t35 33.5t37.5 34.5l90 -70q-41 -53 -66.5 -83t-67.5 -74t-80 -65.5t-72 -21.5z" />
    <glyph glyph-name="nbspace" unicode="&#xa0;" horiz-adv-x="1228" 
 />
    <glyph glyph-name="exclamdown" unicode="&#xa1;" horiz-adv-x="718" 
d="M231 797q0 92 80 167.5t178 75.5q66 0 106 -37.5t40 -95.5q0 -87 -81 -161t-181 -74q-65 0 -103.5 33.5t-38.5 91.5zM250 549h223q-40 -313 -113 -938l-352 -21l-31 41q99 431 273 918z" />
    <glyph glyph-name="cent" unicode="&#xa2;" horiz-adv-x="1003" 
d="M348 -287l-12 17l53 254q-155 22 -237 125t-82 276q0 174 78.5 332.5t217 265.5t306.5 133l57 270l127 7l14 -17l-53 -254q73 -4 137.5 -24t104.5 -47l-101 -318q-118 133 -233 133q-76 0 -140.5 -60.5t-100 -155.5t-35.5 -199q0 -114 44 -170t136 -56q101 0 248 70
l49 -152q-171 -140 -394 -161l-55 -263z" />
    <glyph glyph-name="sterling" unicode="&#xa3;" horiz-adv-x="1265" 
d="M932 1167q-99 0 -163 -98.5t-103 -325.5h364l14 -36l-51 -138h-366q-82 -319 -242 -469q68 -41 117 -66.5t124 -56.5t158 -46t174 -15q111 0 226 23l-109 -306q-57 -16 -151 -16q-69 0 -136 14t-120.5 35t-110 56t-95.5 64.5t-87 75t-73.5 73t-65.5 71.5
q-65 -26 -146 -26q-90 0 -135.5 34t-40.5 92q4 57 49 91t113 34t145 -36q34 111 55 280l13 94l-238 11l39 122l221 41q43 326 203 508.5t438 182.5q117 0 208.5 -31t144.5 -80l-138 -268q-132 112 -235 112z" />
    <glyph glyph-name="currency" unicode="&#xa4;" horiz-adv-x="1136" 
d="M831 61l-110 150q-120 -68 -250 -68q-115 0 -195 52l-161 -134l-103 132l160 131q-27 62 -27 135q0 178 134 325l-103 138l148 122q44 -50 112 -139q113 58 232 58q123 0 204 -62l172 143l105 -131l-178 -147q18 -55 18 -121q0 -168 -115 -305q23 -30 51.5 -65
t46.5 -57.5t23 -29.5l-6 -22zM621 778q-110 0 -191.5 -83.5t-81.5 -192.5q0 -74 44.5 -124t129.5 -50q109 0 187.5 81t78.5 191q0 80 -43 129t-124 49z" />
    <glyph glyph-name="yen" unicode="&#xa5;" horiz-adv-x="1146" 
d="M57 188l27 123h266l31 144h-266l26 123h267l-209 817l393 39l45 -287q22 -160 35 -334h4q65 138 170 313l182 308l279 -21l12 -39l-551 -796h266l-26 -123h-267l-30 -144h266l-27 -123h-264l-41 -188h-360l41 188h-269z" />
    <glyph glyph-name="brokenbar" unicode="&#xa6;" horiz-adv-x="585" 
d="M424 713l-160 -6l-12 16l174 827l160 6l12 -16zM160 -526l-160 -6l-12 16l174 819l160 6l12 -16z" />
    <glyph glyph-name="section" unicode="&#xa7;" horiz-adv-x="1193" 
d="M885 1147q-63 0 -104.5 -35.5t-41.5 -89.5q0 -43 31.5 -107t76.5 -137t89.5 -154t76 -180t31.5 -192q0 -125 -56 -237t-152.5 -192t-231 -126.5t-285.5 -46.5q-90 0 -179.5 14.5t-141.5 36.5l108 317q105 -81 216 -81q63 0 105 34.5t42 89.5q0 43 -31.5 107t-77 137
t-90.5 154t-76.5 180t-31.5 192q0 167 95.5 305.5t262.5 218t369 79.5q86 0 176 -14.5t145 -37.5l-108 -317q-49 37 -109 59.5t-108 22.5zM541 -160q147 41 234 144t87 233q0 74 -31.5 158.5t-77 160t-90.5 150t-76.5 153.5t-31.5 146q0 73 33 138t88 98l-10 22
q-146 -41 -233 -143.5t-87 -233.5q0 -75 31.5 -159.5t76 -160t89.5 -150t76.5 -153.5t31.5 -147q0 -72 -32.5 -135.5t-86.5 -97.5z" />
    <glyph glyph-name="dieresis" unicode="&#xa8;" horiz-adv-x="1062" 
d="M672 1425q0 -95 -80 -172t-180 -77q-68 0 -107 37.5t-39 95.5q0 92 84.5 168.5t184.5 76.5q63 0 100 -35t37 -94zM1161 1425q0 -95 -80 -172t-180 -77q-67 0 -106 37t-39 96q0 92 84 168.5t184 76.5q63 0 100 -35t37 -94z" />
    <glyph glyph-name="copyright" unicode="&#xa9;" horiz-adv-x="1392" 
d="M565 -102q-223 0 -360 133.5t-137 345.5q0 94 29.5 189t80.5 176.5t123 153t155 122t179 79.5t192 29q224 0 361 -137t137 -346q0 -140 -64.5 -276.5t-168.5 -239t-244 -166t-283 -63.5zM588 0q119 0 235.5 52.5t203 137.5t140.5 199t54 229q0 175 -116.5 290.5
t-299.5 115.5q-120 0 -236 -53t-203 -139t-140.5 -201.5t-53.5 -233.5q0 -175 115 -286t301 -111zM1001 819l-63 -201q-71 68 -143 68q-71 0 -118.5 -62.5t-47.5 -144.5q0 -63 30 -97t86 -34q63 0 140 43l30 -119q-47 -42 -120 -68t-154 -26q-131 0 -203.5 68.5t-72.5 191.5
q0 173 134 298.5t320 125.5q108 0 182 -43z" />
    <glyph glyph-name="ordfeminine" unicode="&#xaa;" horiz-adv-x="995" 
d="M162 850q0 80 22.5 159t70 152t114.5 129t162.5 89.5t207.5 33.5q86 0 182.5 -18.5t161.5 -51.5l-63 -292q-70 -323 -70 -469h-307q0 76 25 239q-36 -104 -118.5 -171.5t-182.5 -67.5q-96 0 -150.5 72t-54.5 196zM477 911q0 -42 15.5 -66t42.5 -24q55 0 111.5 94.5
t80.5 217.5q8 40 21 98q-37 16 -62 16q-53 0 -102.5 -55t-78 -133t-28.5 -148z" />
    <glyph glyph-name="guillemetleft" unicode="&#xab;" horiz-adv-x="1060" 
d="M90 551l21 98q217 150 434 375l86 -37q-86 -193 -258 -387q91 -202 94 -387l-102 -37q-130 236 -275 375zM539 551l20 98q217 150 434 375l86 -37q-86 -193 -258 -387q91 -202 94 -387l-102 -37q-131 238 -274 375z" />
    <glyph glyph-name="logicalnot" unicode="&#xac;" 
d="M1143 694l-109 -518h-184l74 350h-758l37 174q387 11 927 11z" />
    <glyph glyph-name="registered" unicode="&#xae;" horiz-adv-x="1392" 
d="M561 -102q-220 0 -356.5 133.5t-136.5 345.5q0 112 40.5 223.5t113.5 205t167.5 166t209.5 113.5t232 41q221 0 357.5 -137t136.5 -346q0 -137 -63.5 -273t-167 -239.5t-245 -168t-288.5 -64.5zM584 0q123 0 241 53.5t204 140t139 199t53 225.5q0 175 -116.5 290.5
t-299.5 115.5q-97 0 -192.5 -34.5t-173.5 -95.5t-139 -139t-94.5 -170.5t-33.5 -185.5q0 -176 114 -287.5t298 -111.5zM575 188h-200l90 430q2 8 10 48t10.5 56.5t7 56t5.5 83.5h293q115 0 180 -51.5t65 -144.5q0 -79 -47 -146.5t-129 -99.5l90 -232l-211 -10
q-24 75 -53 180h-74zM737 709h-51l-41 -197h47q65 0 101 31t36 82q0 84 -92 84z" />
    <glyph glyph-name="macron" unicode="&#xaf;" horiz-adv-x="839" 
d="M254 1266l41 196h610l-41 -196h-610z" />
    <glyph glyph-name="degree" unicode="&#xb0;" horiz-adv-x="710" 
d="M362 604q-94 0 -148 52.5t-54 144.5q0 130 100 227.5t236 97.5q94 0 149 -52t55 -144q0 -128 -101 -227t-237 -99zM467 1024q-76 0 -133.5 -60t-57.5 -137q0 -55 32 -87.5t85 -32.5q75 0 133 60.5t58 137.5q0 55 -31 87t-86 32z" />
    <glyph glyph-name="plusminus" unicode="&#xb1;" 
d="M1059 662h-318l-61 -293h-180l59 293h-340l37 174q89 2 340 6l59 284h185l-60 -282q125 2 322 2l12 -17zM977 0h-922l37 174q352 10 928 10l12 -16z" />
    <glyph glyph-name="twosuperior" unicode="&#xb2;" horiz-adv-x="796" 
d="M266 721l6 170q58 30 111 62t112 76t102 86.5t71 93t28 96.5q0 38 -23.5 61t-66.5 23q-91 0 -219 -84l16 196q155 68 314 68q126 0 201 -56.5t75 -152.5q0 -68 -39.5 -135.5t-106.5 -124.5t-145 -104t-165 -83h127q100 0 217 13l-58 -205h-557z" />
    <glyph glyph-name="threesuperior" unicode="&#xb3;" horiz-adv-x="800" 
d="M408 1503q59 26 146.5 46t160.5 20q114 0 184 -45.5t70 -116.5q0 -72 -65.5 -138t-158.5 -93q86 -15 134.5 -62.5t48.5 -114.5q0 -124 -133.5 -209t-327.5 -85q-134 0 -229 28l59 164q28 -12 77 -20.5t89 -8.5q75 0 127.5 28.5t52.5 72.5q0 65 -137 65q-38 0 -144 -8
l35 164q121 5 199 43.5t78 95.5q0 60 -82 60q-40 0 -99.5 -14.5t-109.5 -37.5z" />
    <glyph glyph-name="acute" unicode="&#xb4;" horiz-adv-x="565" 
d="M758 1569l8 -62q-164 -195 -393 -348l-140 21q136 244 201 405z" />
    <glyph glyph-name="paragraph" unicode="&#xb6;" horiz-adv-x="1232" 
d="M328 -164q315 0 401 402l209 976l18 86h-143l-186 -870h-45q-211 0 -337 103.5t-126 289.5q0 121 54.5 229.5t148.5 188t226.5 126t280.5 46.5h375l-41 -199l-213 -999q-54 -255 -234 -409t-429 -154q-141 0 -269 53l58 195q140 -64 252 -64z" />
    <glyph glyph-name="periodcentered" unicode="&#xb7;" horiz-adv-x="681" 
d="M573 616q0 -105 -88 -189.5t-198 -84.5q-75 0 -118.5 41t-43.5 104q0 101 92.5 186t202.5 85q69 0 111 -39t42 -103z" />
    <glyph glyph-name="cedilla" unicode="&#xb8;" horiz-adv-x="624" 
d="M375 -256q0 -129 -143 -202.5t-392 -73.5l37 122q109 6 174.5 40.5t65.5 82.5q0 62 -142 62l-26 61l127 252h190l-100 -188q209 -29 209 -156z" />
    <glyph glyph-name="onesuperior" unicode="&#xb9;" horiz-adv-x="626" 
d="M504 1323h-4l-121 -8l-4 153l422 101l24 -29l-174 -819h-274l94 440q30 136 37 162z" />
    <glyph glyph-name="ordmasculine" unicode="&#xba;" horiz-adv-x="940" 
d="M1006 1096q0 -101 -41 -195t-110.5 -164t-169 -112.5t-210.5 -42.5q-149 0 -240.5 78.5t-91.5 230.5q0 136 71.5 256.5t195.5 193t268 72.5q152 0 240 -83t88 -234zM459 864q0 -112 61 -112q41 0 75 42t53.5 104t30.5 125.5t11 115.5q0 106 -61 106q-41 0 -75.5 -41.5
t-54 -103t-30 -124t-10.5 -112.5z" />
    <glyph glyph-name="guillemetright" unicode="&#xbb;" horiz-adv-x="1060" 
d="M1008 649l-21 -98q-217 -150 -434 -375l-86 37q86 193 258 387q-91 202 -94 387l102 37q130 -236 275 -375zM559 649l-20 -98q-220 -152 -435 -375l-86 37q86 193 258 387q-91 202 -94 387l103 37q131 -238 274 -375z" />
    <glyph glyph-name="onequarter" unicode="&#xbc;" horiz-adv-x="1826" 
d="M539 1200h-4l-121 -8l-4 154l421 100l25 -29l-174 -819h-274l94 440q30 136 37 162zM1636 1434l-1179 -1454h-133l1177 1454h135zM1008 307l417 508l306 12l24 -26l-98 -469q35 2 110 10l-55 -190h-94l-37 -172h-258l37 172h-356zM1233 332v-4q3 0 23 0.5t57.5 1
t83.5 0.5l16 82q33 150 64 243h-4z" />
    <glyph glyph-name="onehalf" unicode="&#xbd;" horiz-adv-x="1882" 
d="M539 1200h-4l-121 -8l-4 154l421 100l25 -29l-174 -819h-274l94 440q30 136 37 162zM1640 1434l-1179 -1454h-133l1177 1454h135zM1133 -20l6 170q74 39 140 81t134.5 97t109 116.5t40.5 118.5q0 38 -23.5 61t-66.5 23q-92 0 -220 -84l17 197q153 67 313 67
q127 0 202 -56.5t75 -152.5q0 -68 -39.5 -135.5t-106.5 -124.5t-145.5 -103.5t-165.5 -82.5h127q109 0 217 12l-57 -204h-557z" />
    <glyph glyph-name="threequarters" unicode="&#xbe;" horiz-adv-x="2068" 
d="M442 1376q59 26 147 46t161 20q114 0 184 -45.5t70 -116.5q0 -72 -65.5 -138t-158.5 -93q86 -15 134.5 -62.5t48.5 -114.5q0 -124 -133.5 -209t-327.5 -85q-135 0 -230 28l60 164q28 -12 77 -20.5t89 -8.5q75 0 127.5 28.5t52.5 72.5q0 65 -137 65q-38 0 -144 -8l35 164
q121 5 199 43.5t78 95.5q0 60 -82 60q-40 0 -99.5 -14.5t-109.5 -37.5zM1831 1434l-1180 -1454h-133l1178 1454h135zM1247 307l418 508l305 12l25 -26l-99 -469q37 2 111 10l-55 -190h-94l-37 -172h-258l36 172h-356zM1473 332v-4q3 0 23 0.5t57 1t83 0.5l17 82
q35 159 63 243h-4z" />
    <glyph glyph-name="questiondown" unicode="&#xbf;" horiz-adv-x="1079" 
d="M492 797q0 92 80 167.5t178 75.5q66 0 105.5 -37.5t39.5 -95.5q0 -87 -81 -161t-181 -74q-65 0 -103 33.5t-38 91.5zM543 561l209 10q14 -44 14 -84q0 -54 -22.5 -101.5t-58.5 -83t-79.5 -68.5t-87 -64t-79.5 -62t-58.5 -70t-22.5 -81q0 -48 36 -76t98 -28q68 0 154 37
t153 100l86 -197q-225 -203 -527 -203q-187 0 -291 77t-104 202q0 72 28.5 137t74 113.5t100.5 90.5t111.5 76t104 63t81.5 57t41 53q11 42 18 86z" />
    <glyph glyph-name="Agrave" unicode="&#xc0;" horiz-adv-x="1413" 
d="M1208 1579q-345 3 -577 129l-8 59l258 187q183 -168 370 -291zM301 0h-358l592 1188q60 117 102 225l463 19l51 -52l102 -1380h-379l-16 266h-428zM602 625l-45 -93h287l-6 91q-16 316 -9 487h-10q-90 -218 -217 -485z" />
    <glyph glyph-name="Aacute" unicode="&#xc1;" horiz-adv-x="1413" 
d="M1274 1767l-33 -59q-289 -126 -635 -129l-6 84q270 139 494 291zM301 0h-358l592 1188q60 117 102 225l463 19l51 -52l102 -1380h-379l-16 266h-428zM602 625l-45 -93h287l-6 91q-16 316 -9 487h-10q-90 -218 -217 -485z" />
    <glyph glyph-name="Acircumflex" unicode="&#xc2;" horiz-adv-x="1413" 
d="M643 1581l-78 82q132 99 303 248l244 20q94 -150 193 -268l-115 -82q-27 10 -52.5 21t-55 26.5t-45 23.5t-50.5 28t-43 24q-212 -95 -301 -123zM301 0h-358l592 1188q60 117 102 225l463 19l51 -52l102 -1380h-379l-16 266h-428zM602 625l-45 -93h287l-6 91
q-16 316 -9 487h-10q-90 -218 -217 -485z" />
    <glyph glyph-name="Atilde" unicode="&#xc3;" horiz-adv-x="1413" 
d="M821 1931q46 0 89 -18t70.5 -40t64 -40t71.5 -18q39 0 66.5 20t68.5 68l88 -15q-28 -127 -102 -218t-180 -91q-41 0 -86.5 18.5t-78 40t-72 40t-70.5 18.5q-64 0 -132 -88l-88 14q12 59 35 111t57.5 98t86 73t112.5 27zM301 0h-358l592 1188q60 117 102 225l463 19
l51 -52l102 -1380h-379l-16 266h-428zM602 625l-45 -93h287l-6 91q-16 316 -9 487h-10q-90 -218 -217 -485z" />
    <glyph glyph-name="Adieresis" unicode="&#xc4;" horiz-adv-x="1413" 
d="M1374 1808q0 -85 -75.5 -151t-172.5 -66q-63 0 -100 33t-37 84q0 82 78.5 148.5t173.5 66.5q59 0 96 -31.5t37 -83.5zM881 1808q0 -85 -75.5 -151t-172.5 -66q-63 0 -100 33t-37 84q0 82 78.5 148.5t173.5 66.5q59 0 96 -31.5t37 -83.5zM301 0h-358l592 1188
q60 117 102 225l463 19l51 -52l102 -1380h-379l-16 266h-428zM602 625l-45 -93h287l-6 91q-16 316 -9 487h-10q-90 -218 -217 -485z" />
    <glyph glyph-name="Aring" unicode="&#xc5;" horiz-adv-x="1413" 
d="M1206 1839q0 -115 -104.5 -207t-233.5 -92q-93 0 -146.5 46.5t-53.5 119.5q0 110 109 202.5t241 92.5q86 0 137 -44t51 -118zM817 1735q0 -35 23 -57.5t63 -22.5q58 0 106 48t48 107q0 35 -20.5 55.5t-55.5 20.5q-62 0 -113 -47t-51 -104zM301 0h-358l592 1188
q60 117 102 225l463 19l51 -52l102 -1380h-379l-16 266h-428zM602 625l-45 -93h287l-6 91q-16 316 -9 487h-10q-90 -218 -217 -485z" />
    <glyph glyph-name="AE" unicode="&#xc6;" horiz-adv-x="1923" 
d="M301 0h-358l780 1188q84 126 139 225h1047l30 -41l-59 -246l-541 19l-39 -328l455 10l-65 -260l-418 13l-37 -314l569 21l-61 -287h-920l41 266h-393zM700 625l-59 -93h262l15 91q16 103 32.5 197.5t34 187t19.5 102.5h-11q-90 -167 -293 -485z" />
    <glyph glyph-name="Ccedilla" unicode="&#xc7;" horiz-adv-x="1202" 
d="M852 -256q0 -129 -143 -202.5t-392 -73.5l37 122q109 6 174.5 40.5t65.5 82.5q0 62 -141 62l-27 61l78 156q-197 36 -299.5 168.5t-102.5 357.5q0 179 63.5 346t172 292.5t264.5 201.5t330 76q100 0 197.5 -23t150.5 -59l-139 -318q-58 42 -132.5 67t-138.5 25
q-86 0 -157.5 -49t-116.5 -127t-69.5 -171.5t-24.5 -186.5q0 -305 266 -305q149 0 309 78l-22 -304q-168 -75 -369 -81l-43 -80q209 -29 209 -156z" />
    <glyph glyph-name="Egrave" unicode="&#xc8;" horiz-adv-x="1189" 
d="M1151 1579q-346 3 -578 129l-8 59l258 187q181 -166 371 -291zM1069 287l-59 -287h-953l222 1047q51 231 57 366h919l33 -41l-59 -246l-551 21l-70 -330l455 10l-66 -260l-438 15l-67 -316z" />
    <glyph glyph-name="Eacute" unicode="&#xc9;" horiz-adv-x="1189" 
d="M1217 1767l-33 -59q-289 -126 -635 -129l-6 84q265 137 493 291zM1069 287l-59 -287h-953l222 1047q51 231 57 366h919l33 -41l-59 -246l-551 21l-70 -330l455 10l-66 -260l-438 15l-67 -316z" />
    <glyph glyph-name="Ecircumflex" unicode="&#xca;" horiz-adv-x="1189" 
d="M586 1581l-78 82q132 99 303 248l244 20q97 -155 192 -268l-114 -82q-27 10 -52.5 21t-55 26.5t-45 23.5t-50.5 28t-43 24q-212 -95 -301 -123zM1069 287l-59 -287h-953l222 1047q51 231 57 366h919l33 -41l-59 -246l-551 21l-70 -330l455 10l-66 -260l-438 15l-67 -316z
" />
    <glyph glyph-name="Edieresis" unicode="&#xcb;" horiz-adv-x="1189" 
d="M1317 1808q0 -85 -75.5 -151t-172.5 -66q-63 0 -100 33t-37 84q0 82 78.5 148.5t173.5 66.5q59 0 96 -31.5t37 -83.5zM823 1808q0 -85 -75.5 -151t-172.5 -66q-63 0 -100 33t-37 84q0 82 78.5 148.5t173.5 66.5q59 0 96 -31.5t37 -83.5zM1069 287l-59 -287h-953l222 1047
q51 231 57 366h919l33 -41l-59 -246l-551 21l-70 -330l455 10l-66 -260l-438 15l-67 -316z" />
    <glyph glyph-name="Igrave" unicode="&#xcc;" horiz-adv-x="688" 
d="M891 1579q-346 3 -578 129l-8 59l258 187q181 -166 371 -291zM436 0h-379l219 1030q50 242 60 383l362 21l33 -41z" />
    <glyph glyph-name="Iacute" unicode="&#xcd;" horiz-adv-x="688" 
d="M956 1767l-32 -59q-289 -126 -635 -129l-6 84q265 137 493 291zM436 0h-379l219 1030q50 242 60 383l362 21l33 -41z" />
    <glyph glyph-name="Icircumflex" unicode="&#xce;" horiz-adv-x="688" 
d="M326 1581l-78 82q132 99 303 248l244 20q97 -155 192 -268l-115 -82q-27 10 -53 21.5t-54 26t-45 23.5t-49.5 27.5t-43.5 24.5q-212 -95 -301 -123zM436 0h-379l219 1030q50 242 60 383l362 21l33 -41z" />
    <glyph glyph-name="Idieresis" unicode="&#xcf;" horiz-adv-x="688" 
d="M1057 1808q0 -85 -75.5 -151t-172.5 -66q-63 0 -100 33t-37 84q0 82 78.5 148.5t173.5 66.5q59 0 96 -31.5t37 -83.5zM563 1808q0 -85 -75.5 -151t-172.5 -66q-63 0 -100 33t-37 84q0 82 78.5 148.5t173.5 66.5q59 0 96 -31.5t37 -83.5zM436 0h-379l219 1030
q50 242 60 383l362 21l33 -41z" />
    <glyph glyph-name="Eth" unicode="&#xd0;" horiz-adv-x="1482" 
d="M1458 874q0 -138 -37 -266t-112.5 -239t-182.5 -193t-256.5 -129t-324.5 -47h-488l129 614h-92l39 185h92l54 248q51 234 57 366h549q573 0 573 -539zM885 614h-320l-71 -348h139q90 0 164 35t122.5 92t81.5 132.5t47.5 152.5t14.5 156q0 65 -11 116t-27 83t-42.5 55.5
t-47.5 34.5t-53 17t-48 6.5t-43 0.5h-113l-72 -348h318z" />
    <glyph glyph-name="Ntilde" unicode="&#xd1;" horiz-adv-x="1497" 
d="M883 1931q46 0 89 -18t70.5 -40t64 -40t71.5 -18q39 0 66.5 20t68.5 68l88 -15q-27 -127 -102 -218t-181 -91q-41 0 -86.5 18.5t-78 40t-72 40t-70.5 18.5q-63 0 -131 -88l-88 14q12 59 35 111t57.5 98t86 73t112.5 27zM903 903q69 -201 109 -426h6q18 222 63 436
q61 285 84 500l342 17l33 -41l-295 -1389h-358q-44 113 -104 285.5t-83 232.5q-73 203 -116 402h-6q-9 -196 -58 -422l-104 -498h-359l222 1047q46 208 57 366l383 14q124 -364 184 -524z" />
    <glyph glyph-name="Ograve" unicode="&#xd2;" horiz-adv-x="1443" 
d="M1239 1579q-345 3 -577 129l-9 59l258 187q181 -166 371 -291zM1423 895q0 -138 -38.5 -272.5t-111.5 -250t-172 -203.5t-228 -138.5t-271 -50.5q-237 0 -368.5 139.5t-131.5 398.5q0 139 38 273.5t110.5 250t171 203.5t227 138.5t269.5 50.5q239 0 372 -140.5
t133 -398.5zM492 512q0 -256 170 -256q70 0 132 41.5t105 109t74 152.5t46 173t15 169q0 256 -170 256q-70 0 -132 -41.5t-105 -109t-74 -152.5t-46 -173t-15 -169z" />
    <glyph glyph-name="Oacute" unicode="&#xd3;" horiz-adv-x="1443" 
d="M1305 1767l-33 -59q-289 -126 -635 -129l-6 84q265 137 493 291zM1423 895q0 -138 -38.5 -272.5t-111.5 -250t-172 -203.5t-228 -138.5t-271 -50.5q-237 0 -368.5 139.5t-131.5 398.5q0 139 38 273.5t110.5 250t171 203.5t227 138.5t269.5 50.5q239 0 372 -140.5
t133 -398.5zM492 512q0 -256 170 -256q70 0 132 41.5t105 109t74 152.5t46 173t15 169q0 256 -170 256q-70 0 -132 -41.5t-105 -109t-74 -152.5t-46 -173t-15 -169z" />
    <glyph glyph-name="Ocircumflex" unicode="&#xd4;" horiz-adv-x="1443" 
d="M674 1581l-78 82q132 99 303 248l244 20q97 -155 192 -268l-114 -82q-27 10 -52.5 21t-55 26.5t-45 23.5t-50.5 28t-43 24q-212 -95 -301 -123zM1423 895q0 -138 -38.5 -272.5t-111.5 -250t-172 -203.5t-228 -138.5t-271 -50.5q-237 0 -368.5 139.5t-131.5 398.5
q0 139 38 273.5t110.5 250t171 203.5t227 138.5t269.5 50.5q239 0 372 -140.5t133 -398.5zM492 512q0 -256 170 -256q70 0 132 41.5t105 109t74 152.5t46 173t15 169q0 256 -170 256q-70 0 -132 -41.5t-105 -109t-74 -152.5t-46 -173t-15 -169z" />
    <glyph glyph-name="Otilde" unicode="&#xd5;" horiz-adv-x="1443" 
d="M852 1931q46 0 89 -18t70.5 -40t64 -40t71.5 -18q39 0 66.5 20t68.5 68l88 -15q-27 -127 -102 -218t-181 -91q-41 0 -86.5 18.5t-78 40t-72 40t-70.5 18.5q-63 0 -131 -88l-88 14q12 59 35 111t57.5 98t86 73t112.5 27zM1423 895q0 -138 -38.5 -272.5t-111.5 -250
t-172 -203.5t-228 -138.5t-271 -50.5q-237 0 -368.5 139.5t-131.5 398.5q0 139 38 273.5t110.5 250t171 203.5t227 138.5t269.5 50.5q239 0 372 -140.5t133 -398.5zM492 512q0 -256 170 -256q70 0 132 41.5t105 109t74 152.5t46 173t15 169q0 256 -170 256q-70 0 -132 -41.5
t-105 -109t-74 -152.5t-46 -173t-15 -169z" />
    <glyph glyph-name="Odieresis" unicode="&#xd6;" horiz-adv-x="1443" 
d="M1405 1808q0 -85 -75.5 -151t-172.5 -66q-63 0 -100 33t-37 84q0 82 78.5 148.5t173.5 66.5q59 0 96 -31.5t37 -83.5zM911 1808q0 -85 -75 -151t-172 -66q-63 0 -100.5 33t-37.5 84q0 82 78.5 148.5t173.5 66.5q59 0 96 -31.5t37 -83.5zM1423 895q0 -138 -38.5 -272.5
t-111.5 -250t-172 -203.5t-228 -138.5t-271 -50.5q-237 0 -368.5 139.5t-131.5 398.5q0 139 38 273.5t110.5 250t171 203.5t227 138.5t269.5 50.5q239 0 372 -140.5t133 -398.5zM492 512q0 -256 170 -256q70 0 132 41.5t105 109t74 152.5t46 173t15 169q0 256 -170 256
q-70 0 -132 -41.5t-105 -109t-74 -152.5t-46 -173t-15 -169z" />
    <glyph glyph-name="multiply" unicode="&#xd7;" 
d="M889 270l-238 312l-377 -312l-102 131l379 314l-238 313l150 123q108 -128 244 -309l374 309l103 -131l-375 -309q41 -53 126.5 -163t117.5 -151l-6 -22z" />
    <glyph glyph-name="Oslash" unicode="&#xd8;" horiz-adv-x="1443" 
d="M1423 895q0 -138 -38.5 -272.5t-111.5 -250t-172 -203.5t-228 -138.5t-271 -50.5q-246 0 -375 147l-172 -158l-108 115l196 182q-41 109 -41 252q0 139 38 273.5t110.5 250t171 203.5t227 138.5t269.5 50.5q224 0 356 -123l143 133l111 -113l-162 -149q57 -120 57 -287z
M864 1157q-79 0 -146.5 -51.5t-112 -135.5t-72.5 -181t-37 -197l512 473q-42 92 -144 92zM662 256q84 0 155.5 59t116.5 151.5t71 198.5t29 209l-528 -489q31 -129 156 -129z" />
    <glyph glyph-name="Ugrave" unicode="&#xd9;" horiz-adv-x="1456" 
d="M1272 1579q-346 3 -578 129l-8 59l258 187q181 -166 371 -291zM137 348q0 84 39 263.5t87 407t63 394.5l362 21l33 -41q-51 -239 -116 -543q-55 -255 -67 -317t-12 -95q0 -174 172 -174q212 0 269 260q114 526 138.5 660t29.5 229l383 17l-199 -938q-26 -123 -93.5 -222
t-161 -161.5t-206.5 -95.5t-235 -33q-219 0 -352.5 98.5t-133.5 269.5z" />
    <glyph glyph-name="Uacute" unicode="&#xda;" horiz-adv-x="1456" 
d="M1337 1767l-32 -59q-289 -126 -635 -129l-6 84q265 137 493 291zM137 348q0 84 39 263.5t87 407t63 394.5l362 21l33 -41q-51 -239 -116 -543q-55 -255 -67 -317t-12 -95q0 -174 172 -174q212 0 269 260q114 526 138.5 660t29.5 229l383 17l-199 -938
q-26 -123 -93.5 -222t-161 -161.5t-206.5 -95.5t-235 -33q-219 0 -352.5 98.5t-133.5 269.5z" />
    <glyph glyph-name="Ucircumflex" unicode="&#xdb;" horiz-adv-x="1456" 
d="M707 1581l-78 82q132 99 303 248l244 20q97 -155 192 -268l-115 -82q-27 10 -53 21.5t-54 26t-45 23.5t-49.5 27.5t-43.5 24.5q-212 -95 -301 -123zM137 348q0 84 39 263.5t87 407t63 394.5l362 21l33 -41q-51 -239 -116 -543q-55 -255 -67 -317t-12 -95q0 -174 172 -174
q212 0 269 260q114 526 138.5 660t29.5 229l383 17l-199 -938q-26 -123 -93.5 -222t-161 -161.5t-206.5 -95.5t-235 -33q-219 0 -352.5 98.5t-133.5 269.5z" />
    <glyph glyph-name="Udieresis" unicode="&#xdc;" horiz-adv-x="1456" 
d="M1438 1808q0 -85 -75.5 -151t-172.5 -66q-63 0 -100 33t-37 84q0 82 78.5 148.5t173.5 66.5q59 0 96 -31.5t37 -83.5zM944 1808q0 -85 -75.5 -151t-172.5 -66q-63 0 -100 33t-37 84q0 82 78.5 148.5t173.5 66.5q59 0 96 -31.5t37 -83.5zM137 348q0 84 39 263.5t87 407
t63 394.5l362 21l33 -41q-51 -239 -116 -543q-55 -255 -67 -317t-12 -95q0 -174 172 -174q212 0 269 260q114 526 138.5 660t29.5 229l383 17l-199 -938q-26 -123 -93.5 -222t-161 -161.5t-206.5 -95.5t-235 -33q-219 0 -352.5 98.5t-133.5 269.5z" />
    <glyph glyph-name="Yacute" unicode="&#xdd;" horiz-adv-x="1206" 
d="M1249 1767l-32 -59q-289 -126 -635 -129l-7 84q270 139 494 291zM399 442l-200 953l413 39l43 -414q18 -190 25 -311h6q144 265 166 309l215 416l299 -21l12 -39l-600 -932l-94 -442h-379z" />
    <glyph glyph-name="Thorn" unicode="&#xde;" horiz-adv-x="1284" 
d="M434 0h-379l224 1047q3 13 12.5 60t14.5 72t12 68t11.5 83.5t6.5 82.5h399l-41 -190h158q214 0 331 -99t117 -282q0 -123 -54 -235t-146.5 -194t-222.5 -131t-275 -49h-119zM711 956h-74l-96 -456h73q132 0 210.5 78.5t78.5 201.5q0 36 -8 65t-19.5 47t-30 31t-33.5 19
t-37.5 9.5t-34 4t-29.5 0.5z" />
    <glyph glyph-name="germandbls" unicode="&#xdf;" horiz-adv-x="1359" 
d="M-27 -512l-116 123q81 124 126.5 240.5t77.5 271.5l146 686l-141 10l26 123l152 41q60 283 228.5 428t416.5 145q190 0 293.5 -79.5t103.5 -212.5q0 -117 -80 -213.5t-229 -155.5q136 -65 210.5 -178t74.5 -271q0 -98 -29.5 -181.5t-87.5 -147.5t-151 -100.5t-212 -36.5
q-68 0 -142.5 10.5t-100.5 23.5l49 226q26 -14 72.5 -24.5t78.5 -10.5q81 0 126.5 65.5t45.5 165.5q0 213 -231 369l25 131q120 44 186.5 118.5t66.5 176.5q0 121 -108 121q-161 0 -211 -244l-184 -866q-25 -120 -50.5 -206.5t-63 -171t-87 -148t-119.5 -121.5t-162 -107z
" />
    <glyph glyph-name="agrave" unicode="&#xe0;" horiz-adv-x="1187" 
d="M829 1159q-163 154 -245 348l32 62l332 16q0 -191 29 -405zM51 299q0 102 27.5 205.5t86 201t139.5 172.5t198 120.5t252 45.5q99 0 213.5 -23t197.5 -67l-80 -364q-88 -402 -88 -590h-368q0 112 35 317q-44 -147 -145.5 -242t-227.5 -95q-116 0 -178 83.5t-62 235.5z
M430 399q0 -54 18 -83t50 -29q66 0 133.5 121.5t105.5 283.5q3 22 12.5 65.5t12.5 59.5q-44 23 -76 23q-64 0 -125 -77.5t-96 -179.5t-35 -184z" />
    <glyph glyph-name="aacute" unicode="&#xe1;" horiz-adv-x="1187" 
d="M1038 1569l9 -62q-163 -194 -394 -348l-139 21q136 244 201 405zM51 299q0 102 27.5 205.5t86 201t139.5 172.5t198 120.5t252 45.5q99 0 213.5 -23t197.5 -67l-80 -364q-88 -402 -88 -590h-368q0 112 35 317q-44 -147 -145.5 -242t-227.5 -95q-116 0 -178 83.5
t-62 235.5zM430 399q0 -54 18 -83t50 -29q66 0 133.5 121.5t105.5 283.5q3 22 12.5 65.5t12.5 59.5q-44 23 -76 23q-64 0 -125 -77.5t-96 -179.5t-35 -184z" />
    <glyph glyph-name="acircumflex" unicode="&#xe2;" horiz-adv-x="1187" 
d="M518 1130l-98 82q167 171 307 336l244 21q94 -234 159 -357l-135 -82q-19 13 -38.5 29.5t-33.5 29.5t-34.5 34.5t-30 31.5t-31.5 35t-28 31q-178 -136 -281 -191zM51 299q0 102 27.5 205.5t86 201t139.5 172.5t198 120.5t252 45.5q99 0 213.5 -23t197.5 -67l-80 -364
q-88 -402 -88 -590h-368q0 112 35 317q-44 -147 -145.5 -242t-227.5 -95q-116 0 -178 83.5t-62 235.5zM430 399q0 -54 18 -83t50 -29q66 0 133.5 121.5t105.5 283.5q3 22 12.5 65.5t12.5 59.5q-44 23 -76 23q-64 0 -125 -77.5t-96 -179.5t-35 -184z" />
    <glyph glyph-name="atilde" unicode="&#xe3;" horiz-adv-x="1187" 
d="M682 1561q46 0 90.5 -18.5t74 -40t67 -40t71.5 -18.5q37 0 63.5 20.5t61.5 67.5l98 -14q-14 -67 -39.5 -127.5t-61 -112t-85 -81.5t-104.5 -30q-52 0 -112.5 29.5t-114 58.5t-89.5 29q-58 0 -121 -88l-96 14q14 67 38 126.5t59.5 111.5t87 82.5t112.5 30.5zM51 299
q0 102 27.5 205.5t86 201t139.5 172.5t198 120.5t252 45.5q99 0 213.5 -23t197.5 -67l-80 -364q-88 -402 -88 -590h-368q0 112 35 317q-44 -147 -145.5 -242t-227.5 -95q-116 0 -178 83.5t-62 235.5zM430 399q0 -54 18 -83t50 -29q66 0 133.5 121.5t105.5 283.5
q3 22 12.5 65.5t12.5 59.5q-44 23 -76 23q-64 0 -125 -77.5t-96 -179.5t-35 -184z" />
    <glyph glyph-name="adieresis" unicode="&#xe4;" horiz-adv-x="1187" 
d="M737 1425q0 -95 -80 -172t-180 -77q-67 0 -106 37t-39 96q0 92 84 168.5t184 76.5q63 0 100 -35t37 -94zM1227 1425q0 -95 -80 -172t-180 -77q-67 0 -106.5 37.5t-39.5 95.5q0 92 84.5 168.5t184.5 76.5q63 0 100 -35t37 -94zM51 299q0 102 27.5 205.5t86 201
t139.5 172.5t198 120.5t252 45.5q99 0 213.5 -23t197.5 -67l-80 -364q-88 -402 -88 -590h-368q0 112 35 317q-44 -147 -145.5 -242t-227.5 -95q-116 0 -178 83.5t-62 235.5zM430 399q0 -54 18 -83t50 -29q66 0 133.5 121.5t105.5 283.5q3 22 12.5 65.5t12.5 59.5
q-44 23 -76 23q-64 0 -125 -77.5t-96 -179.5t-35 -184z" />
    <glyph glyph-name="aring" unicode="&#xe5;" horiz-adv-x="1187" 
d="M1055 1460q0 -115 -104.5 -207t-233.5 -92q-93 0 -147 47t-54 119q0 110 109 202.5t241 92.5q86 0 137.5 -44t51.5 -118zM666 1356q0 -35 23 -57.5t63 -22.5q58 0 105.5 48.5t47.5 107.5q0 35 -20.5 55t-55.5 20q-62 0 -112.5 -47t-50.5 -104zM51 299q0 102 27.5 205.5
t86 201t139.5 172.5t198 120.5t252 45.5q99 0 213.5 -23t197.5 -67l-80 -364q-88 -402 -88 -590h-368q0 112 35 317q-44 -147 -145.5 -242t-227.5 -95q-116 0 -178 83.5t-62 235.5zM430 399q0 -54 18 -83t50 -29q66 0 133.5 121.5t105.5 283.5q3 22 12.5 65.5t12.5 59.5
q-44 23 -76 23q-64 0 -125 -77.5t-96 -179.5t-35 -184z" />
    <glyph glyph-name="ae" unicode="&#xe6;" horiz-adv-x="1671" 
d="M55 322q0 85 20 170.5t58 166.5t98 151t135.5 122t175.5 82t212 30q173 0 329 -53q115 53 250 53q158 0 252 -73t94 -195q0 -157 -165 -255.5t-459 -121.5v-2q0 -86 43.5 -134t132.5 -48q117 0 256 78l39 -150q-90 -77 -209.5 -120t-241.5 -43q-177 0 -284.5 93
t-114.5 273q-37 -150 -143 -258t-234 -108q-116 0 -180 92.5t-64 249.5zM1282 850q-55 0 -102 -58.5t-73.5 -133t-41.5 -158.5q133 30 207 97t74 167q0 86 -64 86zM434 399q0 -54 18 -83t50 -29q53 0 110 82t97 204q38 112 110 209q-74 58 -129 58q-64 0 -125 -77.5
t-96 -179.5t-35 -184z" />
    <glyph glyph-name="ccedilla" unicode="&#xe7;" horiz-adv-x="997" 
d="M715 -256q0 -129 -143 -202.5t-392 -73.5l37 122q109 6 174.5 40.5t65.5 82.5q0 62 -142 62l-26 61l76 152q-141 24 -221.5 120.5t-80.5 262.5q0 127 49.5 248.5t136 215.5t215.5 151.5t277 57.5q176 0 293 -67l-92 -295q-127 127 -252 127q-75 0 -133.5 -57
t-86.5 -141.5t-28 -178.5q0 -217 183 -217q117 0 256 78l39 -150q-150 -132 -369 -157l-45 -86q209 -29 209 -156z" />
    <glyph glyph-name="egrave" unicode="&#xe8;" horiz-adv-x="1054" 
d="M780 1159q-163 154 -245 348l32 62l332 16q0 -191 29 -405zM874 293l39 -150q-90 -78 -209 -120.5t-241 -42.5q-182 0 -291 99t-109 290q0 128 50.5 250.5t137.5 216.5t212.5 151t265.5 57q154 0 246 -66t92 -183q0 -161 -170.5 -272.5t-454.5 -123.5v-2q0 -86 43.5 -134
t132.5 -48q117 0 256 78zM670 850q-55 0 -102 -58.5t-73.5 -133t-41.5 -158.5q133 30 206.5 97t73.5 167q0 86 -63 86z" />
    <glyph glyph-name="eacute" unicode="&#xe9;" horiz-adv-x="1054" 
d="M989 1569l8 -62q-164 -195 -393 -348l-139 21q136 244 201 405zM874 293l39 -150q-90 -78 -209 -120.5t-241 -42.5q-182 0 -291 99t-109 290q0 128 50.5 250.5t137.5 216.5t212.5 151t265.5 57q154 0 246 -66t92 -183q0 -161 -170.5 -272.5t-454.5 -123.5v-2
q0 -86 43.5 -134t132.5 -48q117 0 256 78zM670 850q-55 0 -102 -58.5t-73.5 -133t-41.5 -158.5q133 30 206.5 97t73.5 167q0 86 -63 86z" />
    <glyph glyph-name="ecircumflex" unicode="&#xea;" horiz-adv-x="1054" 
d="M469 1130l-98 82q167 171 307 336l244 21q94 -234 159 -357l-135 -82q-19 13 -38.5 29.5t-33.5 29.5t-34.5 34.5t-30 31.5t-31.5 35t-28 31q-178 -136 -281 -191zM874 293l39 -150q-90 -78 -209 -120.5t-241 -42.5q-182 0 -291 99t-109 290q0 128 50.5 250.5t137.5 216.5
t212.5 151t265.5 57q154 0 246 -66t92 -183q0 -161 -170.5 -272.5t-454.5 -123.5v-2q0 -86 43.5 -134t132.5 -48q117 0 256 78zM670 850q-55 0 -102 -58.5t-73.5 -133t-41.5 -158.5q133 30 206.5 97t73.5 167q0 86 -63 86z" />
    <glyph glyph-name="edieresis" unicode="&#xeb;" horiz-adv-x="1054" 
d="M688 1425q0 -95 -80 -172t-180 -77q-67 0 -106 37t-39 96q0 92 84 168.5t184 76.5q63 0 100 -35t37 -94zM1178 1425q0 -95 -80 -172t-180 -77q-68 0 -107 37.5t-39 95.5q0 92 84 168.5t184 76.5q63 0 100.5 -35t37.5 -94zM874 293l39 -150q-90 -78 -209 -120.5
t-241 -42.5q-182 0 -291 99t-109 290q0 128 50.5 250.5t137.5 216.5t212.5 151t265.5 57q154 0 246 -66t92 -183q0 -161 -170.5 -272.5t-454.5 -123.5v-2q0 -86 43.5 -134t132.5 -48q117 0 256 78zM670 850q-55 0 -102 -58.5t-73.5 -133t-41.5 -158.5q133 30 206.5 97
t73.5 167q0 86 -63 86z" />
    <glyph glyph-name="igrave" unicode="&#xec;" horiz-adv-x="616" 
d="M514 1159q-165 155 -246 348l33 62l332 16q0 -191 29 -405zM426 0h-369q0 196 76 547l41 188l16 289l388 20q0 -113 -38 -305.5t-76 -396t-38 -342.5z" />
    <glyph glyph-name="iacute" unicode="&#xed;" horiz-adv-x="616" 
d="M723 1569l8 -62q-164 -195 -393 -348l-139 21q132 238 200 405zM426 0h-369q0 196 76 547l41 188l16 289l388 20q0 -113 -38 -305.5t-76 -396t-38 -342.5z" />
    <glyph glyph-name="icircumflex" unicode="&#xee;" horiz-adv-x="616" 
d="M256 1149l-121 49q101 167 193 361l348 20q12 -234 35 -381l-142 -49q-61 76 -112 207q-112 -136 -201 -207zM426 0h-369q0 196 76 547l41 188l16 289l388 20q0 -113 -38 -305.5t-76 -396t-38 -342.5z" />
    <glyph glyph-name="idieresis" unicode="&#xef;" horiz-adv-x="616" 
d="M453 1432q0 -95 -74.5 -174.5t-165.5 -79.5q-60 0 -95.5 37t-35.5 94q0 91 79.5 169t170.5 78q54 0 87.5 -33.5t33.5 -90.5zM848 1432q0 -95 -75.5 -174.5t-166.5 -79.5q-59 0 -92 36t-33 93q0 92 76.5 170.5t167.5 78.5q56 0 89.5 -33.5t33.5 -90.5zM426 0h-369
q0 196 76 547l41 188l16 289l388 20q0 -113 -38 -305.5t-76 -396t-38 -342.5z" />
    <glyph glyph-name="eth" unicode="&#xf0;" horiz-adv-x="1200" 
d="M469 -20q-180 0 -289.5 101t-109.5 290q0 158 75.5 295.5t204.5 219t279 81.5q102 0 166 -41q-23 129 -101 237l-196 -114l-78 137l168 96q-44 41 -94 76l133 198q118 -49 215 -124l217 124l80 -137l-181 -104q179 -213 179 -527q0 -220 -85.5 -405t-239.5 -294
t-343 -109zM659 762q-86 0 -150.5 -120t-64.5 -277q0 -181 97 -181q57 0 106.5 60.5t78 155t28.5 194.5q0 168 -95 168z" />
    <glyph glyph-name="ntilde" unicode="&#xf1;" horiz-adv-x="1210" 
d="M649 1561q46 0 90.5 -18.5t74 -40t67 -40t71.5 -18.5q37 0 63.5 20.5t61.5 67.5l99 -14q-31 -144 -107.5 -247.5t-183.5 -103.5q-52 0 -112.5 29.5t-114 58.5t-89.5 29q-57 0 -120 -88l-97 14q14 67 38 126.5t59.5 111.5t87 82.5t112.5 30.5zM426 0h-369q0 119 26 284
t91 451l16 289l388 20q0 -56 -21 -253h6q77 130 177.5 191.5t201.5 61.5q96 0 149.5 -54.5t53.5 -145.5q0 -19 -2 -41.5t-6.5 -52t-8.5 -53.5t-12.5 -64t-13.5 -63.5t-15.5 -72t-15.5 -71.5q-30 -140 -40.5 -227.5t-10.5 -198.5h-369q0 99 12 185.5t42 238.5q43 212 43 246
q0 67 -50 67q-64 0 -126.5 -108.5t-102.5 -280t-43 -348.5z" />
    <glyph glyph-name="ograve" unicode="&#xf2;" horiz-adv-x="1169" 
d="M791 1159q-165 155 -246 348l33 62l331 16q0 -191 29 -405zM1112 647q0 -130 -50 -251.5t-135.5 -213.5t-207.5 -147t-258 -55q-181 0 -289.5 99t-108.5 290q0 171 85.5 326t238 252t332.5 97q184 0 288.5 -103.5t104.5 -293.5zM442 330q0 -146 76 -146q51 0 93.5 55
t68 137t39.5 167t14 153q0 144 -76 144q-51 0 -94 -54.5t-68.5 -135.5t-39 -165.5t-13.5 -154.5z" />
    <glyph glyph-name="oacute" unicode="&#xf3;" horiz-adv-x="1169" 
d="M999 1569l9 -62q-163 -194 -394 -348l-139 21q136 244 201 405zM1112 647q0 -130 -50 -251.5t-135.5 -213.5t-207.5 -147t-258 -55q-181 0 -289.5 99t-108.5 290q0 171 85.5 326t238 252t332.5 97q184 0 288.5 -103.5t104.5 -293.5zM442 330q0 -146 76 -146q51 0 93.5 55
t68 137t39.5 167t14 153q0 144 -76 144q-51 0 -94 -54.5t-68.5 -135.5t-39 -165.5t-13.5 -154.5z" />
    <glyph glyph-name="ocircumflex" unicode="&#xf4;" horiz-adv-x="1169" 
d="M479 1130l-98 82q167 171 307 336l244 21q91 -226 160 -357l-136 -82q-19 13 -38.5 29.5t-33.5 29.5t-34.5 34.5t-30 31.5t-31.5 35t-28 31q-178 -136 -281 -191zM1112 647q0 -130 -50 -251.5t-135.5 -213.5t-207.5 -147t-258 -55q-181 0 -289.5 99t-108.5 290
q0 171 85.5 326t238 252t332.5 97q184 0 288.5 -103.5t104.5 -293.5zM442 330q0 -146 76 -146q51 0 93.5 55t68 137t39.5 167t14 153q0 144 -76 144q-51 0 -94 -54.5t-68.5 -135.5t-39 -165.5t-13.5 -154.5z" />
    <glyph glyph-name="otilde" unicode="&#xf5;" horiz-adv-x="1169" 
d="M643 1561q46 0 90.5 -18.5t74 -40t67 -40t71.5 -18.5q37 0 63.5 20.5t61.5 67.5l98 -14q-14 -67 -39.5 -127.5t-61 -112t-85 -81.5t-104.5 -30q-52 0 -112.5 29.5t-114 58.5t-89.5 29q-58 0 -121 -88l-96 14q14 67 38 126.5t59.5 111.5t87 82.5t112.5 30.5zM1112 647
q0 -130 -50 -251.5t-135.5 -213.5t-207.5 -147t-258 -55q-181 0 -289.5 99t-108.5 290q0 171 85.5 326t238 252t332.5 97q184 0 288.5 -103.5t104.5 -293.5zM442 330q0 -146 76 -146q51 0 93.5 55t68 137t39.5 167t14 153q0 144 -76 144q-51 0 -94 -54.5t-68.5 -135.5
t-39 -165.5t-13.5 -154.5z" />
    <glyph glyph-name="odieresis" unicode="&#xf6;" horiz-adv-x="1169" 
d="M698 1425q0 -95 -80 -172t-180 -77q-67 0 -106 37t-39 96q0 92 84 168.5t184 76.5q63 0 100 -35t37 -94zM1188 1425q0 -95 -80 -172t-180 -77q-68 0 -107 37.5t-39 95.5q0 92 84.5 168.5t184.5 76.5q63 0 100 -35t37 -94zM1112 647q0 -130 -50 -251.5t-135.5 -213.5
t-207.5 -147t-258 -55q-181 0 -289.5 99t-108.5 290q0 171 85.5 326t238 252t332.5 97q184 0 288.5 -103.5t104.5 -293.5zM442 330q0 -146 76 -146q51 0 93.5 55t68 137t39.5 167t14 153q0 144 -76 144q-51 0 -94 -54.5t-68.5 -135.5t-39 -165.5t-13.5 -154.5z" />
    <glyph glyph-name="divide" unicode="&#xf7;" 
d="M926 1143q0 -79 -66.5 -144t-150.5 -65q-55 0 -87 32t-32 81q0 77 68.5 141.5t150.5 64.5q53 0 85 -29t32 -81zM1108 621h-922l37 174q352 10 928 10l12 -17zM766 381q0 -79 -68 -144t-151 -65q-55 0 -87 32t-32 81q0 76 70.5 141.5t152.5 65.5q52 0 83.5 -29.5
t31.5 -81.5z" />
    <glyph glyph-name="oslash" unicode="&#xf8;" horiz-adv-x="1169" 
d="M1112 647q0 -130 -50 -251.5t-135.5 -213.5t-207.5 -147t-258 -55q-169 0 -275 86l-141 -125l-96 114l149 129q-35 78 -35 185q0 171 85.5 326t238 252t332.5 97q166 0 266 -83l141 122l99 -112l-150 -131q37 -78 37 -193zM657 840q-50 0 -92 -52.5t-66.5 -125.5
t-39.5 -162l272 239q-9 101 -74 101zM518 184q49 0 91 53t67 127t41 164l-273 -239q9 -105 74 -105z" />
    <glyph glyph-name="ugrave" unicode="&#xf9;" horiz-adv-x="1181" 
d="M756 1159q-165 155 -246 348l33 62l331 16q0 -191 29 -405zM74 307l90 428l16 289l387 20q0 -84 -17 -191t-45 -237t-36 -180q-13 -57 -6.5 -103t43.5 -46q63 0 121.5 114t95.5 291q25 147 31 215q6 59 6 117l389 20q-5 -49 -11.5 -95.5t-11.5 -81.5t-18.5 -104.5
t-21 -110t-31 -155.5t-37.5 -188q-27 -132 -27 -309h-368q0 129 14 233h-6q-73 -130 -171.5 -191.5t-197.5 -61.5q-123 0 -171.5 89t-16.5 238z" />
    <glyph glyph-name="uacute" unicode="&#xfa;" horiz-adv-x="1181" 
d="M965 1569l8 -62q-164 -195 -393 -348l-140 21q136 244 201 405zM74 307l90 428l16 289l387 20q0 -84 -17 -191t-45 -237t-36 -180q-13 -57 -6.5 -103t43.5 -46q63 0 121.5 114t95.5 291q25 147 31 215q6 59 6 117l389 20q-5 -49 -11.5 -95.5t-11.5 -81.5t-18.5 -104.5
t-21 -110t-31 -155.5t-37.5 -188q-27 -132 -27 -309h-368q0 129 14 233h-6q-73 -130 -171.5 -191.5t-197.5 -61.5q-123 0 -171.5 89t-16.5 238z" />
    <glyph glyph-name="ucircumflex" unicode="&#xfb;" horiz-adv-x="1181" 
d="M444 1130l-98 82q167 171 307 336l244 21q91 -226 160 -357l-135 -82q-16 11 -31.5 23.5t-32 28t-28 26t-29 29.5t-25.5 27.5t-27 30t-24 26.5q-178 -136 -281 -191zM74 307l90 428l16 289l387 20q0 -84 -17 -191t-45 -237t-36 -180q-13 -57 -6.5 -103t43.5 -46
q63 0 121.5 114t95.5 291q25 147 31 215q6 59 6 117l389 20q-5 -49 -11.5 -95.5t-11.5 -81.5t-18.5 -104.5t-21 -110t-31 -155.5t-37.5 -188q-27 -132 -27 -309h-368q0 129 14 233h-6q-73 -130 -171.5 -191.5t-197.5 -61.5q-123 0 -171.5 89t-16.5 238z" />
    <glyph glyph-name="udieresis" unicode="&#xfc;" horiz-adv-x="1181" 
d="M664 1425q0 -95 -80.5 -172t-180.5 -77q-67 0 -106 37t-39 96q0 92 84 168.5t184 76.5q63 0 100.5 -35t37.5 -94zM1153 1425q0 -95 -80 -172t-180 -77q-67 0 -106 37t-39 96q0 92 84 168.5t184 76.5q63 0 100 -35t37 -94zM74 307l90 428l16 289l387 20q0 -84 -17 -191
t-45 -237t-36 -180q-13 -57 -6.5 -103t43.5 -46q63 0 121.5 114t95.5 291q25 147 31 215q6 59 6 117l389 20q-5 -49 -11.5 -95.5t-11.5 -81.5t-18.5 -104.5t-21 -110t-31 -155.5t-37.5 -188q-27 -132 -27 -309h-368q0 129 14 233h-6q-73 -130 -171.5 -191.5t-197.5 -61.5
q-123 0 -171.5 89t-16.5 238z" />
    <glyph glyph-name="yacute" unicode="&#xfd;" horiz-adv-x="1069" 
d="M940 1569l8 -62q-164 -195 -393 -348l-139 21q132 238 200 405zM895 1044q90 0 137 -23.5t47 -92.5q0 -61 -38.5 -171.5t-107 -244.5t-156.5 -279.5t-193.5 -281t-212 -244t-218 -174t-204.5 -65.5q-87 0 -137 52t-50 144q0 78 39 137q70 -20 158 -20q137 0 258 57
t178 162h-211q-6 308 -26.5 581.5t-48.5 442.5l397 20q17 -169 12.5 -391t-29.5 -428h7q97 192 168.5 412t89.5 391q70 16 141 16z" />
    <glyph glyph-name="thorn" unicode="&#xfe;" horiz-adv-x="1175" 
d="M307 -492h-368q0 106 26.5 267t97.5 491l209 981l17 289l387 20q0 -82 -18 -206t-40 -233t-57 -268q-9 -42 -14 -63q55 113 145.5 185.5t192.5 72.5q115 0 179 -92t64 -250q0 -103 -27.5 -205t-85.5 -195.5t-139 -165t-196.5 -114t-249.5 -42.5q-37 0 -57 2
q-66 -344 -66 -474zM682 737q-64 0 -131 -118t-111 -312q-3 -14 -10 -48.5t-10 -53.5q47 -21 74 -21q64 0 125 77.5t96 179.5t35 184q0 54 -18 83t-50 29z" />
    <glyph glyph-name="ydieresis" unicode="&#xff;" horiz-adv-x="1069" 
d="M639 1425q0 -95 -80 -172t-180 -77q-67 0 -106.5 37.5t-39.5 95.5q0 92 84.5 168.5t184.5 76.5q63 0 100 -35t37 -94zM1128 1425q0 -95 -80 -172t-180 -77q-67 0 -106 37t-39 96q0 92 84 168.5t184 76.5q63 0 100 -35t37 -94zM895 1044q90 0 137 -23.5t47 -92.5
q0 -61 -38.5 -171.5t-107 -244.5t-156.5 -279.5t-193.5 -281t-212 -244t-218 -174t-204.5 -65.5q-87 0 -137 52t-50 144q0 78 39 137q70 -20 158 -20q137 0 258 57t178 162h-211q-6 308 -26.5 581.5t-48.5 442.5l397 20q17 -169 12.5 -391t-29.5 -428h7q97 192 168.5 412
t89.5 391q70 16 141 16z" />
    <glyph glyph-name="Amacron" unicode="&#x100;" horiz-adv-x="1413" 
d="M608 1657l41 196h611l-41 -196h-611zM301 0h-358l592 1188q60 117 102 225l463 19l51 -52l102 -1380h-379l-16 266h-428zM602 625l-45 -93h287l-6 91q-16 316 -9 487h-10q-90 -218 -217 -485z" />
    <glyph glyph-name="amacron" unicode="&#x101;" horiz-adv-x="1187" 
d="M453 1266l41 196h610l-41 -196h-610zM51 299q0 102 27.5 205.5t86 201t139.5 172.5t198 120.5t252 45.5q99 0 213.5 -23t197.5 -67l-80 -364q-88 -402 -88 -590h-368q0 112 35 317q-44 -147 -145.5 -242t-227.5 -95q-116 0 -178 83.5t-62 235.5zM430 399q0 -54 18 -83
t50 -29q66 0 133.5 121.5t105.5 283.5q3 22 12.5 65.5t12.5 59.5q-44 23 -76 23q-64 0 -125 -77.5t-96 -179.5t-35 -184z" />
    <glyph glyph-name="Abreve" unicode="&#x102;" horiz-adv-x="1413" 
d="M1118 1911l146 18q-41 -152 -151 -247t-257 -95q-131 0 -199.5 83t-46.5 222l148 21q6 -46 50 -73.5t110 -27.5t121 28.5t79 70.5zM301 0h-358l592 1188q60 117 102 225l463 19l51 -52l102 -1380h-379l-16 266h-428zM602 625l-45 -93h287l-6 91q-16 316 -9 487h-10
q-90 -218 -217 -485z" />
    <glyph glyph-name="abreve" unicode="&#x103;" horiz-adv-x="1187" 
d="M1014 1567l145 18q-45 -177 -159.5 -290t-260.5 -113q-131 0 -196 100t-37 266l147 21q0 -74 40.5 -118t105.5 -44q66 0 126.5 45.5t88.5 114.5zM51 299q0 102 27.5 205.5t86 201t139.5 172.5t198 120.5t252 45.5q99 0 213.5 -23t197.5 -67l-80 -364q-88 -402 -88 -590
h-368q0 112 35 317q-44 -147 -145.5 -242t-227.5 -95q-116 0 -178 83.5t-62 235.5zM430 399q0 -54 18 -83t50 -29q66 0 133.5 121.5t105.5 283.5q3 22 12.5 65.5t12.5 59.5q-44 23 -76 23q-64 0 -125 -77.5t-96 -179.5t-35 -184z" />
    <glyph glyph-name="Aogonek" unicode="&#x104;" horiz-adv-x="1413" 
d="M301 0h-358l592 1188q60 117 102 225l463 19l51 -52l102 -1380q-134 -57 -212 -130.5t-78 -141.5q0 -60 71 -60q51 0 117 27l25 -121q-71 -53 -156.5 -86t-165.5 -33q-92 0 -148.5 46.5t-56.5 123.5q0 105 99 206t266 169h-140l-16 266h-428zM602 625l-45 -93h287l-6 91
q-16 316 -9 487h-10q-90 -218 -217 -485z" />
    <glyph glyph-name="aogonek" unicode="&#x105;" horiz-adv-x="1187" 
d="M51 299q0 102 27.5 205.5t86 201t139.5 172.5t198 120.5t252 45.5q99 0 213.5 -23t197.5 -67l-80 -364q-88 -402 -88 -590q-134 -57 -212 -130.5t-78 -141.5q0 -60 71 -60q51 0 117 27l25 -121q-71 -53 -156.5 -86t-165.5 -33q-92 0 -148.5 46.5t-56.5 123.5
q0 105 99 206t266 169h-129q0 112 35 317q-44 -147 -145.5 -242t-227.5 -95q-116 0 -178 83.5t-62 235.5zM430 399q0 -54 18 -83t50 -29q66 0 133.5 121.5t105.5 283.5q3 22 12.5 65.5t12.5 59.5q-44 23 -76 23q-64 0 -125 -77.5t-96 -179.5t-35 -184z" />
    <glyph glyph-name="Cacute" unicode="&#x106;" horiz-adv-x="1202" 
d="M1264 1767l-33 -59q-289 -126 -635 -129l-6 84q265 137 493 291zM1077 365l-22 -304q-181 -81 -400 -81q-270 0 -411.5 136t-141.5 402q0 179 63.5 346t172 292.5t264.5 201.5t330 76q100 0 197.5 -23t150.5 -59l-139 -318q-58 42 -132.5 67t-138.5 25q-86 0 -157.5 -49
t-116.5 -127t-69.5 -171.5t-24.5 -186.5q0 -305 266 -305q149 0 309 78z" />
    <glyph glyph-name="cacute" unicode="&#x107;" horiz-adv-x="997" 
d="M1001 1569l9 -62q-163 -194 -394 -348l-139 21q136 244 201 405zM881 293l39 -150q-91 -78 -211.5 -120.5t-249.5 -42.5q-181 0 -288.5 99t-107.5 292q0 127 49.5 248.5t136 215.5t215.5 151.5t277 57.5q176 0 293 -67l-92 -295q-127 127 -252 127q-75 0 -133.5 -57
t-86.5 -141.5t-28 -178.5q0 -217 183 -217q117 0 256 78z" />
    <glyph glyph-name="Ccircumflex" unicode="&#x108;" horiz-adv-x="1202" 
d="M633 1581l-78 82q132 99 303 248l244 20q97 -155 192 -268l-114 -82q-27 10 -52.5 21t-55 26.5t-45 23.5t-50.5 28t-43 24q-212 -95 -301 -123zM1077 365l-22 -304q-181 -81 -400 -81q-270 0 -411.5 136t-141.5 402q0 179 63.5 346t172 292.5t264.5 201.5t330 76
q100 0 197.5 -23t150.5 -59l-139 -318q-58 42 -132.5 67t-138.5 25q-86 0 -157.5 -49t-116.5 -127t-69.5 -171.5t-24.5 -186.5q0 -305 266 -305q149 0 309 78z" />
    <glyph glyph-name="ccircumflex" unicode="&#x109;" horiz-adv-x="997" 
d="M481 1130l-98 82q167 171 307 336l244 21q91 -226 160 -357l-136 -82q-19 13 -38.5 29.5t-33.5 29.5t-34.5 34.5t-30 31.5t-31.5 35t-28 31q-178 -136 -281 -191zM881 293l39 -150q-91 -78 -211.5 -120.5t-249.5 -42.5q-181 0 -288.5 99t-107.5 292q0 127 49.5 248.5
t136 215.5t215.5 151.5t277 57.5q176 0 293 -67l-92 -295q-127 127 -252 127q-75 0 -133.5 -57t-86.5 -141.5t-28 -178.5q0 -217 183 -217q117 0 256 78z" />
    <glyph glyph-name="Cdotaccent" unicode="&#x10a;" horiz-adv-x="1202" 
d="M1143 1817q0 -96 -85.5 -172t-193.5 -76q-71 0 -115 38t-44 97q0 91 89.5 165.5t196.5 74.5q67 0 109.5 -34.5t42.5 -92.5zM1077 365l-22 -304q-181 -81 -400 -81q-270 0 -411.5 136t-141.5 402q0 179 63.5 346t172 292.5t264.5 201.5t330 76q100 0 197.5 -23t150.5 -59
l-139 -318q-58 42 -132.5 67t-138.5 25q-86 0 -157.5 -49t-116.5 -127t-69.5 -171.5t-24.5 -186.5q0 -305 266 -305q149 0 309 78z" />
    <glyph glyph-name="cdotaccent" unicode="&#x10b;" horiz-adv-x="997" 
d="M965 1425q0 -103 -89 -186.5t-198 -83.5q-74 0 -118 42t-44 106q0 97 90.5 179.5t202.5 82.5q71 0 113.5 -38t42.5 -102zM881 293l39 -150q-91 -78 -211.5 -120.5t-249.5 -42.5q-181 0 -288.5 99t-107.5 292q0 127 49.5 248.5t136 215.5t215.5 151.5t277 57.5
q176 0 293 -67l-92 -295q-127 127 -252 127q-75 0 -133.5 -57t-86.5 -141.5t-28 -178.5q0 -217 183 -217q117 0 256 78z" />
    <glyph glyph-name="Ccaron" unicode="&#x10c;" horiz-adv-x="1202" 
d="M1219 1939l77 -81q-132 -99 -303 -248l-243 -21q-96 154 -193 269l115 81q79 -29 246 -122q205 92 301 122zM1077 365l-22 -304q-181 -81 -400 -81q-270 0 -411.5 136t-141.5 402q0 179 63.5 346t172 292.5t264.5 201.5t330 76q100 0 197.5 -23t150.5 -59l-139 -318
q-58 42 -132.5 67t-138.5 25q-86 0 -157.5 -49t-116.5 -127t-69.5 -171.5t-24.5 -186.5q0 -305 266 -305q149 0 309 78z" />
    <glyph glyph-name="ccaron" unicode="&#x10d;" horiz-adv-x="997" 
d="M1044 1606l99 -82q-167 -171 -307 -336l-244 -21q-91 226 -160 357l135 82q16 -11 31.5 -23.5t32 -28t28 -26t29 -29.5t25.5 -27.5t27 -30t24 -26.5q63 48 94.5 71t84.5 58.5t101 61.5zM881 293l39 -150q-91 -78 -211.5 -120.5t-249.5 -42.5q-181 0 -288.5 99t-107.5 292
q0 127 49.5 248.5t136 215.5t215.5 151.5t277 57.5q176 0 293 -67l-92 -295q-127 127 -252 127q-75 0 -133.5 -57t-86.5 -141.5t-28 -178.5q0 -217 183 -217q117 0 256 78z" />
    <glyph glyph-name="Dcaron" unicode="&#x10e;" horiz-adv-x="1482" 
d="M1311 1939l78 -81q-139 -105 -304 -248l-243 -21q-96 154 -193 269l115 81q79 -29 246 -122q205 92 301 122zM1458 874q0 -138 -37 -266t-112.5 -239t-182.5 -193t-256.5 -129t-324.5 -47h-488l222 1047q51 234 57 366h549q573 0 573 -539zM791 1147h-113l-184 -881h139
q90 0 164 35t122.5 92t81.5 132.5t47.5 152.5t14.5 156q0 65 -11 116t-27 83t-42.5 55.5t-47.5 34.5t-53 17t-48 6.5t-43 0.5z" />
    <glyph glyph-name="dcaron" unicode="&#x10f;" horiz-adv-x="1187" 
d="M1763 1579l9 -61q-139 -217 -338 -431h-121q108 301 170 492h280zM997 0h-368q0 129 30 305q-46 -142 -145.5 -233.5t-222.5 -91.5q-116 0 -178 83t-62 234q0 102 28 206.5t86 201.5t138.5 172.5t193.5 121t242 45.5q24 0 70 -4l45 207l16 289l387 20
q0 -128 -40.5 -349.5t-89.5 -424t-89.5 -426.5t-40.5 -356zM430 399q0 -54 18 -83t50 -29q63 0 127.5 111.5t103.5 267.5q20 86 25 112l8 39q-44 23 -76 23q-64 0 -125 -77.5t-96 -179.5t-35 -184z" />
    <glyph glyph-name="Dcroat" unicode="&#x110;" horiz-adv-x="1482" 
d="M1458 874q0 -138 -37 -266t-112.5 -239t-182.5 -193t-256.5 -129t-324.5 -47h-488l129 614h-92l39 185h92l54 248q51 234 57 366h549q573 0 573 -539zM885 614h-320l-71 -348h139q90 0 164 35t122.5 92t81.5 132.5t47.5 152.5t14.5 156q0 65 -11 116t-27 83t-42.5 55.5
t-47.5 34.5t-53 17t-48 6.5t-43 0.5h-113l-72 -348h318z" />
    <glyph glyph-name="dcroat" unicode="&#x111;" horiz-adv-x="1187" 
d="M997 0h-368q0 129 30 305q-46 -142 -145.5 -233.5t-222.5 -91.5q-116 0 -178 83t-62 234q0 102 28 206.5t86 201.5t138.5 172.5t193.5 121t242 45.5q24 0 70 -4l29 127h-248l39 185h231l10 184l387 20q0 -82 -16 -204h178l-39 -185h-172q-23 -122 -83 -389.5t-94 -458.5
t-34 -319zM430 399q0 -54 18 -83t50 -29q63 0 127.5 111.5t103.5 267.5q20 86 25 112l8 39q-44 23 -76 23q-64 0 -125 -77.5t-96 -179.5t-35 -184z" />
    <glyph glyph-name="Emacron" unicode="&#x112;" horiz-adv-x="1189" 
d="M551 1657l41 196h610l-41 -196h-610zM1069 287l-59 -287h-953l222 1047q51 231 57 366h919l33 -41l-59 -246l-551 21l-70 -330l455 10l-66 -260l-438 15l-67 -316z" />
    <glyph glyph-name="emacron" unicode="&#x113;" horiz-adv-x="1054" 
d="M403 1266l41 196h611l-41 -196h-611zM874 293l39 -150q-90 -78 -209 -120.5t-241 -42.5q-182 0 -291 99t-109 290q0 128 50.5 250.5t137.5 216.5t212.5 151t265.5 57q154 0 246 -66t92 -183q0 -161 -170.5 -272.5t-454.5 -123.5v-2q0 -86 43.5 -134t132.5 -48
q117 0 256 78zM670 850q-55 0 -102 -58.5t-73.5 -133t-41.5 -158.5q133 30 206.5 97t73.5 167q0 86 -63 86z" />
    <glyph glyph-name="Ebreve" unicode="&#x114;" horiz-adv-x="1189" 
d="M1061 1911l145 18q-41 -152 -150.5 -247t-256.5 -95q-131 0 -199.5 83t-46.5 222l147 21q6 -46 50 -73.5t110 -27.5t121.5 28.5t79.5 70.5zM1069 287l-59 -287h-953l222 1047q51 231 57 366h919l33 -41l-59 -246l-551 21l-70 -330l455 10l-66 -260l-438 15l-67 -316z" />
    <glyph glyph-name="ebreve" unicode="&#x115;" horiz-adv-x="1054" 
d="M965 1567l145 18q-45 -177 -159.5 -290t-260.5 -113q-131 0 -196 100t-37 266l147 21q0 -74 40.5 -118t105.5 -44q66 0 126.5 45.5t88.5 114.5zM874 293l39 -150q-90 -78 -209 -120.5t-241 -42.5q-182 0 -291 99t-109 290q0 128 50.5 250.5t137.5 216.5t212.5 151
t265.5 57q154 0 246 -66t92 -183q0 -161 -170.5 -272.5t-454.5 -123.5v-2q0 -86 43.5 -134t132.5 -48q117 0 256 78zM670 850q-55 0 -102 -58.5t-73.5 -133t-41.5 -158.5q133 30 206.5 97t73.5 167q0 86 -63 86z" />
    <glyph glyph-name="Edotaccent" unicode="&#x116;" horiz-adv-x="1189" 
d="M1096 1817q0 -96 -85.5 -172t-193.5 -76q-71 0 -115.5 38t-44.5 97q0 91 89.5 165.5t197.5 74.5q67 0 109.5 -34.5t42.5 -92.5zM1069 287l-59 -287h-953l222 1047q51 231 57 366h919l33 -41l-59 -246l-551 21l-70 -330l455 10l-66 -260l-438 15l-67 -316z" />
    <glyph glyph-name="edotaccent" unicode="&#x117;" horiz-adv-x="1054" 
d="M952 1425q0 -103 -88.5 -186.5t-197.5 -83.5q-74 0 -118 42t-44 106q0 97 90.5 179.5t202.5 82.5q71 0 113 -38t42 -102zM874 293l39 -150q-90 -78 -209 -120.5t-241 -42.5q-182 0 -291 99t-109 290q0 128 50.5 250.5t137.5 216.5t212.5 151t265.5 57q154 0 246 -66
t92 -183q0 -161 -170.5 -272.5t-454.5 -123.5v-2q0 -86 43.5 -134t132.5 -48q117 0 256 78zM670 850q-55 0 -102 -58.5t-73.5 -133t-41.5 -158.5q133 30 206.5 97t73.5 167q0 86 -63 86z" />
    <glyph glyph-name="Eogonek" unicode="&#x118;" horiz-adv-x="1189" 
d="M1010 0q-134 -57 -212.5 -130.5t-78.5 -141.5q0 -60 72 -60q50 0 116 27l25 -121q-71 -53 -156.5 -86t-165.5 -33q-91 0 -147.5 46.5t-56.5 123.5q0 105 98.5 206t265.5 169h-713l222 1047q51 231 57 366h919l33 -41l-59 -246l-551 21l-70 -330l455 10l-66 -260l-438 15
l-67 -316l577 21z" />
    <glyph glyph-name="eogonek" unicode="&#x119;" horiz-adv-x="1054" 
d="M874 293l39 -150l-30 -24q-165 -135 -243.5 -224t-78.5 -161q0 -66 72 -66q51 0 117 27l24 -121q-71 -53 -156 -86t-165 -33q-93 0 -149 47t-56 131q0 94 70.5 178t207.5 171q-20 -2 -63 -2q-182 0 -291 99t-109 290q0 128 50.5 250.5t137.5 216.5t212.5 151t265.5 57
q154 0 246 -66t92 -183q0 -161 -170.5 -272.5t-454.5 -123.5v-2q0 -86 43.5 -134t132.5 -48q117 0 256 78zM670 850q-55 0 -102 -58.5t-73.5 -133t-41.5 -158.5q133 30 206.5 97t73.5 167q0 86 -63 86z" />
    <glyph glyph-name="Ecaron" unicode="&#x11a;" horiz-adv-x="1189" 
d="M1171 1939l78 -81q-132 -99 -303 -248l-244 -21q-99 158 -192 269l115 81q76 -28 245 -122q205 92 301 122zM1069 287l-59 -287h-953l222 1047q51 231 57 366h919l33 -41l-59 -246l-551 21l-70 -330l455 10l-66 -260l-438 15l-67 -316z" />
    <glyph glyph-name="ecaron" unicode="&#x11b;" horiz-adv-x="1054" 
d="M1032 1606l98 -82q-167 -171 -307 -336l-243 -21q-91 226 -160 357l135 82q16 -11 31.5 -23.5t32 -28t28 -26t29 -29.5t25.5 -27.5t27 -30t24 -26.5q63 48 94.5 71t84.5 58.5t101 61.5zM874 293l39 -150q-90 -78 -209 -120.5t-241 -42.5q-182 0 -291 99t-109 290
q0 128 50.5 250.5t137.5 216.5t212.5 151t265.5 57q154 0 246 -66t92 -183q0 -161 -170.5 -272.5t-454.5 -123.5v-2q0 -86 43.5 -134t132.5 -48q117 0 256 78zM670 850q-55 0 -102 -58.5t-73.5 -133t-41.5 -158.5q133 30 206.5 97t73.5 167q0 86 -63 86z" />
    <glyph glyph-name="Gcircumflex" unicode="&#x11c;" horiz-adv-x="1368" 
d="M715 1581l-78 82q132 99 303 248l244 20q97 -155 192 -268l-114 -82q-27 10 -52.5 21t-55 26.5t-45 23.5t-50.5 28t-43 24q-212 -95 -301 -123zM1249 682l33 -41l-129 -580q-229 -81 -467 -81q-292 0 -441 132.5t-149 387.5q0 180 73 351t196.5 299t298 206t366.5 78
q107 0 209 -23t170 -59l-129 -318q-135 103 -295 103q-110 0 -203.5 -49.5t-155 -131t-96 -183.5t-34.5 -208q0 -299 286 -299q41 0 64 2q25 122 34.5 191.5t18.5 202.5z" />
    <glyph glyph-name="gcircumflex" unicode="&#x11d;" horiz-adv-x="1091" 
d="M461 1130l-99 82q175 178 308 336l243 21q91 -226 160 -357l-135 -82q-16 11 -31.5 23.5t-32 28t-28 26t-29 29.5t-25.5 27.5t-27 30t-24 26.5q-63 -48 -94.5 -71t-84.5 -58.5t-101 -61.5zM315 -532q-213 0 -340 72.5t-127 180.5q0 80 73.5 139.5t189.5 92.5l69 -64
q-4 -32 -4 -49q0 -94 56.5 -151.5t152.5 -57.5q74 0 125 33t51 82q0 24 -12.5 45t-39.5 39.5t-51 32t-64 32.5q-15 7 -23 11q-88 43 -132 80.5t-44 91.5q0 58 52.5 104.5t118 68t121.5 21.5v7q-38 0 -61 2q-146 13 -239 100t-93 235q0 82 30.5 152t83 120t121.5 86t145.5 53
t156.5 17q229 0 319.5 4t177.5 23q33 -29 33 -78q0 -21 -6 -42t-19.5 -42.5t-39 -35t-60.5 -13.5q-30 0 -60.5 10t-66.5 27t-55 23l-2 -7q75 -40 116.5 -99t41.5 -150q0 -70 -26 -130t-68 -101t-92 -75.5t-100.5 -58t-92.5 -43t-68 -37.5t-26 -35q0 -16 24.5 -33t85.5 -47
q117 -60 164 -95q119 -90 119 -204q0 -98 -83.5 -176t-223.5 -119.5t-308 -41.5zM668 733q0 137 -72 137q-66 0 -113 -98.5t-47 -202.5q0 -68 20.5 -109.5t61.5 -41.5q44 0 79.5 51t53 122t17.5 142z" />
    <glyph glyph-name="Gbreve" unicode="&#x11e;" horiz-adv-x="1368" 
d="M1190 1911l145 18q-41 -152 -150.5 -247t-256.5 -95q-131 0 -199.5 83t-46.5 222l147 21q6 -46 50 -73.5t110 -27.5t121.5 28.5t79.5 70.5zM1249 682l33 -41l-129 -580q-229 -81 -467 -81q-292 0 -441 132.5t-149 387.5q0 180 73 351t196.5 299t298 206t366.5 78
q107 0 209 -23t170 -59l-129 -318q-135 103 -295 103q-110 0 -203.5 -49.5t-155 -131t-96 -183.5t-34.5 -208q0 -299 286 -299q41 0 64 2q25 122 34.5 191.5t18.5 202.5z" />
    <glyph glyph-name="gbreve" unicode="&#x11f;" horiz-adv-x="1091" 
d="M956 1567l146 18q-45 -177 -159.5 -290t-260.5 -113q-131 0 -196 100t-37 266l147 21q0 -74 40 -118t105 -44q66 0 126.5 45.5t88.5 114.5zM315 -532q-213 0 -340 72.5t-127 180.5q0 80 73.5 139.5t189.5 92.5l69 -64q-4 -32 -4 -49q0 -94 56.5 -151.5t152.5 -57.5
q74 0 125 33t51 82q0 24 -12.5 45t-39.5 39.5t-51 32t-64 32.5q-15 7 -23 11q-88 43 -132 80.5t-44 91.5q0 58 52.5 104.5t118 68t121.5 21.5v7q-38 0 -61 2q-146 13 -239 100t-93 235q0 82 30.5 152t83 120t121.5 86t145.5 53t156.5 17q229 0 319.5 4t177.5 23
q33 -29 33 -78q0 -21 -6 -42t-19.5 -42.5t-39 -35t-60.5 -13.5q-30 0 -60.5 10t-66.5 27t-55 23l-2 -7q75 -40 116.5 -99t41.5 -150q0 -70 -26 -130t-68 -101t-92 -75.5t-100.5 -58t-92.5 -43t-68 -37.5t-26 -35q0 -16 24.5 -33t85.5 -47q117 -60 164 -95q119 -90 119 -204
q0 -98 -83.5 -176t-223.5 -119.5t-308 -41.5zM668 733q0 137 -72 137q-66 0 -113 -98.5t-47 -202.5q0 -68 20.5 -109.5t61.5 -41.5q44 0 79.5 51t53 122t17.5 142z" />
    <glyph glyph-name="Gdotaccent" unicode="&#x120;" horiz-adv-x="1368" 
d="M1225 1817q0 -96 -85.5 -172t-193.5 -76q-71 0 -115.5 38t-44.5 97q0 91 89.5 165.5t197.5 74.5q67 0 109.5 -34.5t42.5 -92.5zM1249 682l33 -41l-129 -580q-229 -81 -467 -81q-292 0 -441 132.5t-149 387.5q0 180 73 351t196.5 299t298 206t366.5 78q107 0 209 -23
t170 -59l-129 -318q-135 103 -295 103q-110 0 -203.5 -49.5t-155 -131t-96 -183.5t-34.5 -208q0 -299 286 -299q41 0 64 2q25 122 34.5 191.5t18.5 202.5z" />
    <glyph glyph-name="gdotaccent" unicode="&#x121;" horiz-adv-x="1091" 
d="M944 1425q0 -103 -89 -186.5t-198 -83.5q-73 0 -117 42t-44 106q0 97 90 179.5t202 82.5q71 0 113.5 -38t42.5 -102zM315 -532q-213 0 -340 72.5t-127 180.5q0 80 73.5 139.5t189.5 92.5l69 -64q-4 -32 -4 -49q0 -94 56.5 -151.5t152.5 -57.5q74 0 125 33t51 82
q0 24 -12.5 45t-39.5 39.5t-51 32t-64 32.5q-15 7 -23 11q-88 43 -132 80.5t-44 91.5q0 58 52.5 104.5t118 68t121.5 21.5v7q-38 0 -61 2q-146 13 -239 100t-93 235q0 82 30.5 152t83 120t121.5 86t145.5 53t156.5 17q229 0 319.5 4t177.5 23q33 -29 33 -78q0 -21 -6 -42
t-19.5 -42.5t-39 -35t-60.5 -13.5q-30 0 -60.5 10t-66.5 27t-55 23l-2 -7q75 -40 116.5 -99t41.5 -150q0 -70 -26 -130t-68 -101t-92 -75.5t-100.5 -58t-92.5 -43t-68 -37.5t-26 -35q0 -16 24.5 -33t85.5 -47q117 -60 164 -95q119 -90 119 -204q0 -98 -83.5 -176
t-223.5 -119.5t-308 -41.5zM668 733q0 137 -72 137q-66 0 -113 -98.5t-47 -202.5q0 -68 20.5 -109.5t61.5 -41.5q44 0 79.5 51t53 122t17.5 142z" />
    <glyph glyph-name="Gcommaaccent" unicode="&#x122;" horiz-adv-x="1368" 
d="M1249 682l33 -41l-129 -580q-229 -81 -467 -81q-292 0 -441 132.5t-149 387.5q0 180 73 351t196.5 299t298 206t366.5 78q107 0 209 -23t170 -59l-129 -318q-135 103 -295 103q-110 0 -203.5 -49.5t-155 -131t-96 -183.5t-34.5 -208q0 -299 286 -299q41 0 64 2
q25 122 34.5 191.5t18.5 202.5zM391 -666q114 98 166 195q-52 11 -78 53.5t-14 102.5q14 71 79 124.5t142 53.5q72 0 112 -51t21 -144q-13 -63 -51 -128t-91.5 -121t-100.5 -97.5t-99 -79.5z" />
    <glyph glyph-name="gcommaaccent" unicode="&#x123;" horiz-adv-x="1091" 
d="M1073 1698q-114 -98 -166 -195q52 -11 78 -53t14 -102q-14 -71 -79 -125t-142 -54q-72 0 -112 51t-21 144q13 63 51 128t91.5 121t100.5 97.5t99 79.5zM315 -532q-213 0 -340 72.5t-127 180.5q0 80 73.5 139.5t189.5 92.5l69 -64q-4 -32 -4 -49q0 -94 56.5 -151.5
t152.5 -57.5q74 0 125 33t51 82q0 24 -12.5 45t-39.5 39.5t-51 32t-64 32.5q-15 7 -23 11q-88 43 -132 80.5t-44 91.5q0 58 52.5 104.5t118 68t121.5 21.5v7q-38 0 -61 2q-146 13 -239 100t-93 235q0 82 30.5 152t83 120t121.5 86t145.5 53t156.5 17q229 0 319.5 4t177.5 23
q33 -29 33 -78q0 -21 -6 -42t-19.5 -42.5t-39 -35t-60.5 -13.5q-30 0 -60.5 10t-66.5 27t-55 23l-2 -7q75 -40 116.5 -99t41.5 -150q0 -70 -26 -130t-68 -101t-92 -75.5t-100.5 -58t-92.5 -43t-68 -37.5t-26 -35q0 -16 24.5 -33t85.5 -47q117 -60 164 -95q119 -90 119 -204
q0 -98 -83.5 -176t-223.5 -119.5t-308 -41.5zM668 733q0 137 -72 137q-66 0 -113 -98.5t-47 -202.5q0 -68 20.5 -109.5t61.5 -41.5q44 0 79.5 51t53 122t17.5 142z" />
    <glyph glyph-name="Hcircumflex" unicode="&#x124;" horiz-adv-x="1507" 
d="M700 1581l-77 82q132 99 303 248l243 20q94 -150 193 -268l-115 -82q-27 10 -52.5 21t-55 26.5t-45 23.5t-50.5 28t-43 24q-212 -95 -301 -123zM436 0h-379l219 1030q50 242 60 383l362 21l33 -41l-119 -559h443l41 196q48 235 59 383l363 21l32 -41l-295 -1393h-378
l120 567h-440z" />
    <glyph glyph-name="hcircumflex" unicode="&#x125;" horiz-adv-x="1210" 
d="M236 1673l-78 82q132 99 303 248l244 20q97 -155 192 -268l-115 -82q-27 10 -53 21.5t-54 26t-45 23.5t-49.5 27.5t-43.5 24.5q-212 -95 -301 -123zM426 0h-369q0 111 26.5 276.5t98.5 501.5l101 469l16 289l387 20q0 -95 -20.5 -233t-43.5 -246t-65 -286h6
q77 127 180 190t203 63q95 0 147 -56t52 -159q0 -49 -16 -132t-82 -388q-27 -126 -27 -309h-369q0 31 1.5 62.5t5 67t6.5 61.5t9.5 65.5t9.5 58.5t11 61t10.5 52.5t11.5 53t9 44.5q23 115 23 140q0 71 -50 71q-64 0 -126.5 -108.5t-102.5 -280t-43 -348.5z" />
    <glyph glyph-name="Hbar" unicode="&#x126;" horiz-adv-x="1507" 
d="M436 0h-379l213 1004h-133l39 184h131q26 180 29 225l362 21l33 -41l-43 -205h438q26 180 29 225l363 21l32 -41l-43 -205h144l-39 -184h-144l-213 -1004h-378l120 567h-440zM612 834h443l35 170h-441z" />
    <glyph glyph-name="hbar" unicode="&#x127;" horiz-adv-x="1210" 
d="M426 0h-369q0 111 26.5 276.5t98.5 501.5l80 373h-112l38 184h99l12 201l387 20q0 -101 -18 -221h311l-39 -184h-303q-27 -136 -80 -360h6q77 127 180 190t203 63q95 0 147 -56t52 -159q0 -49 -16 -132t-82 -388q-27 -126 -27 -309h-369q0 31 1.5 62.5t5 67t6.5 61.5
t9.5 65.5t9.5 58.5t11 61t10.5 52.5t11.5 53t9 44.5q23 115 23 140q0 71 -50 71q-64 0 -126.5 -108.5t-102.5 -280t-43 -348.5z" />
    <glyph glyph-name="Itilde" unicode="&#x128;" horiz-adv-x="688" 
d="M504 1931q46 0 89 -18t70.5 -40t64 -40t71.5 -18q39 0 66.5 20t68.5 68l88 -15q-27 -127 -102 -218t-181 -91q-41 0 -86.5 18.5t-78 40t-72 40t-70.5 18.5q-63 0 -131 -88l-88 14q12 59 35 111t57.5 98t86 73t112.5 27zM436 0h-379l219 1030q50 242 60 383l362 21l33 -41
z" />
    <glyph glyph-name="itilde" unicode="&#x129;" horiz-adv-x="616" 
d="M377 1563q36 0 72 -18.5t61 -40t54 -40t52 -18.5q56 0 105 88l88 -14q-14 -66 -36 -125t-53.5 -111.5t-75 -83.5t-93.5 -31q-41 0 -91 29.5t-90.5 58.5t-58.5 29q-29 0 -53.5 -20.5t-50.5 -67.5l-88 14q19 91 51.5 166.5t87 130t119.5 54.5zM426 0h-369q0 196 76 547
l41 188l16 289l388 20q0 -113 -38 -305.5t-76 -396t-38 -342.5z" />
    <glyph glyph-name="Imacron" unicode="&#x12a;" horiz-adv-x="688" 
d="M291 1657l41 196h610l-41 -196h-610zM436 0h-379l219 1030q50 242 60 383l362 21l33 -41z" />
    <glyph glyph-name="imacron" unicode="&#x12b;" horiz-adv-x="616" 
d="M164 1266l37 196h549l-37 -196h-549zM426 0h-369q0 196 76 547l41 188l16 289l388 20q0 -113 -38 -305.5t-76 -396t-38 -342.5z" />
    <glyph glyph-name="Ibreve" unicode="&#x12c;" horiz-adv-x="688" 
d="M801 1911l145 18q-41 -152 -150.5 -247t-256.5 -95q-131 0 -199.5 83t-46.5 222l147 21q6 -46 50 -73.5t110 -27.5t121.5 28.5t79.5 70.5zM436 0h-379l219 1030q50 242 60 383l362 21l33 -41z" />
    <glyph glyph-name="ibreve" unicode="&#x12d;" horiz-adv-x="616" 
d="M612 1542l146 19q-44 -177 -148.5 -290.5t-234.5 -113.5q-115 0 -170.5 100.5t-26.5 266.5l148 20q-9 -75 20 -118.5t88 -43.5t109 45.5t69 114.5zM426 0h-369q0 196 76 547l41 188l16 289l388 20q0 -113 -38 -305.5t-76 -396t-38 -342.5z" />
    <glyph glyph-name="Iogonek" unicode="&#x12e;" horiz-adv-x="688" 
d="M436 0q-101 -56 -161 -130t-60 -138t72 -64q50 0 116 27l25 -121q-71 -53 -156.5 -86t-165.5 -33q-93 0 -148.5 46.5t-55.5 129.5q0 101 83.5 201t223.5 168h-152l219 1030q50 242 60 383l362 21l33 -41z" />
    <glyph glyph-name="iogonek" unicode="&#x12f;" horiz-adv-x="616" 
d="M686 1425q0 -103 -89 -186.5t-198 -83.5q-73 0 -117 42t-44 106q0 97 90 179.5t202 82.5q71 0 113.5 -38t42.5 -102zM426 0q-90 -70 -142.5 -143.5t-52.5 -128.5q0 -60 72 -60q51 0 117 27l24 -121q-71 -53 -156 -86t-165 -33q-92 0 -148.5 46.5t-56.5 123.5q0 96 80 196
t215 179h-156q0 196 76 547l41 188l16 289l388 20q0 -113 -38 -305.5t-76 -396t-38 -342.5z" />
    <glyph glyph-name="Idotaccent" unicode="&#x130;" horiz-adv-x="688" 
d="M836 1817q0 -96 -85.5 -172t-193.5 -76q-71 0 -115.5 38t-44.5 97q0 91 89.5 165.5t197.5 74.5q67 0 109.5 -34.5t42.5 -92.5zM436 0h-379l219 1030q50 242 60 383l362 21l33 -41z" />
    <glyph glyph-name="dotlessi" unicode="&#x131;" horiz-adv-x="616" 
d="M426 0h-369q0 196 76 547l41 188l16 289l388 20q0 -113 -38 -305.5t-76 -396t-38 -342.5z" />
    <glyph glyph-name="IJ" unicode="&#x132;" horiz-adv-x="1374" 
d="M436 0h-379l219 1030q50 242 60 383l362 21l33 -41zM612 -414l-77 127q103 115 167 253t103 321l158 743q40 202 47 365l379 39l30 -39l-235 -1108q-30 -140 -68.5 -237t-104 -183t-161.5 -152.5t-238 -128.5z" />
    <glyph glyph-name="ij" unicode="&#x133;" horiz-adv-x="1206" 
d="M686 1425q0 -103 -89 -186.5t-198 -83.5q-73 0 -117 42t-44 106q0 97 90 179.5t202 82.5q71 0 113.5 -38t42.5 -102zM1270 1425q0 -103 -89 -186.5t-198 -83.5q-74 0 -118 42t-44 106q0 97 90.5 179.5t202.5 82.5q71 0 113.5 -38t42.5 -102zM426 0h-369q0 196 76 547
l41 188l16 289l388 20q0 -113 -38 -305.5t-76 -396t-38 -342.5zM553 -532l-117 122q81 124 127 241t78 271l133 633l17 289l387 20q0 -49 -8 -119t-27.5 -172.5t-32 -166.5t-41 -197t-35.5 -168q-25 -120 -50.5 -206.5t-63 -171t-86.5 -147.5t-118.5 -121t-162.5 -107z" />
    <glyph glyph-name="Jcircumflex" unicode="&#x134;" horiz-adv-x="686" 
d="M313 1561l-77 81q132 99 303 248l243 21q96 -154 193 -269l-115 -81q-79 29 -246 122q-205 -92 -301 -122zM-76 -414l-78 127q103 116 167.5 254t103.5 320l157 743q42 208 48 365l378 39l31 -39l-235 -1108q-30 -140 -68.5 -237t-104 -183t-161.5 -152.5t-238 -128.5z
" />
    <glyph glyph-name="jcircumflex" unicode="&#x135;" horiz-adv-x="589" 
d="M223 1149l-121 49q101 167 193 361l348 20q12 -234 35 -381l-141 -49q-63 79 -113 207q-112 -136 -201 -207zM-63 -532l-117 122q81 124 127 241t78 271l133 633l16 289l387 20q0 -49 -8 -117t-28 -176t-30.5 -163.5t-41.5 -200.5t-35 -166q-25 -120 -50.5 -206.5
t-63 -171t-86.5 -147.5t-118.5 -121t-162.5 -107z" />
    <glyph glyph-name="Kcommaaccent" unicode="&#x136;" horiz-adv-x="1372" 
d="M274 1030q49 234 62 383l362 21l33 -41l-129 -609h123q234 357 416 650l354 -21l12 -39l-487 -631l244 -743l-441 -10q-88 249 -155 528h-123l-111 -518h-379zM309 -666q114 98 166 195q-52 11 -78 53.5t-14 102.5q14 71 79 124.5t142 53.5q72 0 112 -51t21 -144
q-13 -63 -51 -128t-91.5 -121t-100.5 -97.5t-99 -79.5z" />
    <glyph glyph-name="kcommaaccent" unicode="&#x137;" horiz-adv-x="1200" 
d="M1192 842q0 -111 -86 -211.5t-199 -161.5q113 -279 236 -469h-457q-85 192 -117 387q254 222 254 358q0 31 -14 47.5t-39 16.5q-52 0 -112 -71.5t-110 -183.5t-84.5 -261t-37.5 -293h-369q0 111 26.5 276.5t98.5 501.5l101 469l16 289l387 20q0 -90 -21.5 -231.5
t-44 -246.5t-65.5 -298h6q81 131 186 197.5t218 66.5q106 0 166.5 -56t60.5 -146zM227 -666q114 98 166 195q-52 11 -78 53.5t-14 102.5q14 71 79 124.5t142 53.5q72 0 112 -51t21 -144q-13 -63 -51 -128t-91.5 -121t-100.5 -97.5t-99 -79.5z" />
    <glyph glyph-name="kgreenlandic" unicode="&#x138;" horiz-adv-x="1200" 
d="M686 0q-109 198 -160 397q-100 -176 -100 -397h-369q0 196 76 547l41 188l16 289l388 20q0 -24 -1.5 -49t-5 -56t-6 -53.5t-9.5 -61.5t-10 -58t-12.5 -65.5t-12.5 -62t-14 -68t-13 -64.5h8q122 270 250.5 404t273.5 134q82 0 157.5 -21t110.5 -50l-215 -344
q-93 45 -178 45q-45 0 -98 -21q164 -388 340 -653h-457z" />
    <glyph glyph-name="Lacute" unicode="&#x139;" horiz-adv-x="1087" 
d="M1145 1767l-33 -59q-289 -126 -635 -129l-6 84q270 139 494 291zM1028 287l-59 -287h-912l219 1030q50 242 60 383l362 21l33 -41l-237 -1127z" />
    <glyph glyph-name="lacute" unicode="&#x13a;" horiz-adv-x="610" 
d="M911 1866l-32 -60q-289 -126 -635 -129l-6 84q265 137 493 291zM426 0h-369q0 111 26.5 276.5t98.5 501.5l101 469l16 289l387 20q0 -128 -40.5 -349.5t-89.5 -424t-89.5 -426.5t-40.5 -356z" />
    <glyph glyph-name="Lcommaaccent" unicode="&#x13b;" horiz-adv-x="1087" 
d="M1028 287l-59 -287h-912l219 1030q50 242 60 383l362 21l33 -41l-237 -1127zM172 -666q114 98 166 195q-52 11 -78 53.5t-14 102.5q14 71 79 124.5t142 53.5q72 0 112 -51t21 -144q-13 -63 -51 -128t-91.5 -121t-100.5 -97.5t-99 -79.5z" />
    <glyph glyph-name="lcommaaccent" unicode="&#x13c;" horiz-adv-x="610" 
d="M426 0h-369q0 111 26.5 276.5t98.5 501.5l101 469l16 289l387 20q0 -128 -40.5 -349.5t-89.5 -424t-89.5 -426.5t-40.5 -356zM-49 -666q114 98 166 195q-52 11 -78 53.5t-14 102.5q14 71 79 124.5t142 53.5q72 0 112 -51t21 -144q-13 -63 -51 -128t-91.5 -121
t-100.5 -97.5t-99 -79.5z" />
    <glyph glyph-name="Lcaron" unicode="&#x13d;" horiz-adv-x="1087" 
d="M1307 1610l8 -62q-137 -214 -338 -430h-121q108 301 170 492h281zM1028 287l-59 -287h-912l219 1030q50 242 60 383l362 21l33 -41l-237 -1127z" />
    <glyph glyph-name="lcaron" unicode="&#x13e;" horiz-adv-x="610" 
d="M1225 1610l8 -62q-137 -214 -338 -430h-121q108 301 170 492h281zM426 0h-369q0 111 26.5 276.5t98.5 501.5l101 469l16 289l387 20q0 -128 -40.5 -349.5t-89.5 -424t-89.5 -426.5t-40.5 -356z" />
    <glyph glyph-name="Ldot" unicode="&#x13f;" horiz-adv-x="1228" 
d="M1028 287l-59 -287h-912l219 1030q50 242 60 383l362 21l33 -41l-237 -1127zM1206 842q0 -105 -88 -190t-198 -85q-75 0 -118.5 41.5t-43.5 104.5q0 101 92.5 185.5t202.5 84.5q69 0 111 -38.5t42 -102.5z" />
    <glyph glyph-name="ldot" unicode="&#x140;" horiz-adv-x="1064" 
d="M426 0h-369q0 111 26.5 276.5t98.5 501.5l101 469l16 289l387 20q0 -128 -40.5 -349.5t-89.5 -424t-89.5 -426.5t-40.5 -356zM1030 727q0 -104 -88.5 -189t-198.5 -85q-75 0 -118 41t-43 104q0 101 92.5 185.5t202.5 84.5q69 0 111 -38.5t42 -102.5z" />
    <glyph glyph-name="Lslash" unicode="&#x141;" horiz-adv-x="1087" 
d="M1028 287l-59 -287h-912l109 506l-184 -90l-50 151l275 135l69 328q50 242 60 383l362 21l33 -41l-102 -480l217 107l51 -152l-309 -153l-94 -449z" />
    <glyph glyph-name="lslash" unicode="&#x142;" horiz-adv-x="610" 
d="M426 0h-369q0 101 22.5 247t80.5 425l-207 -103l-49 152l297 147l82 379l16 289l387 20q0 -158 -65 -481l196 99l51 -152l-290 -143q-6 -25 -24 -106.5t-24.5 -112t-22.5 -103t-22.5 -108t-18.5 -97.5t-17 -100.5t-11.5 -87.5t-9 -88.5t-2.5 -75.5z" />
    <glyph glyph-name="Nacute" unicode="&#x143;" horiz-adv-x="1497" 
d="M1335 1767l-32 -59q-289 -126 -635 -129l-6 84q265 137 493 291zM903 903q69 -201 109 -426h6q18 222 63 436q61 285 84 500l342 17l33 -41l-295 -1389h-358q-44 113 -104 285.5t-83 232.5q-73 203 -116 402h-6q-9 -196 -58 -422l-104 -498h-359l222 1047q46 208 57 366
l383 14q124 -364 184 -524z" />
    <glyph glyph-name="nacute" unicode="&#x144;" horiz-adv-x="1210" 
d="M1006 1569l8 -62q-164 -195 -393 -348l-140 21q136 244 201 405zM426 0h-369q0 119 26 284t91 451l16 289l388 20q0 -56 -21 -253h6q77 130 177.5 191.5t201.5 61.5q96 0 149.5 -54.5t53.5 -145.5q0 -19 -2 -41.5t-6.5 -52t-8.5 -53.5t-12.5 -64t-13.5 -63.5t-15.5 -72
t-15.5 -71.5q-30 -140 -40.5 -227.5t-10.5 -198.5h-369q0 99 12 185.5t42 238.5q43 212 43 246q0 67 -50 67q-64 0 -126.5 -108.5t-102.5 -280t-43 -348.5z" />
    <glyph glyph-name="Ncommaaccent" unicode="&#x145;" horiz-adv-x="1497" 
d="M903 903q69 -201 109 -426h6q18 222 63 436q61 285 84 500l342 17l33 -41l-295 -1389h-358q-44 113 -104 285.5t-83 232.5q-73 203 -116 402h-6q-9 -196 -58 -422l-104 -498h-359l222 1047q46 208 57 366l383 14q124 -364 184 -524zM342 -666q114 98 166 195
q-52 11 -78 53.5t-14 102.5q14 71 79 124.5t142 53.5q72 0 112 -51t21 -144q-13 -63 -51 -128t-91.5 -121t-100.5 -97.5t-99 -79.5z" />
    <glyph glyph-name="ncommaaccent" unicode="&#x146;" horiz-adv-x="1210" 
d="M426 0h-369q0 119 26 284t91 451l16 289l388 20q0 -56 -21 -253h6q77 130 177.5 191.5t201.5 61.5q96 0 149.5 -54.5t53.5 -145.5q0 -19 -2 -41.5t-6.5 -52t-8.5 -53.5t-12.5 -64t-13.5 -63.5t-15.5 -72t-15.5 -71.5q-30 -140 -40.5 -227.5t-10.5 -198.5h-369
q0 99 12 185.5t42 238.5q43 212 43 246q0 67 -50 67q-64 0 -126.5 -108.5t-102.5 -280t-43 -348.5zM233 -666q114 98 166 195q-52 11 -78 53.5t-14 102.5q14 71 79 124.5t142 53.5q73 0 113 -51t21 -144q-43 -205 -343 -426z" />
    <glyph glyph-name="Ncaron" unicode="&#x147;" horiz-adv-x="1497" 
d="M1290 1939l78 -81q-132 -99 -303 -248l-244 -21q-99 158 -192 269l114 81q79 -29 246 -122q205 92 301 122zM903 903q69 -201 109 -426h6q18 222 63 436q61 285 84 500l342 17l33 -41l-295 -1389h-358q-44 113 -104 285.5t-83 232.5q-73 203 -116 402h-6
q-9 -196 -58 -422l-104 -498h-359l222 1047q46 208 57 366l383 14q124 -364 184 -524z" />
    <glyph glyph-name="ncaron" unicode="&#x148;" horiz-adv-x="1210" 
d="M1049 1606l98 -82q-167 -171 -307 -336l-244 -21q-91 226 -160 357l135 82q16 -11 31.5 -23.5t32 -28t28 -26t29 -29.5t25.5 -27.5t27 -30t24 -26.5q178 136 281 191zM426 0h-369q0 119 26 284t91 451l16 289l388 20q0 -56 -21 -253h6q77 130 177.5 191.5t201.5 61.5
q96 0 149.5 -54.5t53.5 -145.5q0 -19 -2 -41.5t-6.5 -52t-8.5 -53.5t-12.5 -64t-13.5 -63.5t-15.5 -72t-15.5 -71.5q-30 -140 -40.5 -227.5t-10.5 -198.5h-369q0 99 12 185.5t42 238.5q43 212 43 246q0 67 -50 67q-64 0 -126.5 -108.5t-102.5 -280t-43 -348.5z" />
    <glyph glyph-name="Eng" unicode="&#x14a;" horiz-adv-x="1495" 
d="M733 -414l-78 127q88 90 136 161t77 167q-36 96 -90.5 254.5t-79.5 222.5q-74 196 -116 373h-7q-10 -190 -55 -393l-106 -498h-359l224 1047q43 207 57 366l381 14q104 -304 184 -524q72 -197 111 -399h6q19 214 61 411q59 274 86 498l340 17l33 -41l-233 -1102
q-31 -140 -69.5 -237t-103.5 -183t-161 -152.5t-238 -128.5z" />
    <glyph glyph-name="eng" unicode="&#x14b;" horiz-adv-x="1200" 
d="M426 0h-369q0 119 26 284t91 451l16 289l388 20q0 -56 -21 -253h6q77 130 177.5 191.5t201.5 61.5q122 0 172.5 -87.5t18.5 -239.5l-86 -408q-39 -192 -77.5 -314.5t-96 -220t-132 -161.5t-188.5 -125l-117 123q81 124 127 241t78 271l64 305q6 26 16.5 81.5t15.5 78.5
q30 149 -39 149q-64 0 -126.5 -108.5t-102.5 -280t-43 -348.5z" />
    <glyph glyph-name="Omacron" unicode="&#x14c;" horiz-adv-x="1443" 
d="M639 1657l41 196h610l-41 -196h-610zM1423 895q0 -138 -38.5 -272.5t-111.5 -250t-172 -203.5t-228 -138.5t-271 -50.5q-237 0 -368.5 139.5t-131.5 398.5q0 139 38 273.5t110.5 250t171 203.5t227 138.5t269.5 50.5q239 0 372 -140.5t133 -398.5zM492 512
q0 -256 170 -256q70 0 132 41.5t105 109t74 152.5t46 173t15 169q0 256 -170 256q-70 0 -132 -41.5t-105 -109t-74 -152.5t-46 -173t-15 -169z" />
    <glyph glyph-name="omacron" unicode="&#x14d;" horiz-adv-x="1169" 
d="M414 1266l41 196h610l-41 -196h-610zM1112 647q0 -130 -50 -251.5t-135.5 -213.5t-207.5 -147t-258 -55q-181 0 -289.5 99t-108.5 290q0 171 85.5 326t238 252t332.5 97q184 0 288.5 -103.5t104.5 -293.5zM442 330q0 -146 76 -146q51 0 93.5 55t68 137t39.5 167t14 153
q0 144 -76 144q-51 0 -94 -54.5t-68.5 -135.5t-39 -165.5t-13.5 -154.5z" />
    <glyph glyph-name="Obreve" unicode="&#x14e;" horiz-adv-x="1443" 
d="M1149 1911l145 18q-41 -152 -150.5 -247t-256.5 -95q-131 0 -199.5 83t-46.5 222l147 21q6 -46 50 -73.5t110 -27.5t121.5 28.5t79.5 70.5zM1423 895q0 -138 -38.5 -272.5t-111.5 -250t-172 -203.5t-228 -138.5t-271 -50.5q-237 0 -368.5 139.5t-131.5 398.5
q0 139 38 273.5t110.5 250t171 203.5t227 138.5t269.5 50.5q239 0 372 -140.5t133 -398.5zM492 512q0 -256 170 -256q70 0 132 41.5t105 109t74 152.5t46 173t15 169q0 256 -170 256q-70 0 -132 -41.5t-105 -109t-74 -152.5t-46 -173t-15 -169z" />
    <glyph glyph-name="obreve" unicode="&#x14f;" horiz-adv-x="1169" 
d="M975 1567l145 18q-45 -177 -159.5 -290t-260.5 -113q-131 0 -196 100t-37 266l147 21q0 -74 40.5 -118t105.5 -44q66 0 126.5 45.5t88.5 114.5zM1112 647q0 -130 -50 -251.5t-135.5 -213.5t-207.5 -147t-258 -55q-181 0 -289.5 99t-108.5 290q0 171 85.5 326t238 252
t332.5 97q184 0 288.5 -103.5t104.5 -293.5zM442 330q0 -146 76 -146q51 0 93.5 55t68 137t39.5 167t14 153q0 144 -76 144q-51 0 -94 -54.5t-68.5 -135.5t-39 -165.5t-13.5 -154.5z" />
    <glyph glyph-name="Ohungarumlaut" unicode="&#x150;" horiz-adv-x="1443" 
d="M981 1774l-33 -60q-234 -132 -518 -135l-6 84q247 150 428 291zM1513 1774l-32 -60q-234 -132 -518 -135l-7 84q247 150 428 291zM1423 895q0 -138 -38.5 -272.5t-111.5 -250t-172 -203.5t-228 -138.5t-271 -50.5q-237 0 -368.5 139.5t-131.5 398.5q0 139 38 273.5
t110.5 250t171 203.5t227 138.5t269.5 50.5q239 0 372 -140.5t133 -398.5zM492 512q0 -256 170 -256q70 0 132 41.5t105 109t74 152.5t46 173t15 169q0 256 -170 256q-70 0 -132 -41.5t-105 -109t-74 -152.5t-46 -173t-15 -169z" />
    <glyph glyph-name="ohungarumlaut" unicode="&#x151;" horiz-adv-x="1169" 
d="M823 1569l8 -62q-146 -202 -327 -348l-139 21q132 238 200 405zM1219 1569l8 -62q-145 -200 -328 -348l-139 21q136 244 201 405zM1112 647q0 -130 -50 -251.5t-135.5 -213.5t-207.5 -147t-258 -55q-181 0 -289.5 99t-108.5 290q0 171 85.5 326t238 252t332.5 97
q184 0 288.5 -103.5t104.5 -293.5zM442 330q0 -146 76 -146q51 0 93.5 55t68 137t39.5 167t14 153q0 144 -76 144q-51 0 -94 -54.5t-68.5 -135.5t-39 -165.5t-13.5 -154.5z" />
    <glyph glyph-name="OE" unicode="&#x152;" horiz-adv-x="1988" 
d="M1409 928q0 -56 -6 -111l459 10l-66 -260l-444 15q-63 -180 -174 -312l692 17l-62 -287h-1056q-79 -20 -170 -20q-226 0 -356 131t-130 366q0 190 67.5 366.5t179.5 306t266 207t319 77.5q88 0 162 -21h966l33 -41l-61 -246l-652 17q33 -90 33 -215zM492 508
q0 -117 41.5 -184.5t128.5 -67.5q92 0 175.5 93.5t134 249t50.5 327.5q0 231 -166 231q-95 0 -179 -90.5t-134.5 -241t-50.5 -317.5z" />
    <glyph glyph-name="oe" unicode="&#x153;" horiz-adv-x="1693" 
d="M1509 293l39 -150q-90 -78 -209 -120.5t-241 -42.5q-190 0 -297 104q-151 -104 -340 -104q-181 0 -289.5 99t-108.5 290q0 171 85.5 326t238 252t332.5 97q184 0 285 -110q157 110 352 110q158 0 252 -73t94 -195q0 -157 -165.5 -255.5t-459.5 -121.5v-2q0 -86 43.5 -134
t132.5 -48q117 0 256 78zM1305 850q-42 0 -79.5 -33t-64 -86.5t-45 -111.5t-29.5 -119q133 30 207 97t74 167q0 86 -63 86zM442 330q0 -146 76 -146q51 0 93.5 55t68 137t39.5 167t14 153q0 144 -76 144q-51 0 -94 -54.5t-68.5 -135.5t-39 -165.5t-13.5 -154.5z" />
    <glyph glyph-name="Racute" unicode="&#x154;" horiz-adv-x="1331" 
d="M1266 1767l-33 -59q-289 -126 -635 -129l-6 84q265 137 493 291zM434 0h-379l224 1047q48 218 57 366h479q253 0 381.5 -90.5t128.5 -269.5q0 -152 -86.5 -281.5t-243.5 -198.5l187 -573l-439 -23q-59 220 -96 488h-115zM741 1157h-61l-94 -446h49q143 0 221 79t78 203
q0 83 -44 123.5t-149 40.5z" />
    <glyph glyph-name="racute" unicode="&#x155;" horiz-adv-x="880" 
d="M887 1569l8 -62q-164 -195 -393 -348l-140 21q136 244 201 405zM426 0h-369q0 196 76 547l41 188l16 289l388 20q0 -116 -50 -370h7q66 196 146 283t161 87q44 0 84.5 -22t60.5 -53l-174 -340q-62 22 -119 22q-129 0 -191.5 -163t-76.5 -488z" />
    <glyph glyph-name="Rcommaaccent" unicode="&#x156;" horiz-adv-x="1331" 
d="M434 0h-379l224 1047q48 218 57 366h479q253 0 381.5 -90.5t128.5 -269.5q0 -152 -86.5 -281.5t-243.5 -198.5l187 -573l-439 -23q-59 220 -96 488h-115zM741 1157h-61l-94 -446h49q143 0 221 79t78 203q0 83 -44 123.5t-149 40.5zM246 -666q114 98 166 195
q-52 11 -78.5 53.5t-14.5 102.5q14 71 79.5 124.5t142.5 53.5q72 0 112 -51t21 -144q-13 -63 -51 -128t-91.5 -121t-100.5 -97.5t-99 -79.5z" />
    <glyph glyph-name="rcommaaccent" unicode="&#x157;" horiz-adv-x="880" 
d="M426 0h-369q0 196 76 547l41 188l16 289l388 20q0 -116 -50 -370h7q66 196 146 283t161 87q44 0 84.5 -22t60.5 -53l-174 -340q-62 22 -119 22q-129 0 -191.5 -163t-76.5 -488zM-66 -666q114 98 166 195q-52 11 -78 53.5t-14 102.5q14 71 79 124.5t142 53.5q72 0 112 -51
t21 -144q-13 -63 -51 -128t-91.5 -121t-100.5 -97.5t-99 -79.5z" />
    <glyph glyph-name="Rcaron" unicode="&#x158;" horiz-adv-x="1331" 
d="M1221 1939l77 -81q-132 -99 -303 -248l-243 -21q-96 154 -193 269l115 81q79 -29 246 -122q205 92 301 122zM434 0h-379l224 1047q48 218 57 366h479q253 0 381.5 -90.5t128.5 -269.5q0 -152 -86.5 -281.5t-243.5 -198.5l187 -573l-439 -23q-59 220 -96 488h-115z
M741 1157h-61l-94 -446h49q143 0 221 79t78 203q0 83 -44 123.5t-149 40.5z" />
    <glyph glyph-name="rcaron" unicode="&#x159;" horiz-adv-x="880" 
d="M930 1606l98 -82q-167 -171 -307 -336l-244 -21q-91 226 -160 357l136 82q19 -13 38.5 -29.5t33.5 -29.5t34.5 -34.5t30 -31.5t31.5 -35t28 -31q178 136 281 191zM426 0h-369q0 196 76 547l41 188l16 289l388 20q0 -116 -50 -370h7q66 196 146 283t161 87q44 0 84.5 -22
t60.5 -53l-174 -340q-62 22 -119 22q-129 0 -191.5 -163t-76.5 -488z" />
    <glyph glyph-name="Sacute" unicode="&#x15a;" horiz-adv-x="1144" 
d="M1174 1767l-33 -59q-289 -126 -635 -129l-6 84q265 137 493 291zM1040 449q0 -203 -181 -336t-468 -133q-120 0 -235.5 22.5t-161.5 56.5l86 310q64 -44 177 -73.5t194 -29.5q88 0 138 36.5t50 98.5q0 28 -12 54t-27.5 44.5t-45 39.5t-49.5 33t-56 32t-52 29
q-46 27 -80.5 56t-66 68t-48 90t-16.5 111q0 136 87 245t241 170t346 61q95 0 184 -14.5t142 -37.5l-109 -317q-61 38 -137 60t-147 22q-93 0 -149 -38.5t-56 -102.5q0 -29 11.5 -53.5t38.5 -47t49.5 -37.5t67 -41t68.5 -41q46 -30 79 -58t67.5 -69t52.5 -94t18 -116z" />
    <glyph glyph-name="sacute" unicode="&#x15b;" horiz-adv-x="915" 
d="M879 1569l8 -62q-164 -195 -393 -348l-140 21q136 244 201 405zM920 993l-78 -270q-67 40 -142.5 63t-130.5 23q-52 0 -85 -20.5t-33 -53.5q0 -25 20 -45.5t51.5 -37.5t70 -35t77 -42t70 -53.5t51.5 -74.5t20 -101q0 -108 -71.5 -193t-187.5 -129t-253 -44
q-96 0 -190 21.5t-144 57.5l76 265q73 -50 162 -79.5t153 -29.5q54 0 83.5 21t29.5 53q0 24 -20 45t-51.5 38t-70 35.5t-77 43t-70 54t-51.5 73.5t-20 98q0 105 73 190.5t190.5 131.5t252.5 46q162 0 295 -51z" />
    <glyph glyph-name="Scircumflex" unicode="&#x15c;" horiz-adv-x="1144" 
d="M543 1581l-78 82q132 99 303 248l244 20q97 -155 192 -268l-114 -82q-27 10 -52.5 21t-55 26.5t-45 23.5t-50.5 28t-43 24q-212 -95 -301 -123zM1040 449q0 -203 -181 -336t-468 -133q-120 0 -235.5 22.5t-161.5 56.5l86 310q64 -44 177 -73.5t194 -29.5q88 0 138 36.5
t50 98.5q0 28 -12 54t-27.5 44.5t-45 39.5t-49.5 33t-56 32t-52 29q-46 27 -80.5 56t-66 68t-48 90t-16.5 111q0 136 87 245t241 170t346 61q95 0 184 -14.5t142 -37.5l-109 -317q-61 38 -137 60t-147 22q-93 0 -149 -38.5t-56 -102.5q0 -29 11.5 -53.5t38.5 -47t49.5 -37.5
t67 -41t68.5 -41q46 -30 79 -58t67.5 -69t52.5 -94t18 -116z" />
    <glyph glyph-name="scircumflex" unicode="&#x15d;" horiz-adv-x="915" 
d="M358 1130l-98 82q167 171 307 336l244 21q91 -226 160 -357l-135 -82q-16 11 -31.5 23.5t-32 28t-28 26t-29 29.5t-25.5 27.5t-27 30t-24 26.5q-178 -136 -281 -191zM920 993l-78 -270q-67 40 -142.5 63t-130.5 23q-52 0 -85 -20.5t-33 -53.5q0 -25 20 -45.5t51.5 -37.5
t70 -35t77 -42t70 -53.5t51.5 -74.5t20 -101q0 -108 -71.5 -193t-187.5 -129t-253 -44q-96 0 -190 21.5t-144 57.5l76 265q73 -50 162 -79.5t153 -29.5q54 0 83.5 21t29.5 53q0 24 -20 45t-51.5 38t-70 35.5t-77 43t-70 54t-51.5 73.5t-20 98q0 105 73 190.5t190.5 131.5
t252.5 46q162 0 295 -51z" />
    <glyph glyph-name="Scedilla" unicode="&#x15e;" horiz-adv-x="1144" 
d="M684 -256q0 -129 -142.5 -202.5t-391.5 -73.5l36 122q109 6 174.5 40.5t65.5 82.5q0 62 -141 62l-27 61l74 146q-107 5 -202.5 26t-135.5 51l86 310q64 -44 177 -73.5t194 -29.5q88 0 138 36.5t50 98.5q0 28 -12 54t-27.5 44.5t-45 39.5t-49.5 33t-56 32t-52 29
q-46 27 -80.5 56t-66 68t-48 90t-16.5 111q0 136 87 245t241 170t346 61q95 0 184 -14.5t142 -37.5l-109 -317q-61 38 -137 60t-147 22q-93 0 -149 -38.5t-56 -102.5q0 -29 11.5 -53.5t38.5 -47t49.5 -37.5t67 -41t68.5 -41q46 -30 79 -58t67.5 -69t52.5 -94t18 -116
q0 -179 -142 -305.5t-376 -155.5l-47 -88q209 -29 209 -156z" />
    <glyph glyph-name="scedilla" unicode="&#x15f;" horiz-adv-x="915" 
d="M563 -256q0 -129 -142.5 -202.5t-391.5 -73.5l37 122q108 6 173.5 40.5t65.5 82.5q0 62 -141 62l-27 61l74 148q-171 17 -246 75l76 265q73 -50 162 -79.5t153 -29.5q54 0 83.5 21t29.5 53q0 24 -20 45t-51.5 38t-70 35.5t-77 43t-70 54t-51.5 73.5t-20 98
q0 105 73 190.5t190.5 131.5t252.5 46q162 0 295 -51l-78 -270q-67 40 -142.5 63t-130.5 23q-52 0 -85 -20.5t-33 -53.5q0 -25 20 -45.5t51.5 -37.5t70 -35t77 -42t70 -53.5t51.5 -74.5t20 -101q0 -142 -117 -239t-295 -121l-45 -86q209 -29 209 -156z" />
    <glyph glyph-name="Scaron" unicode="&#x160;" horiz-adv-x="1144" 
d="M1128 1939l78 -81q-132 -99 -303 -248l-244 -21q-99 158 -192 269l115 81q76 -28 245 -122q205 92 301 122zM1040 449q0 -203 -181 -336t-468 -133q-120 0 -235.5 22.5t-161.5 56.5l86 310q64 -44 177 -73.5t194 -29.5q88 0 138 36.5t50 98.5q0 28 -12 54t-27.5 44.5
t-45 39.5t-49.5 33t-56 32t-52 29q-46 27 -80.5 56t-66 68t-48 90t-16.5 111q0 136 87 245t241 170t346 61q95 0 184 -14.5t142 -37.5l-109 -317q-61 38 -137 60t-147 22q-93 0 -149 -38.5t-56 -102.5q0 -29 11.5 -53.5t38.5 -47t49.5 -37.5t67 -41t68.5 -41q46 -30 79 -58
t67.5 -69t52.5 -94t18 -116z" />
    <glyph glyph-name="scaron" unicode="&#x161;" horiz-adv-x="915" 
d="M922 1606l98 -82q-167 -171 -307 -336l-244 -21q-91 226 -160 357l135 82q16 -11 31.5 -23.5t32 -28t28 -26t29 -29.5t25.5 -27.5t27 -30t24 -26.5q178 136 281 191zM920 993l-78 -270q-67 40 -142.5 63t-130.5 23q-52 0 -85 -20.5t-33 -53.5q0 -25 20 -45.5t51.5 -37.5
t70 -35t77 -42t70 -53.5t51.5 -74.5t20 -101q0 -108 -71.5 -193t-187.5 -129t-253 -44q-96 0 -190 21.5t-144 57.5l76 265q73 -50 162 -79.5t153 -29.5q54 0 83.5 21t29.5 53q0 24 -20 45t-51.5 38t-70 35.5t-77 43t-70 54t-51.5 73.5t-20 98q0 105 73 190.5t190.5 131.5
t252.5 46q162 0 295 -51z" />
    <glyph glyph-name="Tcedilla" unicode="&#x162;" horiz-adv-x="1177" 
d="M670 0h-125l-53 -100q208 -29 208 -156q0 -129 -142.5 -202.5t-391.5 -73.5l37 122q108 6 173.5 40.5t65.5 82.5q0 62 -141 62l-27 61l82 164h-65l239 1135q-61 -2 -391 -17l82 295h1116l-41 -295q-323 15 -387 17z" />
    <glyph glyph-name="tcedilla" unicode="&#x163;" horiz-adv-x="819" 
d="M578 -256q0 -129 -143 -202.5t-392 -73.5l37 122q108 6 173.5 40.5t65.5 82.5q0 62 -141 62l-26 61l84 168q-152 60 -152 260q0 18 1 33.5t5 42.5t8.5 49.5t15 73.5t19.5 94t28.5 132t35.5 167l-134 4l27 123l152 41l149 268l230 17l36 -43l-57 -242h281l16 -41l-47 -143
l-287 8q-17 -78 -33.5 -157t-26 -122t-18.5 -86.5t-13 -64t-7.5 -40t-4.5 -29.5t-1 -19q0 -46 27 -70t75 -24q75 0 168 49l-27 -222q-139 -75 -290 -83l-43 -80q209 -29 209 -156z" />
    <glyph glyph-name="Tcaron" unicode="&#x164;" horiz-adv-x="1177" 
d="M1145 1939l78 -81q-132 -99 -303 -248l-244 -21q-96 154 -193 269l115 81q79 -29 246 -122q205 92 301 122zM670 0h-379l239 1135q-61 -2 -391 -17l82 295h1116l-41 -295q-323 15 -387 17z" />
    <glyph glyph-name="tcaron" unicode="&#x165;" horiz-adv-x="819" 
d="M1157 1610l8 -62q-137 -214 -338 -430h-120q108 301 170 492h280zM850 840l-287 8q-17 -78 -33.5 -157t-26 -122t-18.5 -86.5t-13 -64t-7.5 -40t-4.5 -29.5t-1 -19q0 -46 27 -70t75 -24q75 0 168 49l-27 -222q-151 -83 -321 -83q-144 0 -220.5 71.5t-76.5 212.5
q0 18 1 33.5t5 42.5t8.5 49.5t15 73.5t19.5 94t28.5 132t35.5 167l-134 4l27 123l152 41l149 268l230 17l36 -43l-57 -242h281l16 -41z" />
    <glyph glyph-name="Tbar" unicode="&#x166;" horiz-adv-x="1177" 
d="M670 0h-379l129 614h-205l39 185h207l69 336q-61 -2 -391 -17l82 295h1116l-41 -295q-323 15 -387 17l-69 -336h204l-38 -185h-207z" />
    <glyph glyph-name="tbar" unicode="&#x167;" horiz-adv-x="819" 
d="M780 508h-288q-33 -148 -33 -178q0 -46 27 -70t75 -24q75 0 168 49l-27 -222q-151 -83 -321 -83q-144 0 -220.5 71.5t-76.5 212.5q0 62 39 244h-133l39 184h133q5 23 17 78t18 86l-134 4l27 123l152 41l149 268l230 17l36 -43l-57 -242h281l16 -41l-47 -143l-287 8
q-18 -88 -33 -156h289z" />
    <glyph glyph-name="Utilde" unicode="&#x168;" horiz-adv-x="1456" 
d="M885 1931q46 0 89 -18t70.5 -40t64 -40t71.5 -18q39 0 66.5 20t68.5 68l88 -15q-27 -127 -102 -218t-181 -91q-41 0 -86.5 18.5t-78 40t-72 40t-70.5 18.5q-63 0 -131 -88l-88 14q12 59 35 111t57.5 98t86 73t112.5 27zM137 348q0 84 39 263.5t87 407t63 394.5l362 21
l33 -41q-51 -239 -116 -543q-55 -255 -67 -317t-12 -95q0 -174 172 -174q212 0 269 260q114 526 138.5 660t29.5 229l383 17l-199 -938q-26 -123 -93.5 -222t-161 -161.5t-206.5 -95.5t-235 -33q-219 0 -352.5 98.5t-133.5 269.5z" />
    <glyph glyph-name="utilde" unicode="&#x169;" horiz-adv-x="1181" 
d="M608 1561q46 0 90.5 -18.5t74 -40t67 -40t71.5 -18.5q37 0 63.5 20.5t61.5 67.5l99 -14q-31 -144 -107.5 -247.5t-183.5 -103.5q-52 0 -112.5 29.5t-114 58.5t-89.5 29q-57 0 -120 -88l-97 14q14 67 38 126.5t59.5 111.5t87 82.5t112.5 30.5zM74 307l90 428l16 289
l387 20q0 -84 -17 -191t-45 -237t-36 -180q-13 -57 -6.5 -103t43.5 -46q63 0 121.5 114t95.5 291q25 147 31 215q6 59 6 117l389 20q-5 -49 -11.5 -95.5t-11.5 -81.5t-18.5 -104.5t-21 -110t-31 -155.5t-37.5 -188q-27 -132 -27 -309h-368q0 129 14 233h-6
q-73 -130 -171.5 -191.5t-197.5 -61.5q-123 0 -171.5 89t-16.5 238z" />
    <glyph glyph-name="Umacron" unicode="&#x16a;" horiz-adv-x="1456" 
d="M672 1657l41 196h610l-41 -196h-610zM137 348q0 84 39 263.5t87 407t63 394.5l362 21l33 -41q-51 -239 -116 -543q-55 -255 -67 -317t-12 -95q0 -174 172 -174q212 0 269 260q114 526 138.5 660t29.5 229l383 17l-199 -938q-26 -123 -93.5 -222t-161 -161.5t-206.5 -95.5
t-235 -33q-219 0 -352.5 98.5t-133.5 269.5z" />
    <glyph glyph-name="umacron" unicode="&#x16b;" horiz-adv-x="1181" 
d="M379 1266l41 196h610l-41 -196h-610zM74 307l90 428l16 289l387 20q0 -84 -17 -191t-45 -237t-36 -180q-13 -57 -6.5 -103t43.5 -46q63 0 121.5 114t95.5 291q25 147 31 215q6 59 6 117l389 20q-5 -49 -11.5 -95.5t-11.5 -81.5t-18.5 -104.5t-21 -110t-31 -155.5
t-37.5 -188q-27 -132 -27 -309h-368q0 129 14 233h-6q-73 -130 -171.5 -191.5t-197.5 -61.5q-123 0 -171.5 89t-16.5 238z" />
    <glyph glyph-name="Ubreve" unicode="&#x16c;" horiz-adv-x="1456" 
d="M1182 1911l145 18q-41 -152 -150.5 -247t-256.5 -95q-131 0 -199.5 83t-46.5 222l147 21q6 -46 50 -73.5t110 -27.5t121.5 28.5t79.5 70.5zM137 348q0 84 39 263.5t87 407t63 394.5l362 21l33 -41q-51 -239 -116 -543q-55 -255 -67 -317t-12 -95q0 -174 172 -174
q212 0 269 260q114 526 138.5 660t29.5 229l383 17l-199 -938q-26 -123 -93.5 -222t-161 -161.5t-206.5 -95.5t-235 -33q-219 0 -352.5 98.5t-133.5 269.5z" />
    <glyph glyph-name="ubreve" unicode="&#x16d;" horiz-adv-x="1181" 
d="M940 1567l145 18q-45 -177 -159 -290t-260 -113q-132 0 -197 100t-37 266l148 21q0 -74 40 -118t105 -44q66 0 126.5 45.5t88.5 114.5zM74 307l90 428l16 289l387 20q0 -84 -17 -191t-45 -237t-36 -180q-13 -57 -6.5 -103t43.5 -46q63 0 121.5 114t95.5 291
q25 147 31 215q6 59 6 117l389 20q-5 -49 -11.5 -95.5t-11.5 -81.5t-18.5 -104.5t-21 -110t-31 -155.5t-37.5 -188q-27 -132 -27 -309h-368q0 129 14 233h-6q-73 -130 -171.5 -191.5t-197.5 -61.5q-123 0 -171.5 89t-16.5 238z" />
    <glyph glyph-name="Uring" unicode="&#x16e;" horiz-adv-x="1456" 
d="M1270 1839q0 -115 -104.5 -207t-233.5 -92q-93 0 -147 47t-54 119q0 110 109 202.5t241 92.5q86 0 137.5 -44t51.5 -118zM881 1735q0 -35 23 -57.5t63 -22.5q58 0 105.5 48t47.5 107q0 35 -20.5 55.5t-55.5 20.5q-62 0 -112.5 -47t-50.5 -104zM137 348q0 84 39 263.5
t87 407t63 394.5l362 21l33 -41q-51 -239 -116 -543q-55 -255 -67 -317t-12 -95q0 -174 172 -174q212 0 269 260q114 526 138.5 660t29.5 229l383 17l-199 -938q-26 -123 -93.5 -222t-161 -161.5t-206.5 -95.5t-235 -33q-219 0 -352.5 98.5t-133.5 269.5z" />
    <glyph glyph-name="uring" unicode="&#x16f;" horiz-adv-x="1181" 
d="M981 1460q0 -115 -104.5 -207t-233.5 -92q-93 0 -147 47t-54 119q0 110 109.5 202.5t241.5 92.5q86 0 137 -44t51 -118zM592 1356q0 -35 23 -57.5t63 -22.5q58 0 105.5 48.5t47.5 107.5q0 35 -20 55t-55 20q-62 0 -113 -47t-51 -104zM74 307l90 428l16 289l387 20
q0 -84 -17 -191t-45 -237t-36 -180q-13 -57 -6.5 -103t43.5 -46q63 0 121.5 114t95.5 291q25 147 31 215q6 59 6 117l389 20q-5 -49 -11.5 -95.5t-11.5 -81.5t-18.5 -104.5t-21 -110t-31 -155.5t-37.5 -188q-27 -132 -27 -309h-368q0 129 14 233h-6q-73 -130 -171.5 -191.5
t-197.5 -61.5q-123 0 -171.5 89t-16.5 238z" />
    <glyph glyph-name="Uhungarumlaut" unicode="&#x170;" horiz-adv-x="1456" 
d="M1014 1774l-33 -60q-234 -132 -518 -135l-6 84q247 150 428 291zM1546 1774l-33 -60q-234 -132 -518 -135l-6 84q247 150 428 291zM137 348q0 84 39 263.5t87 407t63 394.5l362 21l33 -41q-51 -239 -116 -543q-55 -255 -67 -317t-12 -95q0 -174 172 -174q212 0 269 260
q114 526 138.5 660t29.5 229l383 17l-199 -938q-26 -123 -93.5 -222t-161 -161.5t-206.5 -95.5t-235 -33q-219 0 -352.5 98.5t-133.5 269.5z" />
    <glyph glyph-name="uhungarumlaut" unicode="&#x171;" horiz-adv-x="1181" 
d="M788 1569l9 -62q-145 -200 -328 -348l-139 21q132 238 200 405zM1184 1569l8 -62q-145 -200 -328 -348l-139 21q136 244 201 405zM74 307l90 428l16 289l387 20q0 -84 -17 -191t-45 -237t-36 -180q-13 -57 -6.5 -103t43.5 -46q63 0 121.5 114t95.5 291q25 147 31 215
q6 59 6 117l389 20q-5 -49 -11.5 -95.5t-11.5 -81.5t-18.5 -104.5t-21 -110t-31 -155.5t-37.5 -188q-27 -132 -27 -309h-368q0 129 14 233h-6q-73 -130 -171.5 -191.5t-197.5 -61.5q-123 0 -171.5 89t-16.5 238z" />
    <glyph glyph-name="Uogonek" unicode="&#x172;" horiz-adv-x="1456" 
d="M137 348q0 84 39 263.5t87 407t63 394.5l362 21l33 -41q-51 -239 -116 -543q-55 -255 -67 -317t-12 -95q0 -174 172 -174q212 0 269 260q114 526 138.5 660t29.5 229l383 17l-199 -938q-30 -141 -109.5 -246t-197.5 -170q-316 -201 -316 -348q0 -60 72 -60q51 0 117 27
l24 -121q-71 -53 -156 -86t-165 -33q-92 0 -148.5 46.5t-56.5 123.5q0 90 74 181.5t209 175.5q-14 -2 -43 -2q-219 0 -352.5 98.5t-133.5 269.5z" />
    <glyph glyph-name="uogonek" unicode="&#x173;" horiz-adv-x="1181" 
d="M74 307l90 428l16 289l387 20q0 -84 -17 -191t-45 -237t-36 -180q-13 -57 -6.5 -103t43.5 -46q63 0 121.5 114t95.5 291q25 147 31 215q6 59 6 117l389 20q-5 -49 -11.5 -95.5t-11.5 -81.5t-18.5 -104.5t-21 -110t-31 -155.5t-37.5 -188q-27 -132 -27 -309
q-134 -57 -212.5 -130.5t-78.5 -141.5q0 -60 72 -60q51 0 117 27l24 -121q-71 -53 -156 -86t-165 -33q-92 0 -148.5 46.5t-56.5 123.5q0 105 99 206t266 169h-129q0 129 14 233h-6q-73 -130 -171.5 -191.5t-197.5 -61.5q-123 0 -171.5 89t-16.5 238z" />
    <glyph glyph-name="Wcircumflex" unicode="&#x174;" horiz-adv-x="1976" 
d="M958 1581l-77 82q132 99 303 248l243 20q94 -150 193 -268l-115 -82q-27 10 -53 21.5t-54 26t-45 23.5t-49.5 27.5t-43.5 24.5q-210 -94 -302 -123zM254 0l-55 1395l413 39l-8 -705q0 -74 -6.5 -208.5t-7.5 -158.5q50 123 141 343l305 708l369 21l-2 -705q0 -67 -1 -198
t-1 -169q65 183 135 351l301 721l299 -21l12 -39l-641 -1374h-420l-12 457q-2 79 0.5 229t1.5 215h-6q-108 -264 -194 -450l-203 -451h-420z" />
    <glyph glyph-name="wcircumflex" unicode="&#x175;" horiz-adv-x="1777" 
d="M772 1130l-98 82q167 171 307 336l244 21q94 -234 159 -357l-135 -82q-19 13 -38.5 29.5t-33.5 29.5t-34.5 34.5t-30 31.5t-31.5 35t-28 31q-178 -136 -281 -191zM1606 1044q89 0 135.5 -24t46.5 -94q0 -131 -144 -417.5t-329 -508.5h-422q38 330 53 664h-6
q-134 -358 -334 -664h-422q-6 308 -26.5 581.5t-48.5 442.5l397 20q17 -169 12.5 -391t-29.5 -428h7q102 192 176 407.5t92 391.5h453q15 -151 10 -373.5t-29 -425.5h6q97 192 168.5 412t89.5 391q70 16 144 16z" />
    <glyph glyph-name="Ycircumflex" unicode="&#x176;" horiz-adv-x="1206" 
d="M618 1581l-77 82q132 99 303 248l243 20q94 -150 193 -268l-115 -82q-27 10 -53 21.5t-54 26t-45 23.5t-49.5 27.5t-43.5 24.5q-210 -94 -302 -123zM399 442l-200 953l413 39l43 -414q18 -190 25 -311h6q144 265 166 309l215 416l299 -21l12 -39l-600 -932l-94 -442h-379
z" />
    <glyph glyph-name="ycircumflex" unicode="&#x177;" horiz-adv-x="1069" 
d="M420 1130l-98 82q167 171 307 336l243 21q91 -226 160 -357l-135 -82q-16 11 -31.5 23.5t-32 28t-28 26t-29 29.5t-25.5 27.5t-27 30t-24 26.5q-63 -48 -94.5 -71t-84.5 -58.5t-101 -61.5zM895 1044q90 0 137 -23.5t47 -92.5q0 -61 -38.5 -171.5t-107 -244.5
t-156.5 -279.5t-193.5 -281t-212 -244t-218 -174t-204.5 -65.5q-87 0 -137 52t-50 144q0 78 39 137q70 -20 158 -20q137 0 258 57t178 162h-211q-6 308 -26.5 581.5t-48.5 442.5l397 20q17 -169 12.5 -391t-29.5 -428h7q97 192 168.5 412t89.5 391q70 16 141 16z" />
    <glyph glyph-name="Ydieresis" unicode="&#x178;" horiz-adv-x="1206" 
d="M1350 1808q0 -85 -75.5 -151t-172.5 -66q-63 0 -100 33t-37 84q0 82 78.5 148.5t173.5 66.5q59 0 96 -31.5t37 -83.5zM856 1808q0 -85 -75.5 -151t-172.5 -66q-63 0 -100 33t-37 84q0 82 78.5 148.5t173.5 66.5q59 0 96 -31.5t37 -83.5zM399 442l-200 953l413 39l43 -414
q18 -190 25 -311h6q144 265 166 309l215 416l299 -21l12 -39l-600 -932l-94 -442h-379z" />
    <glyph glyph-name="Zacute" unicode="&#x179;" horiz-adv-x="1103" 
d="M1153 1767l-33 -59q-289 -126 -635 -129l-6 84q270 139 494 291zM-27 0l-10 246l797 856l-588 -17l90 328h916l45 -246l-789 -856l596 17l-90 -328h-967z" />
    <glyph glyph-name="zacute" unicode="&#x17a;" horiz-adv-x="1009" 
d="M924 1569l8 -62q-164 -195 -393 -348l-140 21q136 244 201 405zM96 -20l-114 174q362 346 602 589q-76 15 -135 15q-178 0 -271 -115l-96 62q34 100 75.5 168t89.5 104.5t97 51.5t111 15q145 0 329 -96q16 17 47 48.5t46 47.5q46 0 87.5 -27t41.5 -89q0 -85 -120.5 -212
t-479.5 -427q24 4 49 4q43 0 94.5 -11.5t77.5 -11.5q69 0 126 37t93 103l117 -74q-30 -105 -67.5 -175.5t-84.5 -109.5t-98.5 -55t-118.5 -16q-84 0 -188.5 31.5t-139.5 31.5q-79 0 -170 -63z" />
    <glyph glyph-name="Zdotaccent" unicode="&#x17b;" horiz-adv-x="1103" 
d="M1032 1817q0 -97 -85 -172.5t-193 -75.5q-71 0 -115.5 38t-44.5 97q0 91 89.5 165.5t197.5 74.5q67 0 109 -34.5t42 -92.5zM-27 0l-10 246l797 856l-588 -17l90 328h916l45 -246l-789 -856l596 17l-90 -328h-967z" />
    <glyph glyph-name="zdotaccent" unicode="&#x17c;" horiz-adv-x="1009" 
d="M887 1425q0 -103 -89 -186.5t-198 -83.5q-74 0 -118 42t-44 106q0 97 90.5 179.5t202.5 82.5q71 0 113.5 -38t42.5 -102zM96 -20l-114 174q362 346 602 589q-76 15 -135 15q-178 0 -271 -115l-96 62q34 100 75.5 168t89.5 104.5t97 51.5t111 15q145 0 329 -96
q16 17 47 48.5t46 47.5q46 0 87.5 -27t41.5 -89q0 -85 -120.5 -212t-479.5 -427q24 4 49 4q43 0 94.5 -11.5t77.5 -11.5q69 0 126 37t93 103l117 -74q-30 -105 -67.5 -175.5t-84.5 -109.5t-98.5 -55t-118.5 -16q-84 0 -188.5 31.5t-139.5 31.5q-79 0 -170 -63z" />
    <glyph glyph-name="Zcaron" unicode="&#x17d;" horiz-adv-x="1103" 
d="M1108 1939l78 -81q-132 -99 -303 -248l-244 -21q-96 154 -193 269l115 81q79 -29 246 -122q205 92 301 122zM-27 0l-10 246l797 856l-588 -17l90 328h916l45 -246l-789 -856l596 17l-90 -328h-967z" />
    <glyph glyph-name="zcaron" unicode="&#x17e;" horiz-adv-x="1009" 
d="M967 1606l98 -82q-167 -171 -307 -336l-244 -21q-91 226 -160 357l135 82q16 -11 31.5 -23.5t32 -28t28 -26t29 -29.5t25.5 -27.5t27 -30t24 -26.5q178 136 281 191zM96 -20l-114 174q362 346 602 589q-76 15 -135 15q-178 0 -271 -115l-96 62q34 100 75.5 168
t89.5 104.5t97 51.5t111 15q145 0 329 -96q16 17 47 48.5t46 47.5q46 0 87.5 -27t41.5 -89q0 -85 -120.5 -212t-479.5 -427q24 4 49 4q43 0 94.5 -11.5t77.5 -11.5q69 0 126 37t93 103l117 -74q-30 -105 -67.5 -175.5t-84.5 -109.5t-98.5 -55t-118.5 -16q-84 0 -188.5 31.5
t-139.5 31.5q-79 0 -170 -63z" />
    <glyph glyph-name="Schwa" unicode="&#x18f;" horiz-adv-x="1406" 
d="M154 786l65 52h752q-26 317 -332 317q-174 0 -358 -92l53 276q58 32 192.5 63.5t272.5 31.5q278 0 429.5 -146.5t151.5 -421.5q0 -179 -65 -342t-177 -282.5t-269 -190.5t-332 -71q-218 0 -337.5 111.5t-119.5 336.5q0 52 7 105t17.5 96t20.5 74t19.5 56.5t9.5 26.5z
M455 465q0 -116 39.5 -171.5t126.5 -55.5q132 0 224.5 115.5t119.5 295.5l-490 -37q-20 -70 -20 -147z" />
    <glyph glyph-name="florin" unicode="&#x192;" horiz-adv-x="1218" 
d="M358 600l-235 10l47 123l227 41h9l22 86q72 273 233 423.5t416 150.5q97 0 173 -19.5t118 -50.5l-164 -279q-97 82 -184 82q-29 0 -54.5 -11.5t-44 -26.5t-37 -44.5t-29 -50.5t-23.5 -59.5t-18.5 -57t-16.5 -57.5l-25 -86h344l8 -37l-61 -137h-338l-141 -506
q-56 -195 -120 -308q-180 -318 -525 -318q-109 0 -215 32l96 281q100 -47 166 -47q145 0 204 221l170 645h-2z" />
    <glyph glyph-name="Nhookleft" unicode="&#x19d;" horiz-adv-x="1495" 
d="M-76 -414l-78 127q193 216 271 574l159 760q49 235 58 366l383 14q119 -348 184 -526q72 -192 111 -397h6q12 130 23 208.5t38 205.5q64 307 84 495l342 17l33 -41l-295 -1389h-358q-43 111 -103 282.5t-84 233.5q-76 200 -116 375h-7q-12 -191 -55 -393l-45 -211
q-31 -140 -68.5 -237t-100.5 -183t-154.5 -152.5t-227.5 -128.5z" />
    <glyph glyph-name="Acaron" unicode="&#x1cd;" horiz-adv-x="1413" 
d="M1229 1939l78 -81q-132 -99 -303 -248l-244 -21q-96 154 -193 269l115 81q79 -29 246 -122q205 92 301 122zM301 0h-358l592 1188q60 117 102 225l463 19l51 -52l102 -1380h-379l-16 266h-428zM602 625l-45 -93h287l-6 91q-16 316 -9 487h-10q-90 -218 -217 -485z" />
    <glyph glyph-name="acaron" unicode="&#x1ce;" horiz-adv-x="1187" 
d="M1081 1606l99 -82q-175 -178 -308 -336l-243 -21q-91 226 -160 357l135 82q16 -11 31.5 -23.5t32 -28t28 -26t29 -29.5t25.5 -27.5t27 -30t24 -26.5q63 48 94.5 71t84.5 58.5t101 61.5zM51 299q0 102 27.5 205.5t86 201t139.5 172.5t198 120.5t252 45.5q99 0 213.5 -23
t197.5 -67l-80 -364q-88 -402 -88 -590h-368q0 112 35 317q-44 -147 -145.5 -242t-227.5 -95q-116 0 -178 83.5t-62 235.5zM430 399q0 -54 18 -83t50 -29q66 0 133.5 121.5t105.5 283.5q3 22 12.5 65.5t12.5 59.5q-44 23 -76 23q-64 0 -125 -77.5t-96 -179.5t-35 -184z" />
    <glyph glyph-name="Icaron" unicode="&#x1cf;" horiz-adv-x="688" 
d="M911 1939l78 -81q-132 -99 -303 -248l-244 -21q-99 158 -192 269l115 81q76 -28 245 -122q205 92 301 122zM436 0h-379l219 1030q50 242 60 383l362 21l33 -41z" />
    <glyph glyph-name="icaron" unicode="&#x1d0;" horiz-adv-x="616" 
d="M655 1589l121 -49q-99 -163 -192 -360l-348 -21q-12 234 -35 381l141 49q63 -79 113 -207q114 139 200 207zM426 0h-369q0 196 76 547l41 188l16 289l388 20q0 -113 -38 -305.5t-76 -396t-38 -342.5z" />
    <glyph glyph-name="Ocaron" unicode="&#x1d1;" horiz-adv-x="1443" 
d="M1260 1939l77 -81q-132 -99 -303 -248l-243 -21q-96 154 -193 269l115 81q76 -28 245 -122q203 91 302 122zM1423 895q0 -138 -38.5 -272.5t-111.5 -250t-172 -203.5t-228 -138.5t-271 -50.5q-237 0 -368.5 139.5t-131.5 398.5q0 139 38 273.5t110.5 250t171 203.5
t227 138.5t269.5 50.5q239 0 372 -140.5t133 -398.5zM492 512q0 -256 170 -256q70 0 132 41.5t105 109t74 152.5t46 173t15 169q0 256 -170 256q-70 0 -132 -41.5t-105 -109t-74 -152.5t-46 -173t-15 -169z" />
    <glyph glyph-name="ocaron" unicode="&#x1d2;" horiz-adv-x="1169" 
d="M1042 1606l99 -82q-167 -171 -307 -336l-244 -21q-91 226 -160 357l135 82q16 -11 31.5 -23.5t32 -28t28 -26t29 -29.5t25.5 -27.5t27 -30t24 -26.5q63 48 94.5 71t84.5 58.5t101 61.5zM1112 647q0 -130 -50 -251.5t-135.5 -213.5t-207.5 -147t-258 -55q-181 0 -289.5 99
t-108.5 290q0 171 85.5 326t238 252t332.5 97q184 0 288.5 -103.5t104.5 -293.5zM442 330q0 -146 76 -146q51 0 93.5 55t68 137t39.5 167t14 153q0 144 -76 144q-51 0 -94 -54.5t-68.5 -135.5t-39 -165.5t-13.5 -154.5z" />
    <glyph glyph-name="Ucaron" unicode="&#x1d3;" horiz-adv-x="1456" 
d="M1292 1939l78 -81q-132 -99 -303 -248l-244 -21q-99 158 -192 269l114 81q79 -29 246 -122q205 92 301 122zM137 348q0 84 39 263.5t87 407t63 394.5l362 21l33 -41q-51 -239 -116 -543q-55 -255 -67 -317t-12 -95q0 -174 172 -174q212 0 269 260q114 526 138.5 660
t29.5 229l383 17l-199 -938q-26 -123 -93.5 -222t-161 -161.5t-206.5 -95.5t-235 -33q-219 0 -352.5 98.5t-133.5 269.5z" />
    <glyph glyph-name="ucaron" unicode="&#x1d4;" horiz-adv-x="1181" 
d="M1008 1606l98 -82q-167 -171 -307 -336l-244 -21q-91 226 -160 357l135 82q16 -11 31.5 -23.5t32 -28t28 -26t29 -29.5t25.5 -27.5t27 -30t24 -26.5q178 136 281 191zM74 307l90 428l16 289l387 20q0 -84 -17 -191t-45 -237t-36 -180q-13 -57 -6.5 -103t43.5 -46
q63 0 121.5 114t95.5 291q25 147 31 215q6 59 6 117l389 20q-5 -49 -11.5 -95.5t-11.5 -81.5t-18.5 -104.5t-21 -110t-31 -155.5t-37.5 -188q-27 -132 -27 -309h-368q0 129 14 233h-6q-73 -130 -171.5 -191.5t-197.5 -61.5q-123 0 -171.5 89t-16.5 238z" />
    <glyph glyph-name="Udieresismacron" unicode="&#x1d5;" horiz-adv-x="1456" 
d="M776 2146l41 197h610l-41 -197h-610zM1438 1808q0 -85 -75.5 -151t-172.5 -66q-63 0 -100 33t-37 84q0 82 78.5 148.5t173.5 66.5q59 0 96 -31.5t37 -83.5zM944 1808q0 -85 -75.5 -151t-172.5 -66q-63 0 -100 33t-37 84q0 82 78.5 148.5t173.5 66.5q59 0 96 -31.5
t37 -83.5zM137 348q0 84 39 263.5t87 407t63 394.5l362 21l33 -41q-51 -239 -116 -543q-55 -255 -67 -317t-12 -95q0 -174 172 -174q212 0 269 260q114 526 138.5 660t29.5 229l383 17l-199 -938q-26 -123 -93.5 -222t-161 -161.5t-206.5 -95.5t-235 -33q-219 0 -352.5 98.5
t-133.5 269.5z" />
    <glyph glyph-name="udieresismacron" unicode="&#x1d6;" horiz-adv-x="1181" 
d="M492 1796l40 197h611l-41 -197h-610zM664 1425q0 -95 -80.5 -172t-180.5 -77q-67 0 -106 37t-39 96q0 92 84 168.5t184 76.5q63 0 100.5 -35t37.5 -94zM1153 1425q0 -95 -80 -172t-180 -77q-67 0 -106 37t-39 96q0 92 84 168.5t184 76.5q63 0 100 -35t37 -94zM74 307
l90 428l16 289l387 20q0 -84 -17 -191t-45 -237t-36 -180q-13 -57 -6.5 -103t43.5 -46q63 0 121.5 114t95.5 291q25 147 31 215q6 59 6 117l389 20q-5 -49 -11.5 -95.5t-11.5 -81.5t-18.5 -104.5t-21 -110t-31 -155.5t-37.5 -188q-27 -132 -27 -309h-368q0 129 14 233h-6
q-73 -130 -171.5 -191.5t-197.5 -61.5q-123 0 -171.5 89t-16.5 238z" />
    <glyph glyph-name="Udieresisacute" unicode="&#x1d7;" horiz-adv-x="1456" 
d="M1442 2257l-33 -59q-292 -127 -635 -130l-6 84q270 139 494 291zM1438 1808q0 -85 -75.5 -151t-172.5 -66q-63 0 -100 33t-37 84q0 82 78.5 148.5t173.5 66.5q59 0 96 -31.5t37 -83.5zM944 1808q0 -85 -75.5 -151t-172.5 -66q-63 0 -100 33t-37 84q0 82 78.5 148.5
t173.5 66.5q59 0 96 -31.5t37 -83.5zM137 348q0 84 39 263.5t87 407t63 394.5l362 21l33 -41q-51 -239 -116 -543q-55 -255 -67 -317t-12 -95q0 -174 172 -174q212 0 269 260q114 526 138.5 660t29.5 229l383 17l-199 -938q-26 -123 -93.5 -222t-161 -161.5t-206.5 -95.5
t-235 -33q-219 0 -352.5 98.5t-133.5 269.5z" />
    <glyph glyph-name="udieresisacute" unicode="&#x1d8;" horiz-adv-x="1181" 
d="M1077 2099l8 -61q-164 -195 -393 -348l-139 20q134 242 201 406zM664 1425q0 -95 -80.5 -172t-180.5 -77q-67 0 -106 37t-39 96q0 92 84 168.5t184 76.5q63 0 100.5 -35t37.5 -94zM1153 1425q0 -95 -80 -172t-180 -77q-67 0 -106 37t-39 96q0 92 84 168.5t184 76.5
q63 0 100 -35t37 -94zM74 307l90 428l16 289l387 20q0 -84 -17 -191t-45 -237t-36 -180q-13 -57 -6.5 -103t43.5 -46q63 0 121.5 114t95.5 291q25 147 31 215q6 59 6 117l389 20q-5 -49 -11.5 -95.5t-11.5 -81.5t-18.5 -104.5t-21 -110t-31 -155.5t-37.5 -188
q-27 -132 -27 -309h-368q0 129 14 233h-6q-73 -130 -171.5 -191.5t-197.5 -61.5q-123 0 -171.5 89t-16.5 238z" />
    <glyph glyph-name="Udieresiscaron" unicode="&#x1d9;" horiz-adv-x="1456" 
d="M1409 2505l98 -82q-167 -171 -307 -336l-244 -21q-94 234 -159 357l135 82q19 -13 38.5 -29.5t33.5 -29.5t34.5 -34.5t30 -31.5t31.5 -35t28 -31q178 136 281 191zM1438 1808q0 -85 -75.5 -151t-172.5 -66q-63 0 -100 33t-37 84q0 82 78.5 148.5t173.5 66.5
q59 0 96 -31.5t37 -83.5zM944 1808q0 -85 -75.5 -151t-172.5 -66q-63 0 -100 33t-37 84q0 82 78.5 148.5t173.5 66.5q59 0 96 -31.5t37 -83.5zM137 348q0 84 39 263.5t87 407t63 394.5l362 21l33 -41q-51 -239 -116 -543q-55 -255 -67 -317t-12 -95q0 -174 172 -174
q212 0 269 260q114 526 138.5 660t29.5 229l383 17l-199 -938q-26 -123 -93.5 -222t-161 -161.5t-206.5 -95.5t-235 -33q-219 0 -352.5 98.5t-133.5 269.5z" />
    <glyph glyph-name="udieresiscaron" unicode="&#x1da;" horiz-adv-x="1181" 
d="M1120 2136l99 -82q-175 -178 -308 -336l-243 -20q-89 221 -160 356l135 82q14 -10 29 -22t26 -21.5t27 -25t24 -23t25 -26t22 -23.5t23 -25.5t21 -23.5q176 134 280 190zM664 1425q0 -95 -80.5 -172t-180.5 -77q-67 0 -106 37t-39 96q0 92 84 168.5t184 76.5
q63 0 100.5 -35t37.5 -94zM1153 1425q0 -95 -80 -172t-180 -77q-67 0 -106 37t-39 96q0 92 84 168.5t184 76.5q63 0 100 -35t37 -94zM74 307l90 428l16 289l387 20q0 -84 -17 -191t-45 -237t-36 -180q-13 -57 -6.5 -103t43.5 -46q63 0 121.5 114t95.5 291q25 147 31 215
q6 59 6 117l389 20q-5 -49 -11.5 -95.5t-11.5 -81.5t-18.5 -104.5t-21 -110t-31 -155.5t-37.5 -188q-27 -132 -27 -309h-368q0 129 14 233h-6q-73 -130 -171.5 -191.5t-197.5 -61.5q-123 0 -171.5 89t-16.5 238z" />
    <glyph glyph-name="Udieresisgrave" unicode="&#x1db;" horiz-adv-x="1456" 
d="M1376 2068q-343 3 -577 130l-8 59l258 186q183 -168 370 -291zM1438 1808q0 -85 -75.5 -151t-172.5 -66q-63 0 -100 33t-37 84q0 82 78.5 148.5t173.5 66.5q59 0 96 -31.5t37 -83.5zM944 1808q0 -85 -75.5 -151t-172.5 -66q-63 0 -100 33t-37 84q0 82 78.5 148.5
t173.5 66.5q59 0 96 -31.5t37 -83.5zM137 348q0 84 39 263.5t87 407t63 394.5l362 21l33 -41q-51 -239 -116 -543q-55 -255 -67 -317t-12 -95q0 -174 172 -174q212 0 269 260q114 526 138.5 660t29.5 229l383 17l-199 -938q-26 -123 -93.5 -222t-161 -161.5t-206.5 -95.5
t-235 -33q-219 0 -352.5 98.5t-133.5 269.5z" />
    <glyph glyph-name="udieresisgrave" unicode="&#x1dc;" horiz-adv-x="1181" 
d="M868 1690q-163 154 -245 348l32 61l332 17q0 -192 29 -406zM664 1425q0 -95 -80.5 -172t-180.5 -77q-67 0 -106 37t-39 96q0 92 84 168.5t184 76.5q63 0 100.5 -35t37.5 -94zM1153 1425q0 -95 -80 -172t-180 -77q-67 0 -106 37t-39 96q0 92 84 168.5t184 76.5
q63 0 100 -35t37 -94zM74 307l90 428l16 289l387 20q0 -84 -17 -191t-45 -237t-36 -180q-13 -57 -6.5 -103t43.5 -46q63 0 121.5 114t95.5 291q25 147 31 215q6 59 6 117l389 20q-5 -49 -11.5 -95.5t-11.5 -81.5t-18.5 -104.5t-21 -110t-31 -155.5t-37.5 -188
q-27 -132 -27 -309h-368q0 129 14 233h-6q-73 -130 -171.5 -191.5t-197.5 -61.5q-123 0 -171.5 89t-16.5 238z" />
    <glyph glyph-name="Gcaron" unicode="&#x1e6;" horiz-adv-x="1368" 
d="M1300 1939l78 -81q-132 -99 -303 -248l-244 -21q-99 158 -192 269l115 81q76 -28 245 -122q205 92 301 122zM1249 682l33 -41l-129 -580q-229 -81 -467 -81q-292 0 -441 132.5t-149 387.5q0 180 73 351t196.5 299t298 206t366.5 78q107 0 209 -23t170 -59l-129 -318
q-135 103 -295 103q-110 0 -203.5 -49.5t-155 -131t-96 -183.5t-34.5 -208q0 -299 286 -299q41 0 64 2q25 122 34.5 191.5t18.5 202.5z" />
    <glyph glyph-name="gcaron" unicode="&#x1e7;" horiz-adv-x="1091" 
d="M1024 1606l98 -82q-167 -171 -307 -336l-244 -21q-94 234 -159 357l135 82q19 -13 38.5 -29.5t33.5 -29.5t34.5 -34.5t30 -31.5t31.5 -35t28 -31q178 136 281 191zM315 -532q-213 0 -340 72.5t-127 180.5q0 80 73.5 139.5t189.5 92.5l69 -64q-4 -32 -4 -49
q0 -94 56.5 -151.5t152.5 -57.5q74 0 125 33t51 82q0 24 -12.5 45t-39.5 39.5t-51 32t-64 32.5q-15 7 -23 11q-88 43 -132 80.5t-44 91.5q0 58 52.5 104.5t118 68t121.5 21.5v7q-38 0 -61 2q-146 13 -239 100t-93 235q0 82 30.5 152t83 120t121.5 86t145.5 53t156.5 17
q229 0 319.5 4t177.5 23q33 -29 33 -78q0 -21 -6 -42t-19.5 -42.5t-39 -35t-60.5 -13.5q-30 0 -60.5 10t-66.5 27t-55 23l-2 -7q75 -40 116.5 -99t41.5 -150q0 -70 -26 -130t-68 -101t-92 -75.5t-100.5 -58t-92.5 -43t-68 -37.5t-26 -35q0 -16 24.5 -33t85.5 -47
q117 -60 164 -95q119 -90 119 -204q0 -98 -83.5 -176t-223.5 -119.5t-308 -41.5zM668 733q0 137 -72 137q-66 0 -113 -98.5t-47 -202.5q0 -68 20.5 -109.5t61.5 -41.5q44 0 79.5 51t53 122t17.5 142z" />
    <glyph glyph-name="Oogonek" unicode="&#x1ea;" horiz-adv-x="1443" 
d="M1423 895q0 -256 -126 -482.5t-339 -342.5q-129 -76 -207.5 -167.5t-78.5 -168.5q0 -66 71 -66q51 0 117 27l25 -121q-71 -53 -156.5 -86t-165.5 -33q-93 0 -149 46.5t-56 129.5q0 90 68.5 181.5t189.5 167.5h-14q-237 0 -368.5 139.5t-131.5 398.5q0 139 38 273.5
t110.5 250t171 203.5t227 138.5t269.5 50.5q239 0 372 -140.5t133 -398.5zM492 512q0 -256 170 -256q70 0 132 41.5t105 109t74 152.5t46 173t15 169q0 256 -170 256q-70 0 -132 -41.5t-105 -109t-74 -152.5t-46 -173t-15 -169z" />
    <glyph glyph-name="oogonek" unicode="&#x1eb;" horiz-adv-x="1169" 
d="M1112 647q0 -173 -85.5 -326t-229.5 -245q-157 -117 -229 -199t-72 -149q0 -60 71 -60q51 0 117 27l25 -121q-71 -53 -156.5 -86t-165.5 -33q-93 0 -149 46t-56 128q0 177 279 351q-181 0 -289.5 99t-108.5 290q0 171 85.5 326t238 252t332.5 97q184 0 288.5 -103.5
t104.5 -293.5zM442 330q0 -146 76 -146q51 0 93.5 55t68 137t39.5 167t14 153q0 144 -76 144q-51 0 -94 -54.5t-68.5 -135.5t-39 -165.5t-13.5 -154.5z" />
    <glyph glyph-name="Gacute" unicode="&#x1f4;" horiz-adv-x="1368" 
d="M1346 1767l-33 -59q-289 -126 -635 -129l-6 84q265 137 493 291zM1249 682l33 -41l-129 -580q-229 -81 -467 -81q-292 0 -441 132.5t-149 387.5q0 180 73 351t196.5 299t298 206t366.5 78q107 0 209 -23t170 -59l-129 -318q-135 103 -295 103q-110 0 -203.5 -49.5
t-155 -131t-96 -183.5t-34.5 -208q0 -299 286 -299q41 0 64 2q25 122 34.5 191.5t18.5 202.5z" />
    <glyph glyph-name="gacute" unicode="&#x1f5;" horiz-adv-x="1091" 
d="M981 1569l8 -62q-164 -195 -393 -348l-139 21q132 238 200 405zM315 -532q-213 0 -340 72.5t-127 180.5q0 80 73.5 139.5t189.5 92.5l69 -64q-4 -32 -4 -49q0 -94 56.5 -151.5t152.5 -57.5q74 0 125 33t51 82q0 24 -12.5 45t-39.5 39.5t-51 32t-64 32.5q-15 7 -23 11
q-88 43 -132 80.5t-44 91.5q0 58 52.5 104.5t118 68t121.5 21.5v7q-38 0 -61 2q-146 13 -239 100t-93 235q0 82 30.5 152t83 120t121.5 86t145.5 53t156.5 17q229 0 319.5 4t177.5 23q33 -29 33 -78q0 -21 -6 -42t-19.5 -42.5t-39 -35t-60.5 -13.5q-30 0 -60.5 10t-66.5 27
t-55 23l-2 -7q75 -40 116.5 -99t41.5 -150q0 -70 -26 -130t-68 -101t-92 -75.5t-100.5 -58t-92.5 -43t-68 -37.5t-26 -35q0 -16 24.5 -33t85.5 -47q117 -60 164 -95q119 -90 119 -204q0 -98 -83.5 -176t-223.5 -119.5t-308 -41.5zM668 733q0 137 -72 137q-66 0 -113 -98.5
t-47 -202.5q0 -68 20.5 -109.5t61.5 -41.5q44 0 79.5 51t53 122t17.5 142z" />
    <glyph glyph-name="Aringacute" unicode="&#x1fa;" horiz-adv-x="1413" 
d="M1393 2335l-33 -60q-289 -126 -635 -129l-6 84q265 137 493 291zM1206 1839q0 -115 -104.5 -207t-233.5 -92q-93 0 -146.5 46.5t-53.5 119.5q0 110 109 202.5t241 92.5q86 0 137 -44t51 -118zM817 1735q0 -35 23 -57.5t63 -22.5q58 0 106 48t48 107q0 35 -20.5 55.5
t-55.5 20.5q-62 0 -113 -47t-51 -104zM301 0h-358l592 1188q60 117 102 225l463 19l51 -52l102 -1380h-379l-16 266h-428zM602 625l-45 -93h287l-6 91q-16 316 -9 487h-10q-90 -218 -217 -485z" />
    <glyph glyph-name="aringacute" unicode="&#x1fb;" horiz-adv-x="1187" 
d="M1165 2167l9 -62q-163 -194 -394 -348l-139 21q136 244 201 405zM1055 1460q0 -115 -104.5 -207t-233.5 -92q-93 0 -147 47t-54 119q0 110 109 202.5t241 92.5q86 0 137.5 -44t51.5 -118zM666 1356q0 -35 23 -57.5t63 -22.5q58 0 105.5 48.5t47.5 107.5q0 35 -20.5 55
t-55.5 20q-62 0 -112.5 -47t-50.5 -104zM51 299q0 102 27.5 205.5t86 201t139.5 172.5t198 120.5t252 45.5q99 0 213.5 -23t197.5 -67l-80 -364q-88 -402 -88 -590h-368q0 112 35 317q-44 -147 -145.5 -242t-227.5 -95q-116 0 -178 83.5t-62 235.5zM430 399q0 -54 18 -83
t50 -29q66 0 133.5 121.5t105.5 283.5q3 22 12.5 65.5t12.5 59.5q-44 23 -76 23q-64 0 -125 -77.5t-96 -179.5t-35 -184z" />
    <glyph glyph-name="AEacute" unicode="&#x1fc;" horiz-adv-x="1923" 
d="M1655 1767l-33 -59q-289 -126 -635 -129l-6 84q270 139 494 291zM301 0h-358l780 1188q84 126 139 225h1047l30 -41l-59 -246l-541 19l-39 -328l455 10l-65 -260l-418 13l-37 -314l569 21l-61 -287h-920l41 266h-393zM700 625l-59 -93h262l15 91q16 103 32.5 197.5
t34 187t19.5 102.5h-11q-90 -167 -293 -485z" />
    <glyph glyph-name="aeacute" unicode="&#x1fd;" horiz-adv-x="1671" 
d="M1282 1569l8 -62q-164 -195 -393 -348l-139 21q132 238 200 405zM55 322q0 85 20 170.5t58 166.5t98 151t135.5 122t175.5 82t212 30q173 0 329 -53q115 53 250 53q158 0 252 -73t94 -195q0 -157 -165 -255.5t-459 -121.5v-2q0 -86 43.5 -134t132.5 -48q117 0 256 78
l39 -150q-90 -77 -209.5 -120t-241.5 -43q-177 0 -284.5 93t-114.5 273q-37 -150 -143 -258t-234 -108q-116 0 -180 92.5t-64 249.5zM1282 850q-55 0 -102 -58.5t-73.5 -133t-41.5 -158.5q133 30 207 97t74 167q0 86 -64 86zM434 399q0 -54 18 -83t50 -29q53 0 110 82
t97 204q38 112 110 209q-74 58 -129 58q-64 0 -125 -77.5t-96 -179.5t-35 -184z" />
    <glyph glyph-name="Oslashacute" unicode="&#x1fe;" horiz-adv-x="1443" 
d="M1305 1767l-33 -59q-289 -126 -635 -129l-6 84q265 137 493 291zM1423 895q0 -138 -38.5 -272.5t-111.5 -250t-172 -203.5t-228 -138.5t-271 -50.5q-246 0 -375 147l-172 -158l-108 115l196 182q-41 109 -41 252q0 139 38 273.5t110.5 250t171 203.5t227 138.5
t269.5 50.5q224 0 356 -123l143 133l111 -113l-162 -149q57 -120 57 -287zM864 1157q-79 0 -146.5 -51.5t-112 -135.5t-72.5 -181t-37 -197l512 473q-42 92 -144 92zM662 256q84 0 155.5 59t116.5 151.5t71 198.5t29 209l-528 -489q31 -129 156 -129z" />
    <glyph glyph-name="oslashacute" unicode="&#x1ff;" horiz-adv-x="1169" 
d="M999 1569l9 -62q-163 -194 -394 -348l-139 21q136 244 201 405zM1112 647q0 -130 -50 -251.5t-135.5 -213.5t-207.5 -147t-258 -55q-169 0 -275 86l-141 -125l-96 114l149 129q-35 78 -35 185q0 171 85.5 326t238 252t332.5 97q166 0 266 -83l141 122l99 -112l-150 -131
q37 -78 37 -193zM657 840q-50 0 -92 -52.5t-66.5 -125.5t-39.5 -162l272 239q-9 101 -74 101zM518 184q49 0 91 53t67 127t41 164l-273 -239q9 -105 74 -105z" />
    <glyph glyph-name="Scommaaccent" unicode="&#x218;" horiz-adv-x="1144" 
d="M1040 449q0 -203 -181 -336t-468 -133q-120 0 -235.5 22.5t-161.5 56.5l86 310q64 -44 177 -73.5t194 -29.5q88 0 138 36.5t50 98.5q0 28 -12 54t-27.5 44.5t-45 39.5t-49.5 33t-56 32t-52 29q-46 27 -80.5 56t-66 68t-48 90t-16.5 111q0 136 87 245t241 170t346 61
q95 0 184 -14.5t142 -37.5l-109 -317q-61 38 -137 60t-147 22q-93 0 -149 -38.5t-56 -102.5q0 -29 11.5 -53.5t38.5 -47t49.5 -37.5t67 -41t68.5 -41q46 -30 79 -58t67.5 -69t52.5 -94t18 -116zM154 -666q112 97 165 195q-52 11 -78 53.5t-14 102.5q14 71 79.5 124.5
t142.5 53.5q72 0 112 -51t21 -144q-13 -63 -51 -128t-91.5 -121t-100.5 -97.5t-99 -79.5z" />
    <glyph glyph-name="scommaaccent" unicode="&#x219;" horiz-adv-x="915" 
d="M920 993l-78 -270q-67 40 -142.5 63t-130.5 23q-52 0 -85 -20.5t-33 -53.5q0 -25 20 -45.5t51.5 -37.5t70 -35t77 -42t70 -53.5t51.5 -74.5t20 -101q0 -108 -71.5 -193t-187.5 -129t-253 -44q-96 0 -190 21.5t-144 57.5l76 265q73 -50 162 -79.5t153 -29.5q54 0 83.5 21
t29.5 53q0 24 -20 45t-51.5 38t-70 35.5t-77 43t-70 54t-51.5 73.5t-20 98q0 105 73 190.5t190.5 131.5t252.5 46q162 0 295 -51zM33 -666q114 98 166 195q-52 11 -78.5 53.5t-14.5 102.5q14 71 79.5 124.5t142.5 53.5q72 0 112 -51t21 -144q-13 -63 -51 -128t-91.5 -121
t-100.5 -97.5t-99 -79.5z" />
    <glyph glyph-name="Tcommaaccent" unicode="&#x21a;" horiz-adv-x="1177" 
d="M670 0h-379l239 1135q-61 -2 -391 -17l82 295h1116l-41 -295q-323 15 -387 17zM170 -666q114 98 166 195q-52 11 -78 53.5t-14 102.5q14 71 79 124.5t142 53.5q72 0 112 -51t21 -144q-13 -63 -51 -128t-91.5 -121t-100.5 -97.5t-99 -79.5z" />
    <glyph glyph-name="tcommaaccent" unicode="&#x21b;" horiz-adv-x="819" 
d="M850 840l-287 8q-17 -78 -33.5 -157t-26 -122t-18.5 -86.5t-13 -64t-7.5 -40t-4.5 -29.5t-1 -19q0 -46 27 -70t75 -24q75 0 168 49l-27 -222q-151 -83 -321 -83q-144 0 -220.5 71.5t-76.5 212.5q0 18 1 33.5t5 42.5t8.5 49.5t15 73.5t19.5 94t28.5 132t35.5 167l-134 4
l27 123l152 41l149 268l230 17l36 -43l-57 -242h281l16 -41zM47 -666q114 98 166 195q-52 11 -78 53.5t-14 102.5q14 71 79 124.5t142 53.5q72 0 112 -51t21 -144q-13 -63 -51 -128t-91.5 -121t-100.5 -97.5t-99 -79.5z" />
    <glyph glyph-name="Ymacron" unicode="&#x232;" horiz-adv-x="1206" 
d="M584 1657l41 196h610l-41 -196h-610zM399 442l-200 953l413 39l43 -414q18 -190 25 -311h6q144 265 166 309l215 416l299 -21l12 -39l-600 -932l-94 -442h-379z" />
    <glyph glyph-name="ymacron" unicode="&#x233;" horiz-adv-x="1069" 
d="M354 1266l41 196h611l-41 -196h-611zM895 1044q90 0 137 -23.5t47 -92.5q0 -61 -38.5 -171.5t-107 -244.5t-156.5 -279.5t-193.5 -281t-212 -244t-218 -174t-204.5 -65.5q-87 0 -137 52t-50 144q0 78 39 137q70 -20 158 -20q137 0 258 57t178 162h-211
q-6 308 -26.5 581.5t-48.5 442.5l397 20q17 -169 12.5 -391t-29.5 -428h7q97 192 168.5 412t89.5 391q70 16 141 16z" />
    <glyph glyph-name="dotlessj" unicode="&#x237;" horiz-adv-x="589" 
d="M-63 -532l-117 122q81 124 127 241t78 271l133 633l16 289l387 20q0 -49 -8 -117t-28 -176t-30.5 -163.5t-41.5 -200.5t-35 -166q-25 -120 -50.5 -206.5t-63 -171t-86.5 -147.5t-118.5 -121t-162.5 -107z" />
    <glyph glyph-name="schwa" unicode="&#x259;" horiz-adv-x="1050" 
d="M170 731l20 238q73 33 171.5 54t195.5 21q198 0 316 -97.5t118 -282.5q0 -129 -60 -255t-155.5 -219.5t-222 -151.5t-252.5 -58q-137 0 -225 65t-88 182q0 75 38.5 143t113 124.5t196.5 92t276 40.5q0 86 -43.5 134t-132.5 48q-120 0 -266 -78zM322 260q0 -86 63 -86
q55 0 102 58.5t73.5 133t41.5 158.5q-133 -30 -206.5 -97t-73.5 -167z" />
    <glyph glyph-name="nhookleft" unicode="&#x272;" horiz-adv-x="1288" 
d="M6 -512l-117 123q82 127 127 241t78 271l129 612l17 289l387 20q0 -56 -21 -253h6q77 130 177.5 191.5t201.5 61.5q121 0 172 -88t19 -239l-86 -408q-27 -126 -27 -309h-369q0 108 18 223.5t68 364.5q30 149 -38 149q-70 0 -139 -132t-105 -326q-6 -33 -6 -37
q-49 -293 -155.5 -463.5t-336.5 -290.5z" />
    <glyph glyph-name="circumflex" unicode="&#x2c6;" horiz-adv-x="894" 
d="M340 1133l-98 81q167 171 307 336l244 21q94 -234 159 -357l-135 -81q-19 13 -39 30t-32.5 28t-35.5 35.5t-28.5 30t-32.5 35.5t-28 31q-174 -132 -281 -190z" />
    <glyph glyph-name="caron" unicode="&#x2c7;" horiz-adv-x="894" 
d="M918 1595l98 -82q-174 -177 -307 -335l-244 -21q-89 221 -160 356l135 82q14 -10 29 -22t26 -21.5t27 -25t24 -23t25 -26t22 -23.5t23 -25.5t21 -23.5q174 132 281 190z" />
    <glyph glyph-name="breve" unicode="&#x2d8;" horiz-adv-x="831" 
d="M821 1567l146 18q-45 -177 -159.5 -290t-260.5 -113q-132 0 -197 100t-37 266l148 21q0 -74 40 -118t105 -44q66 0 126.5 45.5t88.5 114.5z" />
    <glyph glyph-name="dotaccent" unicode="&#x2d9;" horiz-adv-x="614" 
d="M713 1430q0 -103 -89 -187t-198 -84q-74 0 -118 42t-44 106q0 97 90.5 179.5t202.5 82.5q71 0 113.5 -37.5t42.5 -101.5z" />
    <glyph glyph-name="ring" unicode="&#x2da;" horiz-adv-x="704" 
d="M803 1434q0 -115 -104.5 -207t-233.5 -92q-93 0 -147 46.5t-54 118.5q0 110 109 202.5t241 92.5q86 0 137.5 -44t51.5 -117zM414 1329q0 -35 23 -57.5t63 -22.5q58 0 105.5 48.5t47.5 107.5q0 35 -20 55.5t-55 20.5q-62 0 -113 -47.5t-51 -104.5z" />
    <glyph glyph-name="ogonek" unicode="&#x2db;" horiz-adv-x="745" 
d="M522 0q-134 -57 -212.5 -130.5t-78.5 -141.5q0 -60 72 -60q51 0 117 27l24 -121q-71 -53 -156 -86t-165 -33q-92 0 -148.5 46.5t-56.5 123.5q0 119 123.5 230t325.5 176z" />
    <glyph glyph-name="tilde" unicode="&#x2dc;" horiz-adv-x="874" 
d="M532 1561q46 0 91 -18.5t74.5 -40t67 -40t71.5 -18.5q37 0 63.5 20.5t61.5 67.5l98 -14q-31 -144 -107.5 -247.5t-183.5 -103.5q-52 0 -112.5 29.5t-113.5 58.5t-89 29q-58 0 -121 -88l-96 14q14 67 37.5 126.5t59 111.5t87 82.5t112.5 30.5z" />
    <glyph glyph-name="hungarumlaut" unicode="&#x2dd;" horiz-adv-x="907" 
d="M690 1569l8 -62q-146 -202 -327 -348l-140 21q136 244 201 405zM1085 1569l9 -62q-145 -200 -328 -348l-139 21q132 238 200 405z" />
    <glyph glyph-name="Delta" unicode="&#x394;" horiz-adv-x="1413" 
d="M688 1413h430l144 -1372l-13 -41h-1302l4 41zM408 274h423l-51 746z" />
    <glyph glyph-name="Omega" unicode="&#x3a9;" horiz-adv-x="1689" 
d="M610 0h-598l4 256l50 41l413 -119q-114 70 -178.5 202t-64.5 292q0 125 41 242t115.5 210.5t173.5 163.5t221 108t251 38t231.5 -38.5t167 -106t98.5 -156t34 -191.5q0 -226 -144 -438.5t-348 -321.5l453 115l33 -41l-107 -256h-598l-8 158q140 148 230.5 358.5
t90.5 388.5q0 252 -194 252q-164 0 -267.5 -168t-103.5 -438q0 -86 13 -164.5t27 -122.5t38 -106z" />
    <glyph glyph-name="mu" unicode="&#x3bc;" horiz-adv-x="1181" 
d="M623 0q0 129 14 233h-6q-68 -121 -158.5 -183t-183.5 -68q23 -64 26 -144t-4 -175t-6 -136l-366 -19q0 106 26.5 267t97.5 491l101 469l16 289l387 20q0 -84 -17 -191t-45 -237t-36 -180q-13 -57 -6.5 -103t43.5 -46q63 0 121.5 114t95.5 291q25 147 31 215q6 59 6 117
l389 20q-14 -140 -37 -266t-94 -469q-27 -132 -27 -309h-368z" />
    <glyph glyph-name="pi" unicode="&#x3c0;" horiz-adv-x="1302" 
d="M43 758l104 266l1227 20l12 -40l-116 -226l-109 -2q-82 -339 -82 -434q0 -55 47 -55q35 0 80 20l-86 -307q-85 -20 -186 -20q-246 0 -246 227q0 33 4 71.5t16.5 103.5t20 100.5t30.5 140.5t32 147l-201 -4q-43 -195 -63.5 -293t-42 -240t-21.5 -233h-369q0 116 27 283
t94 477z" />
    <glyph glyph-name="Ddotbelow" unicode="&#x1e0c;" horiz-adv-x="1482" 
d="M1458 874q0 -138 -37 -266t-112.5 -239t-182.5 -193t-256.5 -129t-324.5 -47h-488l222 1047q51 234 57 366h549q573 0 573 -539zM791 1147h-113l-184 -881h139q90 0 164 35t122.5 92t81.5 132.5t47.5 152.5t14.5 156q0 65 -11 116t-27 83t-42.5 55.5t-47.5 34.5t-53 17
t-48 6.5t-43 0.5zM778 -268q0 -103 -88.5 -187t-197.5 -84q-74 0 -118 42t-44 106q0 97 90.5 179.5t202.5 82.5q71 0 113 -37.5t42 -101.5z" />
    <glyph glyph-name="ddotbelow" unicode="&#x1e0d;" horiz-adv-x="1187" 
d="M997 0h-368q0 129 30 305q-46 -142 -145.5 -233.5t-222.5 -91.5q-116 0 -178 83t-62 234q0 102 28 206.5t86 201.5t138.5 172.5t193.5 121t242 45.5q24 0 70 -4l45 207l16 289l387 20q0 -128 -40.5 -349.5t-89.5 -424t-89.5 -426.5t-40.5 -356zM430 399q0 -54 18 -83
t50 -29q63 0 127.5 111.5t103.5 267.5q20 86 25 112l8 39q-44 23 -76 23q-64 0 -125 -77.5t-96 -179.5t-35 -184zM692 -268q0 -103 -88.5 -187t-197.5 -84q-74 0 -118 42t-44 106q0 97 90.5 179.5t202.5 82.5q71 0 113 -37.5t42 -101.5z" />
    <glyph glyph-name="Hdotbelow" unicode="&#x1e24;" horiz-adv-x="1507" 
d="M436 0h-379l219 1030q50 242 60 383l362 21l33 -41l-119 -559h443l41 196q48 235 59 383l363 21l32 -41l-295 -1393h-378l120 567h-440zM799 -268q0 -103 -89 -187t-198 -84q-74 0 -118 42t-44 106q0 97 90.5 179.5t202.5 82.5q71 0 113.5 -37.5t42.5 -101.5z" />
    <glyph glyph-name="hdotbelow" unicode="&#x1e25;" horiz-adv-x="1210" 
d="M426 0h-369q0 111 26.5 276.5t98.5 501.5l101 469l16 289l387 20q0 -95 -20.5 -233t-43.5 -246t-65 -286h6q77 127 180 190t203 63q95 0 147 -56t52 -159q0 -49 -16 -132t-82 -388q-27 -126 -27 -309h-369q0 31 1.5 62.5t5 67t6.5 61.5t9.5 65.5t9.5 58.5t11 61
t10.5 52.5t11.5 53t9 44.5q23 115 23 140q0 71 -50 71q-64 0 -126.5 -108.5t-102.5 -280t-43 -348.5zM651 -268q0 -103 -88.5 -187t-197.5 -84q-74 0 -118 42t-44 106q0 97 90.5 179.5t202.5 82.5q71 0 113 -37.5t42 -101.5z" />
    <glyph glyph-name="Ndotaccent" unicode="&#x1e44;" horiz-adv-x="1497" 
d="M1214 1817q0 -97 -85 -172.5t-193 -75.5q-71 0 -115.5 38t-44.5 97q0 91 89.5 165.5t197.5 74.5q67 0 109 -34.5t42 -92.5zM903 903q69 -201 109 -426h6q18 222 63 436q61 285 84 500l342 17l33 -41l-295 -1389h-358q-44 113 -104 285.5t-83 232.5q-73 203 -116 402h-6
q-9 -196 -58 -422l-104 -498h-359l222 1047q46 208 57 366l383 14q124 -364 184 -524z" />
    <glyph glyph-name="ndotaccent" unicode="&#x1e45;" horiz-adv-x="1210" 
d="M969 1425q0 -103 -89 -186.5t-198 -83.5q-74 0 -118 42t-44 106q0 97 90.5 179.5t202.5 82.5q71 0 113.5 -38t42.5 -102zM426 0h-369q0 119 26 284t91 451l16 289l388 20q0 -56 -21 -253h6q77 130 177.5 191.5t201.5 61.5q96 0 149.5 -54.5t53.5 -145.5q0 -19 -2 -41.5
t-6.5 -52t-8.5 -53.5t-12.5 -64t-13.5 -63.5t-15.5 -72t-15.5 -71.5q-30 -140 -40.5 -227.5t-10.5 -198.5h-369q0 99 12 185.5t42 238.5q43 212 43 246q0 67 -50 67q-64 0 -126.5 -108.5t-102.5 -280t-43 -348.5z" />
    <glyph glyph-name="Rdotbelow" unicode="&#x1e5a;" horiz-adv-x="1331" 
d="M434 0h-379l224 1047q48 218 57 366h479q253 0 381.5 -90.5t128.5 -269.5q0 -152 -86.5 -281.5t-243.5 -198.5l187 -573l-439 -23q-59 220 -96 488h-115zM741 1157h-61l-94 -446h49q143 0 221 79t78 203q0 83 -44 123.5t-149 40.5zM711 -268q0 -103 -89 -187t-198 -84
q-74 0 -118 42t-44 106q0 97 90.5 179.5t202.5 82.5q71 0 113.5 -37.5t42.5 -101.5z" />
    <glyph glyph-name="rdotbelow" unicode="&#x1e5b;" horiz-adv-x="880" 
d="M426 0h-369q0 196 76 547l41 188l16 289l388 20q0 -116 -50 -370h7q66 196 146 283t161 87q44 0 84.5 -22t60.5 -53l-174 -340q-62 22 -119 22q-129 0 -191.5 -163t-76.5 -488zM399 -268q0 -103 -88.5 -187t-197.5 -84q-74 0 -118 42t-44 106q0 97 90.5 179.5t202.5 82.5
q71 0 113 -37.5t42 -101.5z" />
    <glyph glyph-name="Sdotbelow" unicode="&#x1e62;" horiz-adv-x="1144" 
d="M1040 449q0 -203 -181 -336t-468 -133q-120 0 -235.5 22.5t-161.5 56.5l86 310q64 -44 177 -73.5t194 -29.5q88 0 138 36.5t50 98.5q0 28 -12 54t-27.5 44.5t-45 39.5t-49.5 33t-56 32t-52 29q-46 27 -80.5 56t-66 68t-48 90t-16.5 111q0 136 87 245t241 170t346 61
q95 0 184 -14.5t142 -37.5l-109 -317q-61 38 -137 60t-147 22q-93 0 -149 -38.5t-56 -102.5q0 -29 11.5 -53.5t38.5 -47t49.5 -37.5t67 -41t68.5 -41q46 -30 79 -58t67.5 -69t52.5 -94t18 -116zM618 -268q0 -103 -88.5 -187t-197.5 -84q-74 0 -118 42t-44 106
q0 97 90.5 179.5t202.5 82.5q71 0 113 -37.5t42 -101.5z" />
    <glyph glyph-name="sdotbelow" unicode="&#x1e63;" horiz-adv-x="915" 
d="M920 993l-78 -270q-67 40 -142.5 63t-130.5 23q-52 0 -85 -20.5t-33 -53.5q0 -25 20 -45.5t51.5 -37.5t70 -35t77 -42t70 -53.5t51.5 -74.5t20 -101q0 -108 -71.5 -193t-187.5 -129t-253 -44q-96 0 -190 21.5t-144 57.5l76 265q73 -50 162 -79.5t153 -29.5q54 0 83.5 21
t29.5 53q0 24 -20 45t-51.5 38t-70 35.5t-77 43t-70 54t-51.5 73.5t-20 98q0 105 73 190.5t190.5 131.5t252.5 46q162 0 295 -51zM498 -268q0 -103 -89 -187t-198 -84q-74 0 -118 42t-44 106q0 97 90.5 179.5t202.5 82.5q71 0 113.5 -37.5t42.5 -101.5z" />
    <glyph glyph-name="Tdotbelow" unicode="&#x1e6c;" horiz-adv-x="1177" 
d="M670 0h-379l239 1135q-61 -2 -391 -17l82 295h1116l-41 -295q-323 15 -387 17zM635 -268q0 -103 -89 -187t-198 -84q-74 0 -118 42t-44 106q0 97 90.5 179.5t202.5 82.5q71 0 113.5 -37.5t42.5 -101.5z" />
    <glyph glyph-name="tdotbelow" unicode="&#x1e6d;" horiz-adv-x="819" 
d="M850 840l-287 8q-17 -78 -33.5 -157t-26 -122t-18.5 -86.5t-13 -64t-7.5 -40t-4.5 -29.5t-1 -19q0 -46 27 -70t75 -24q75 0 168 49l-27 -222q-151 -83 -321 -83q-144 0 -220.5 71.5t-76.5 212.5q0 18 1 33.5t5 42.5t8.5 49.5t15 73.5t19.5 94t28.5 132t35.5 167l-134 4
l27 123l152 41l149 268l230 17l36 -43l-57 -242h281l16 -41zM512 -268q0 -103 -89 -187t-198 -84q-74 0 -118 42t-44 106q0 97 90.5 179.5t202.5 82.5q71 0 113.5 -37.5t42.5 -101.5z" />
    <glyph glyph-name="Wgrave" unicode="&#x1e80;" horiz-adv-x="1976" 
d="M1524 1579q-346 3 -578 129l-8 59l258 187q181 -166 371 -291zM254 0l-55 1395l413 39l-8 -705q0 -74 -6.5 -208.5t-7.5 -158.5q50 123 141 343l305 708l369 21l-2 -705q0 -67 -1 -198t-1 -169q65 183 135 351l301 721l299 -21l12 -39l-641 -1374h-420l-12 457
q-2 79 0.5 229t1.5 215h-6q-108 -264 -194 -450l-203 -451h-420z" />
    <glyph glyph-name="wgrave" unicode="&#x1e81;" horiz-adv-x="1777" 
d="M1083 1159q-163 154 -245 348l32 62l332 16q0 -191 29 -405zM1606 1044q89 0 135.5 -24t46.5 -94q0 -131 -144 -417.5t-329 -508.5h-422q38 330 53 664h-6q-134 -358 -334 -664h-422q-6 308 -26.5 581.5t-48.5 442.5l397 20q17 -169 12.5 -391t-29.5 -428h7
q102 192 176 407.5t92 391.5h453q15 -151 10 -373.5t-29 -425.5h6q97 192 168.5 412t89.5 391q70 16 144 16z" />
    <glyph glyph-name="Wacute" unicode="&#x1e82;" horiz-adv-x="1976" 
d="M1589 1767l-33 -59q-289 -126 -634 -129l-7 84q270 139 494 291zM254 0l-55 1395l413 39l-8 -705q0 -74 -6.5 -208.5t-7.5 -158.5q50 123 141 343l305 708l369 21l-2 -705q0 -67 -1 -198t-1 -169q65 183 135 351l301 721l299 -21l12 -39l-641 -1374h-420l-12 457
q-2 79 0.5 229t1.5 215h-6q-108 -264 -194 -450l-203 -451h-420z" />
    <glyph glyph-name="wacute" unicode="&#x1e83;" horiz-adv-x="1777" 
d="M1292 1569l8 -62q-164 -195 -393 -348l-139 21q136 244 201 405zM1606 1044q89 0 135.5 -24t46.5 -94q0 -131 -144 -417.5t-329 -508.5h-422q38 330 53 664h-6q-134 -358 -334 -664h-422q-6 308 -26.5 581.5t-48.5 442.5l397 20q17 -169 12.5 -391t-29.5 -428h7
q102 192 176 407.5t92 391.5h453q15 -151 10 -373.5t-29 -425.5h6q97 192 168.5 412t89.5 391q70 16 144 16z" />
    <glyph glyph-name="Wdieresis" unicode="&#x1e84;" horiz-adv-x="1976" 
d="M1690 1808q0 -85 -75.5 -151t-172.5 -66q-63 0 -100 33t-37 84q0 82 78 148.5t173 66.5q59 0 96.5 -31.5t37.5 -83.5zM1196 1808q0 -85 -75.5 -151t-172.5 -66q-63 0 -100 33t-37 84q0 82 78.5 148.5t173.5 66.5q59 0 96 -31.5t37 -83.5zM254 0l-55 1395l413 39l-8 -705
q0 -74 -6.5 -208.5t-7.5 -158.5q50 123 141 343l305 708l369 21l-2 -705q0 -67 -1 -198t-1 -169q65 183 135 351l301 721l299 -21l12 -39l-641 -1374h-420l-12 457q-2 79 0.5 229t1.5 215h-6q-108 -264 -194 -450l-203 -451h-420z" />
    <glyph glyph-name="wdieresis" unicode="&#x1e85;" horiz-adv-x="1777" 
d="M991 1425q0 -95 -80 -172t-180 -77q-67 0 -106 37t-39 96q0 92 84 168.5t184 76.5q63 0 100 -35t37 -94zM1481 1425q0 -95 -80 -172t-180 -77q-67 0 -106.5 37.5t-39.5 95.5q0 92 84 168.5t184 76.5q63 0 100.5 -35t37.5 -94zM1606 1044q89 0 135.5 -24t46.5 -94
q0 -131 -144 -417.5t-329 -508.5h-422q38 330 53 664h-6q-134 -358 -334 -664h-422q-6 308 -26.5 581.5t-48.5 442.5l397 20q17 -169 12.5 -391t-29.5 -428h7q102 192 176 407.5t92 391.5h453q15 -151 10 -373.5t-29 -425.5h6q97 192 168.5 412t89.5 391q70 16 144 16z" />
    <glyph glyph-name="Zdotbelow" unicode="&#x1e92;" horiz-adv-x="1103" 
d="M-27 0l-10 246l797 856l-588 -17l90 328h916l45 -246l-789 -856l596 17l-90 -328h-967zM598 -268q0 -103 -89 -187t-198 -84q-73 0 -117 42t-44 106q0 97 90 179.5t202 82.5q71 0 113.5 -37.5t42.5 -101.5z" />
    <glyph glyph-name="zdotbelow" unicode="&#x1e93;" horiz-adv-x="1009" 
d="M96 -20l-114 174q362 346 602 589q-76 15 -135 15q-178 0 -271 -115l-96 62q34 100 75.5 168t89.5 104.5t97 51.5t111 15q145 0 329 -96q16 17 47 48.5t46 47.5q46 0 87.5 -27t41.5 -89q0 -85 -120.5 -212t-479.5 -427q24 4 49 4q43 0 94.5 -11.5t77.5 -11.5q69 0 126 37
t93 103l117 -74q-30 -105 -67.5 -175.5t-84.5 -109.5t-98.5 -55t-118.5 -16q-84 0 -188.5 31.5t-139.5 31.5q-79 0 -170 -63zM528 -268q0 -103 -88.5 -187t-197.5 -84q-74 0 -118 42t-44 106q0 97 90.5 179.5t202.5 82.5q71 0 113 -37.5t42 -101.5z" />
    <glyph glyph-name="Germandbls" unicode="&#x1e9e;" horiz-adv-x="1505" 
d="M152 383l114 539q52 240 236.5 376t445.5 136q219 0 348 -96.5t125 -276.5l-315 -285q65 -33 113 -68t88.5 -81.5t61 -106t20.5 -131.5q0 -172 -142.5 -290.5t-357.5 -118.5q-88 0 -176.5 16.5t-139.5 42.5l66 309q43 -35 100.5 -58.5t114.5 -23.5q66 0 103.5 32.5
t37.5 84.5q0 56 -59.5 109.5t-233.5 154.5l17 80l307 313q-9 52 -48.5 80.5t-100.5 28.5q-85 0 -149 -67t-91 -193l-137 -647q-16 -78 -51 -154.5t-82 -107.5l-342 20q35 66 70.5 175t56.5 208z" />
    <glyph glyph-name="Adotbelow" unicode="&#x1ea0;" horiz-adv-x="1413" 
d="M301 0h-358l592 1188q60 117 102 225l463 19l51 -52l102 -1380h-379l-16 266h-428zM602 625l-45 -93h287l-6 91q-16 316 -9 487h-10q-90 -218 -217 -485zM748 -268q0 -103 -89 -187t-198 -84q-74 0 -118 42t-44 106q0 97 90.5 179.5t202.5 82.5q71 0 113.5 -37.5
t42.5 -101.5z" />
    <glyph glyph-name="adotbelow" unicode="&#x1ea1;" horiz-adv-x="1187" 
d="M51 299q0 102 27.5 205.5t86 201t139.5 172.5t198 120.5t252 45.5q99 0 213.5 -23t197.5 -67l-80 -364q-88 -402 -88 -590h-368q0 112 35 317q-44 -147 -145.5 -242t-227.5 -95q-116 0 -178 83.5t-62 235.5zM430 399q0 -54 18 -83t50 -29q66 0 133.5 121.5t105.5 283.5
q3 22 12.5 65.5t12.5 59.5q-44 23 -76 23q-64 0 -125 -77.5t-96 -179.5t-35 -184zM713 -268q0 -103 -89 -187t-198 -84q-74 0 -118 42t-44 106q0 97 90.5 179.5t202.5 82.5q71 0 113.5 -37.5t42.5 -101.5z" />
    <glyph glyph-name="Edotbelow" unicode="&#x1eb8;" horiz-adv-x="1189" 
d="M1069 287l-59 -287h-953l222 1047q51 231 57 366h919l33 -41l-59 -246l-551 21l-70 -330l455 10l-66 -260l-438 15l-67 -316zM684 -268q0 -103 -89 -187t-198 -84q-73 0 -117 42t-44 106q0 97 90 179.5t202 82.5q71 0 113.5 -37.5t42.5 -101.5z" />
    <glyph glyph-name="edotbelow" unicode="&#x1eb9;" horiz-adv-x="1054" 
d="M874 293l39 -150q-90 -78 -209 -120.5t-241 -42.5q-182 0 -291 99t-109 290q0 128 50.5 250.5t137.5 216.5t212.5 151t265.5 57q154 0 246 -66t92 -183q0 -161 -170.5 -272.5t-454.5 -123.5v-2q0 -86 43.5 -134t132.5 -48q117 0 256 78zM670 850q-55 0 -102 -58.5
t-73.5 -133t-41.5 -158.5q133 30 206.5 97t73.5 167q0 86 -63 86zM684 -268q0 -103 -89 -187t-198 -84q-73 0 -117 42t-44 106q0 97 90 179.5t202 82.5q71 0 113.5 -37.5t42.5 -101.5z" />
    <glyph glyph-name="Etilde" unicode="&#x1ebc;" horiz-adv-x="1189" 
d="M764 1931q46 0 89 -18t70.5 -40t64 -40t71.5 -18q39 0 66.5 20t68.5 68l88 -15q-27 -127 -102 -218t-181 -91q-41 0 -86.5 18.5t-78 40t-72 40t-70.5 18.5q-63 0 -131 -88l-88 14q12 59 35 111t57.5 98t86 73t112.5 27zM1069 287l-59 -287h-953l222 1047q51 231 57 366
h919l33 -41l-59 -246l-551 21l-70 -330l455 10l-66 -260l-438 15l-67 -316z" />
    <glyph glyph-name="etilde" unicode="&#x1ebd;" horiz-adv-x="1054" 
d="M633 1561q46 0 90.5 -18.5t74 -40t67 -40t71.5 -18.5q37 0 63.5 20.5t61.5 67.5l98 -14q-31 -144 -107.5 -247.5t-183.5 -103.5q-52 0 -112.5 29.5t-113.5 58.5t-89 29q-58 0 -121 -88l-96 14q14 67 38 126.5t59.5 111.5t87 82.5t112.5 30.5zM874 293l39 -150
q-90 -78 -209 -120.5t-241 -42.5q-182 0 -291 99t-109 290q0 128 50.5 250.5t137.5 216.5t212.5 151t265.5 57q154 0 246 -66t92 -183q0 -161 -170.5 -272.5t-454.5 -123.5v-2q0 -86 43.5 -134t132.5 -48q117 0 256 78zM670 850q-55 0 -102 -58.5t-73.5 -133t-41.5 -158.5
q133 30 206.5 97t73.5 167q0 86 -63 86z" />
    <glyph glyph-name="Idotbelow" unicode="&#x1eca;" horiz-adv-x="688" 
d="M436 0h-379l219 1030q50 242 60 383l362 21l33 -41zM385 -268q0 -103 -89 -187t-198 -84q-73 0 -117 42t-44 106q0 97 90 179.5t202 82.5q71 0 113.5 -37.5t42.5 -101.5z" />
    <glyph glyph-name="idotbelow" unicode="&#x1ecb;" horiz-adv-x="616" 
d="M686 1425q0 -103 -89 -186.5t-198 -83.5q-73 0 -117 42t-44 106q0 97 90 179.5t202 82.5q71 0 113.5 -38t42.5 -102zM426 0h-369q0 196 76 547l41 188l16 289l388 20q0 -113 -38 -305.5t-76 -396t-38 -342.5zM383 -268q0 -103 -89 -187t-198 -84q-74 0 -118 42t-44 106
q0 97 90.5 179.5t202.5 82.5q71 0 113.5 -37.5t42.5 -101.5z" />
    <glyph glyph-name="Odotbelow" unicode="&#x1ecc;" horiz-adv-x="1443" 
d="M1423 895q0 -138 -38.5 -272.5t-111.5 -250t-172 -203.5t-228 -138.5t-271 -50.5q-237 0 -368.5 139.5t-131.5 398.5q0 139 38 273.5t110.5 250t171 203.5t227 138.5t269.5 50.5q239 0 372 -140.5t133 -398.5zM492 512q0 -256 170 -256q70 0 132 41.5t105 109t74 152.5
t46 173t15 169q0 256 -170 256q-70 0 -132 -41.5t-105 -109t-74 -152.5t-46 -173t-15 -169zM784 -268q0 -103 -88.5 -187t-197.5 -84q-74 0 -118 42t-44 106q0 97 90.5 179.5t202.5 82.5q71 0 113 -37.5t42 -101.5z" />
    <glyph glyph-name="odotbelow" unicode="&#x1ecd;" horiz-adv-x="1169" 
d="M1112 647q0 -130 -50 -251.5t-135.5 -213.5t-207.5 -147t-258 -55q-181 0 -289.5 99t-108.5 290q0 171 85.5 326t238 252t332.5 97q184 0 288.5 -103.5t104.5 -293.5zM442 330q0 -146 76 -146q51 0 93.5 55t68 137t39.5 167t14 153q0 144 -76 144q-51 0 -94 -54.5
t-68.5 -135.5t-39 -165.5t-13.5 -154.5zM670 -268q0 -103 -89 -187t-198 -84q-74 0 -118 42t-44 106q0 97 90.5 179.5t202.5 82.5q71 0 113.5 -37.5t42.5 -101.5z" />
    <glyph glyph-name="Udotbelow" unicode="&#x1ee4;" horiz-adv-x="1456" 
d="M137 348q0 84 39 263.5t87 407t63 394.5l362 21l33 -41q-51 -239 -116 -543q-55 -255 -67 -317t-12 -95q0 -174 172 -174q212 0 269 260q114 526 138.5 660t29.5 229l383 17l-199 -938q-26 -123 -93.5 -222t-161 -161.5t-206.5 -95.5t-235 -33q-219 0 -352.5 98.5
t-133.5 269.5zM784 -268q0 -103 -88.5 -187t-197.5 -84q-74 0 -118 42t-44 106q0 97 90.5 179.5t202.5 82.5q71 0 113 -37.5t42 -101.5z" />
    <glyph glyph-name="udotbelow" unicode="&#x1ee5;" horiz-adv-x="1181" 
d="M74 307l90 428l16 289l387 20q0 -84 -17 -191t-45 -237t-36 -180q-13 -57 -6.5 -103t43.5 -46q63 0 121.5 114t95.5 291q25 147 31 215q6 59 6 117l389 20q-5 -49 -11.5 -95.5t-11.5 -81.5t-18.5 -104.5t-21 -110t-31 -155.5t-37.5 -188q-27 -132 -27 -309h-368
q0 129 14 233h-6q-73 -130 -171.5 -191.5t-197.5 -61.5q-123 0 -171.5 89t-16.5 238zM676 -268q0 -103 -89 -187t-198 -84q-74 0 -118 42t-44 106q0 97 90.5 179.5t202.5 82.5q71 0 113.5 -37.5t42.5 -101.5z" />
    <glyph glyph-name="Ygrave" unicode="&#x1ef2;" horiz-adv-x="1206" 
d="M1184 1579q-346 3 -578 129l-8 59l258 187q181 -166 371 -291zM399 442l-200 953l413 39l43 -414q18 -190 25 -311h6q144 265 166 309l215 416l299 -21l12 -39l-600 -932l-94 -442h-379z" />
    <glyph glyph-name="ygrave" unicode="&#x1ef3;" horiz-adv-x="1069" 
d="M731 1159q-165 155 -246 348l33 62l332 16q0 -191 29 -405zM895 1044q90 0 137 -23.5t47 -92.5q0 -61 -38.5 -171.5t-107 -244.5t-156.5 -279.5t-193.5 -281t-212 -244t-218 -174t-204.5 -65.5q-87 0 -137 52t-50 144q0 78 39 137q70 -20 158 -20q137 0 258 57t178 162
h-211q-6 308 -26.5 581.5t-48.5 442.5l397 20q17 -169 12.5 -391t-29.5 -428h7q97 192 168.5 412t89.5 391q70 16 141 16z" />
    <glyph glyph-name="Ytilde" unicode="&#x1ef8;" horiz-adv-x="1206" 
d="M797 1931q46 0 89 -18t70.5 -40t64 -40t71.5 -18q39 0 66.5 20t68.5 68l88 -15q-27 -127 -102 -218t-181 -91q-41 0 -86.5 18.5t-78 40t-72 40t-70.5 18.5q-63 0 -131 -88l-88 14q12 59 35 111t57.5 98t86 73t112.5 27zM399 442l-200 953l413 39l43 -414q18 -190 25 -311
h6q144 265 166 309l215 416l299 -21l12 -39l-600 -932l-94 -442h-379z" />
    <glyph glyph-name="ytilde" unicode="&#x1ef9;" horiz-adv-x="1069" 
d="M584 1561q46 0 90.5 -18.5t74 -40t67 -40t71.5 -18.5q37 0 63.5 20.5t61.5 67.5l98 -14q-31 -144 -107.5 -247.5t-183.5 -103.5q-52 0 -112.5 29.5t-113.5 58.5t-89 29q-58 0 -121 -88l-96 14q14 67 38 126.5t59.5 111.5t87 82.5t112.5 30.5zM895 1044q90 0 137 -23.5
t47 -92.5q0 -61 -38.5 -171.5t-107 -244.5t-156.5 -279.5t-193.5 -281t-212 -244t-218 -174t-204.5 -65.5q-87 0 -137 52t-50 144q0 78 39 137q70 -20 158 -20q137 0 258 57t178 162h-211q-6 308 -26.5 581.5t-48.5 442.5l397 20q17 -169 12.5 -391t-29.5 -428h7
q97 192 168.5 412t89.5 391q70 16 141 16z" />
    <glyph glyph-name="figurespace" unicode="&#x2007;" 
 />
    <glyph glyph-name="endash" unicode="&#x2013;" horiz-adv-x="1214" 
d="M70 514l12 102h1085l-14 -102h-1083z" />
    <glyph glyph-name="emdash" unicode="&#x2014;" horiz-adv-x="1871" 
d="M63 514l21 102h1749l-23 -102h-1747z" />
    <glyph glyph-name="quoteleft" unicode="&#x2018;" horiz-adv-x="610" 
d="M748 1497q-163 -147 -234 -287q53 -11 85 -49t32 -96q0 -101 -85 -183.5t-188 -82.5q-73 0 -119 40.5t-46 118.5q0 79 46.5 173.5t120 180t151.5 157t153 124.5z" />
    <glyph glyph-name="quoteright" unicode="&#x2019;" horiz-adv-x="610" 
d="M145 858q163 147 234 287q-53 11 -85 49t-32 96q0 101 85 183.5t188 82.5q73 0 119 -40.5t46 -118.5q0 -79 -46.5 -173.5t-120 -180t-151.5 -157t-153 -124.5z" />
    <glyph glyph-name="quotesinglbase" unicode="&#x201a;" horiz-adv-x="610" 
d="M-102 -303q162 145 233 287q-53 11 -85 49t-32 96q0 101 85 183.5t188 82.5q73 0 119.5 -40.5t46.5 -118.5q0 -79 -46.5 -173.5t-120 -180t-151.5 -157t-153 -124.5z" />
    <glyph glyph-name="quotedblleft" unicode="&#x201c;" horiz-adv-x="1163" 
d="M748 1497q-163 -147 -234 -287q53 -11 85 -49t32 -96q0 -101 -85 -183.5t-188 -82.5q-73 0 -119 40.5t-46 118.5q0 79 46.5 173.5t120 180t151.5 157t153 124.5zM1300 1497q-162 -145 -233 -287q53 -11 85 -49t32 -96q0 -101 -85 -183.5t-188 -82.5q-73 0 -119.5 40.5
t-46.5 118.5q0 79 46.5 173.5t120.5 180t152 157t153 124.5z" />
    <glyph glyph-name="quotedblright" unicode="&#x201d;" horiz-adv-x="1163" 
d="M698 858q163 147 234 287q-53 11 -85 49t-32 96q0 101 84.5 183.5t187.5 82.5q73 0 119.5 -40.5t46.5 -118.5q0 -79 -46.5 -173.5t-120 -180t-151.5 -157t-153 -124.5zM145 858q163 147 234 287q-53 11 -85 49t-32 96q0 101 85 183.5t188 82.5q73 0 119 -40.5t46 -118.5
q0 -79 -46.5 -173.5t-120 -180t-151.5 -157t-153 -124.5z" />
    <glyph glyph-name="quotedblbase" unicode="&#x201e;" horiz-adv-x="1150" 
d="M-102 -303q162 145 233 287q-53 11 -85 49t-32 96q0 101 85 183.5t188 82.5q73 0 119.5 -40.5t46.5 -118.5q0 -79 -46.5 -173.5t-120 -180t-151.5 -157t-153 -124.5zM438 -303q163 147 234 287q-53 11 -85 49t-32 96q0 101 84.5 183.5t187.5 82.5q73 0 119.5 -40.5
t46.5 -118.5q0 -79 -46.5 -173.5t-120 -180t-151.5 -157t-153 -124.5z" />
    <glyph glyph-name="dagger" unicode="&#x2020;" horiz-adv-x="1038" 
d="M530 29l-22 -29h-193l-10 29l-31 274l242 602l-336 -45l-6 6q6 95 35 240l33 16l305 -45l-17 334l9 8q172 15 340 15l14 -17l-160 -340l330 45l6 -6q-12 -122 -35 -239l-33 -17l-309 45l-16 -602z" />
    <glyph glyph-name="daggerdbl" unicode="&#x2021;" horiz-adv-x="1038" 
d="M231 -20l-14 16l178 346l-334 -72l-26 17q42 187 76 280l8 6l315 -71q0 5 -1.5 31t-2 33t-1 28.5t-0.5 32t0.5 27t2.5 29t4 24.5q12 57 86 204l-346 -71l-8 6q12 123 47 280l31 17l305 -72l-33 340l8 8q184 15 365 15l14 -17l-178 -346l340 72l8 -6q-19 -153 -45 -281
l-33 -16l-309 71q0 -4 1.5 -30.5t2 -33.5t1 -29t0.5 -32t-0.5 -26.5t-2.5 -29t-4 -23.5q-13 -59 -86 -205l340 71l25 -16q-26 -129 -74 -281l-8 -6l-312 72l33 -340l-8 -8q-172 -14 -365 -14z" />
    <glyph glyph-name="bullet" unicode="&#x2022;" horiz-adv-x="1075" 
d="M453 180q-118 0 -190.5 66.5t-72.5 171.5q0 99 64 193t167.5 152t211.5 58q111 0 178.5 -63.5t67.5 -171.5q0 -102 -60 -196.5t-159 -152t-207 -57.5z" />
    <glyph glyph-name="ellipsis" unicode="&#x2026;" horiz-adv-x="1740" 
d="M465 254q0 -104 -88.5 -189t-198.5 -85q-75 0 -118.5 41t-43.5 104q0 101 92.5 185.5t202.5 84.5q69 0 111.5 -38.5t42.5 -102.5zM1026 254q0 -104 -88.5 -189t-198.5 -85q-75 0 -118 41t-43 104q0 101 92 185.5t202 84.5q69 0 111.5 -38.5t42.5 -102.5zM1587 254
q0 -104 -88.5 -189t-198.5 -85q-75 0 -118 41t-43 104q0 101 92.5 185.5t202.5 84.5q69 0 111 -38.5t42 -102.5z" />
    <glyph glyph-name="perthousand" unicode="&#x2030;" horiz-adv-x="3061" 
d="M1038 1120q0 -101 -40.5 -195t-110.5 -164.5t-169 -112.5t-210 -42q-149 0 -240.5 78.5t-91.5 230.5q0 136 71.5 256.5t195.5 193.5t268 73q151 0 239 -83t88 -235zM1624 1434l-870 -1454h-133l868 1454h135zM492 889q0 -113 61 -113q41 0 75 42t53.5 104t30.5 125.5
t11 115.5q0 107 -61 107q-41 0 -75.5 -41.5t-54 -103t-30 -124t-10.5 -112.5zM2001 358q0 -101 -41 -195t-110.5 -164t-169 -112.5t-210.5 -42.5q-149 0 -240 79t-91 231q0 102 42.5 198t113.5 167t170.5 114t207.5 43q152 0 240 -83t88 -235zM2947 358q0 -101 -40.5 -195
t-110.5 -164.5t-169 -112.5t-210 -42q-149 0 -240.5 79t-91.5 231q0 102 42.5 198t113.5 167t170.5 114t207.5 43q152 0 240 -83t88 -235zM1454 127q0 -113 62 -113q41 0 75 42t53.5 104t30.5 125.5t11 115.5q0 107 -62 107q-41 0 -75.5 -41.5t-54 -103t-30 -124
t-10.5 -112.5zM2400 127q0 -113 62 -113q41 0 75 42t53.5 104t30.5 125.5t11 115.5q0 107 -62 107q-41 0 -75.5 -41.5t-54 -103t-30 -124t-10.5 -112.5z" />
    <glyph glyph-name="guilsinglleft" unicode="&#x2039;" horiz-adv-x="612" 
d="M90 551l21 98q217 150 434 375l86 -37q-86 -193 -258 -387q91 -202 94 -387l-102 -37q-130 236 -275 375z" />
    <glyph glyph-name="guilsinglright" unicode="&#x203a;" horiz-adv-x="612" 
d="M559 649l-20 -98q-220 -152 -435 -375l-86 37q86 193 258 387q-91 202 -94 387l103 37q131 -238 274 -375z" />
    <glyph glyph-name="fraction" unicode="&#x2044;" horiz-adv-x="980" 
d="M1339 1434l-1179 -1454h-133l1177 1454h135z" />
    <glyph glyph-name="zerosuperior" unicode="&#x2070;" horiz-adv-x="929" 
d="M1114 1249q0 -144 -68.5 -269t-187 -200t-256.5 -75q-140 0 -222.5 79.5t-82.5 233.5q0 107 41.5 208t110.5 176t165 121t199 46q141 0 221 -84t80 -236zM571 979q0 -125 68 -125q44 0 84 46t65 114.5t39.5 143t14.5 134.5q0 125 -70 125q-58 0 -106 -77t-71.5 -176
t-23.5 -185z" />
    <glyph glyph-name="foursuperior" unicode="&#x2074;" horiz-adv-x="894" 
d="M295 1049l418 507l305 13l24 -27l-98 -469q37 2 111 10l-56 -190h-94l-37 -172h-258l37 172h-356zM520 1073v-4q3 0 23 0.5t57.5 1t83.5 0.5l16 82q34 153 64 244h-4z" />
    <glyph glyph-name="fivesuperior" unicode="&#x2075;" horiz-adv-x="847" 
d="M279 733l59 172q27 -12 76 -20t88 -8q78 0 131 30.5t53 85.5q0 80 -106 80q-76 0 -181 -37l-30 21l104 495h363q124 0 215 13l-58 -207h-342l-26 -123q55 10 108 10q110 0 176 -55t66 -156q0 -145 -131 -237t-338 -92q-126 0 -227 28z" />
    <glyph glyph-name="sixsuperior" unicode="&#x2076;" horiz-adv-x="858" 
d="M594 705q-136 0 -220.5 68t-84.5 212q0 110 51.5 216.5t137 187t204 130.5t244.5 50q79 0 118 -13l-61 -180q-54 13 -92 13q-75 0 -155 -46.5t-120 -132.5h5q78 15 127 15q113 0 179 -51t66 -148q0 -133 -114.5 -227t-284.5 -94zM645 1075q-29 0 -65 -12
q-25 -70 -25 -129q0 -43 11.5 -61.5t37.5 -18.5q44 0 73.5 43.5t29.5 101.5q0 76 -62 76z" />
    <glyph glyph-name="sevensuperior" unicode="&#x2077;" horiz-adv-x="755" 
d="M346 1333l64 219h622l27 -28l-29 -138q-196 -149 -300 -307t-150 -358h-283q53 188 182 356t299 277v4h-135q-178 0 -297 -25z" />
    <glyph glyph-name="eightsuperior" unicode="&#x2078;" horiz-adv-x="903" 
d="M584 705q-145 0 -226.5 51.5t-81.5 138.5q0 84 72.5 152t181.5 104v4q-56 38 -88 77t-32 93q0 103 112.5 173.5t274.5 70.5q138 0 206 -53t68 -123q0 -61 -53.5 -123t-143.5 -99v-4q69 -33 111.5 -77t42.5 -113q0 -114 -126 -193t-318 -79zM758 1432q-39 0 -66.5 -25
t-27.5 -61q0 -59 77 -97q35 29 57.5 65t22.5 64q0 25 -17.5 39.5t-45.5 14.5zM655 1053q-53 -20 -85.5 -59t-32.5 -81q0 -33 24.5 -53t67.5 -20q57 0 96 31t39 75q0 32 -29 60t-80 47z" />
    <glyph glyph-name="ninesuperior" unicode="&#x2079;" horiz-adv-x="858" 
d="M592 1028q-114 0 -180 55t-66 158q0 138 111 233t272 95q89 0 160.5 -31t118.5 -104t47 -181q0 -105 -44.5 -203.5t-123 -175t-197 -123t-256.5 -46.5q-68 0 -112 10l32 176q70 -8 97 -8q105 0 169 38.5t103 122.5q-75 -16 -131 -16zM719 1403q-39 0 -62.5 -45
t-23.5 -101q0 -42 16.5 -61.5t52.5 -19.5q27 0 54 6q18 74 18 129q0 92 -55 92z" />
    <glyph glyph-name="zeroinferior" unicode="&#x2080;" horiz-adv-x="929" 
d="M930 381q0 -144 -68.5 -269.5t-187 -200.5t-256.5 -75q-140 0 -222.5 80t-82.5 234q0 143 69.5 269.5t189.5 203.5t257 77q141 0 221 -83.5t80 -235.5zM387 111q0 -125 68 -125q44 0 83.5 46t64.5 114.5t39.5 143t14.5 134.5q0 125 -69 125q-58 0 -106 -77t-71.5 -176
t-23.5 -185z" />
    <glyph glyph-name="oneinferior" unicode="&#x2081;" horiz-adv-x="626" 
d="M319 459h-4l-120 -8l-5 153l422 101l25 -29l-174 -819h-275l95 440q33 152 36 162z" />
    <glyph glyph-name="twoinferior" unicode="&#x2082;" horiz-adv-x="796" 
d="M82 -143l6 170q74 39 140 81t134.5 97t109 116.5t40.5 118.5q0 38 -23.5 61t-66.5 23q-91 0 -219 -84l16 197q155 68 313 68q127 0 202 -56.5t75 -152.5q0 -68 -39.5 -135.5t-106.5 -124.5t-145.5 -104t-165.5 -83h127q109 0 217 12l-57 -204h-557z" />
    <glyph glyph-name="threeinferior" unicode="&#x2083;" horiz-adv-x="800" 
d="M223 635q59 26 146.5 45.5t160.5 19.5q114 0 184 -45t70 -116q0 -72 -65.5 -138.5t-157.5 -93.5q86 -15 134 -62t48 -114q0 -124 -133 -209.5t-327 -85.5q-131 0 -230 29l60 164q28 -12 77 -20.5t89 -8.5q75 0 127.5 28.5t52.5 71.5q0 66 -137 66q-38 0 -144 -8l35 164
q121 5 198.5 43.5t77.5 95.5q0 59 -81 59q-41 0 -100 -14t-109 -37z" />
    <glyph glyph-name="fourinferior" unicode="&#x2084;" horiz-adv-x="894" 
d="M111 184l417 508l306 13l24 -27l-98 -469q35 2 110 10l-55 -190h-94l-37 -172h-258l37 172h-357zM336 209v-4q3 0 23 0.5t57.5 1t83.5 0.5l16 82q33 150 64 243h-5z" />
    <glyph glyph-name="fiveinferior" unicode="&#x2085;" horiz-adv-x="847" 
d="M94 -135l60 172q28 -12 76 -20.5t87 -8.5q78 0 131.5 31t53.5 86q0 41 -29 60.5t-78 19.5q-75 0 -180 -37l-31 20l105 496h362q131 0 215 12l-57 -207h-342l-27 -122q55 10 109 10q110 0 176 -55t66 -156q0 -145 -131 -237.5t-338 -92.5q-124 0 -228 29z" />
    <glyph glyph-name="sixinferior" unicode="&#x2086;" horiz-adv-x="858" 
d="M410 -164q-136 0 -221 68.5t-85 212.5q0 110 51.5 216.5t137 187t204 130t244.5 49.5q83 0 119 -12l-61 -180q-50 12 -92 12q-76 0 -155.5 -46t-119.5 -132h4q72 14 127 14q114 0 180 -50.5t66 -147.5q0 -134 -114.5 -228t-284.5 -94zM461 207q-30 0 -66 -12
q-24 -67 -24 -129q0 -43 11.5 -61.5t37.5 -18.5q44 0 73 43.5t29 101.5q0 76 -61 76z" />
    <glyph glyph-name="seveninferior" unicode="&#x2087;" horiz-adv-x="755" 
d="M162 469l63 219h623l26 -29l-28 -137q-197 -149 -301 -307t-150 -358h-282q53 188 182 355.5t299 276.5v5h-135q-178 0 -297 -25z" />
    <glyph glyph-name="eightinferior" unicode="&#x2088;" horiz-adv-x="903" 
d="M399 -164q-144 0 -225.5 52t-81.5 139q0 84 72.5 152t181.5 104v4q-57 38 -89 77t-32 93q0 102 112.5 172.5t274.5 70.5q138 0 206.5 -53t68.5 -123q0 -61 -53 -122t-144 -99v-4q69 -33 111.5 -77t42.5 -113q0 -114 -126.5 -193.5t-318.5 -79.5zM573 563q-39 0 -66.5 -25
t-27.5 -61q0 -58 78 -96q35 29 57.5 65t22.5 64q0 24 -18 38.5t-46 14.5zM471 184q-54 -20 -86.5 -58.5t-32.5 -80.5q0 -33 24.5 -53.5t67.5 -20.5q57 0 96.5 31.5t39.5 75.5q0 32 -28.5 59.5t-80.5 46.5z" />
    <glyph glyph-name="nineinferior" unicode="&#x2089;" horiz-adv-x="858" 
d="M408 160q-114 0 -180 55t-66 158q0 138 111 232.5t272 94.5q66 0 123 -18t103 -54.5t72.5 -99t26.5 -143.5q0 -105 -44.5 -203.5t-123 -175.5t-196.5 -123.5t-256 -46.5q-69 0 -113 10l33 177q79 -9 96 -9q105 0 169.5 39t103.5 123q-75 -16 -131 -16zM535 535
q-39 0 -62.5 -45t-23.5 -101q0 -82 69 -82q26 0 53 6q19 78 19 129q0 93 -55 93z" />
    <glyph glyph-name="euro" unicode="&#x20ac;" horiz-adv-x="1200" 
d="M37 506l37 123h110q5 41 31 143h-98l37 123h108q107 239 313 389t449 150q189 0 303 -82l-137 -318q-134 92 -232 92q-87 0 -167.5 -63t-135.5 -168h353l-37 -123h-365q-22 -71 -28 -143h350l-37 -123h-316q21 -219 213 -219q128 0 269 78l-23 -304q-169 -81 -360 -81
q-245 0 -372.5 129.5t-127.5 379.5v17h-137z" />
    <glyph glyph-name="trademark" unicode="&#x2122;" horiz-adv-x="1163" 
d="M1251 1417l17 -14l-54 -461h-147l18 160q5 45 31 180h-4q-32 -98 -70 -180l-71 -160h-166l-2 160q0 119 8 182h-2q-4 -17 -11 -48.5t-15 -60t-23 -73.5l-51 -160h-123l147 469l213 6v-86q0 -111 -16 -252h2q54 168 92 252l37 80zM420 942h-152l78 358q-45 0 -139 -4
l33 115h411l-16 -115q-98 4 -137 4z" />
    <glyph glyph-name="partialdiff" unicode="&#x2202;" horiz-adv-x="1464" 
d="M954 1556q136 0 236 -39t161 -113.5t90 -175.5t29 -231q0 -202 -67 -388t-183 -324.5t-283 -221.5t-357 -83q-209 0 -324 98t-115 272q0 123 59 238.5t158.5 200.5t238 136.5t290.5 51.5q102 0 188 -27v13q0 161 -65 239t-195 78q-94 0 -190.5 -36.5t-171.5 -92.5
l-68 231q110 75 260 124.5t309 49.5zM539 401q0 -143 135 -143q64 0 122 34t102 93t77.5 130.5t56.5 154.5q-67 28 -153 28q-149 0 -244.5 -85t-95.5 -212z" />
    <glyph glyph-name="product" unicode="&#x220f;" horiz-adv-x="1574" 
d="M1784 1372l-60 -233h-143l-303 -1426h-369l303 1426h-366l-303 -1426h-369l303 1426h-143l47 274h1370z" />
    <glyph glyph-name="summation" unicode="&#x2211;" horiz-adv-x="1228" 
d="M63 -41l578 604l-322 604l115 246h1014l33 -41l-62 -246l-704 19l284 -537l-18 -90l-510 -536l717 18l-62 -287h-1054z" />
    <glyph glyph-name="minus" unicode="&#x2212;" 
d="M1108 621h-922l37 174q352 10 928 10l12 -17z" />
    <glyph glyph-name="radical" unicode="&#x221a;" horiz-adv-x="1343" 
d="M1622 1497l-745 -1497h-388l-98 750h-221l57 274h486l47 -758l551 1290l299 -20z" />
    <glyph glyph-name="infinity" unicode="&#x221e;" horiz-adv-x="1628" 
d="M1610 813q0 -134 -65 -251t-174.5 -186t-235.5 -69q-116 0 -187.5 55t-122.5 154q-199 -209 -426 -209q-133 0 -210.5 80.5t-77.5 212.5q0 134 65 251t174 186t234 69q117 0 191 -55t122 -150q199 205 422 205q135 0 213 -80.5t78 -212.5zM1247 922q-74 0 -152 -49.5
t-137 -124.5l3 -9q40 -123 88.5 -185t130.5 -62q91 0 160 82.5t69 189.5q0 72 -44 115t-118 43zM311 651q0 -73 43.5 -115t118.5 -42q69 0 152 52.5t137 119.5q-1 2 -2 5t-2 5q-21 54 -32.5 80.5t-33 64.5t-40.5 56t-48.5 31.5t-64.5 13.5q-92 0 -160 -80.5t-68 -190.5z" />
    <glyph glyph-name="integral" unicode="&#x222b;" horiz-adv-x="1026" 
d="M141 -532q-150 0 -270 51l78 270q53 -39 114.5 -62.5t100.5 -23.5q77 0 108 141q20 89 30.5 230.5t23.5 408.5q20 390 43 542q42 280 155 402q120 129 353 129q158 0 278 -51l-78 -270q-128 86 -219 86q-26 0 -45.5 -8t-34 -29t-24 -45t-16.5 -67t-10.5 -83.5t-7 -106.5
t-5.5 -124.5t-5.5 -148.5t-7.5 -168q-11 -220 -16 -304.5t-14 -177t-21 -145.5q-48 -225 -179.5 -335.5t-330.5 -110.5z" />
    <glyph glyph-name="approxequal" unicode="&#x2248;" 
d="M946 723q-52 0 -273.5 51t-252.5 51q-21 0 -128 -104q-9 -8 -13 -12l-91 69q36 48 65 82t69.5 75.5t79 64t71.5 22.5q51 0 275 -51t253 -51q7 0 16.5 5.5t25.5 19t27.5 23.5t36 33.5t36.5 34.5l90 -69q-41 -52 -66.5 -82.5t-68 -74.5t-80.5 -65.5t-72 -21.5zM850 264
q-52 0 -274 51.5t-252 51.5q-14 0 -45.5 -26.5t-83.5 -77.5l-13 -13l-90 69q36 48 65 82t69.5 75.5t79 64t71.5 22.5q51 0 275 -51t253 -51q7 0 16.5 5.5t25 18.5t28 24.5t35.5 33.5t37 35l90 -70q-41 -52 -66.5 -82.5t-68 -74.5t-80.5 -65.5t-72 -21.5z" />
    <glyph glyph-name="notequal" unicode="&#x2260;" 
d="M250 270l110 160h-213l37 174q92 2 301 6l158 230h-407l36 174q108 4 498 8l156 225l22 6l133 -82l-102 -147h221l12 -16l-55 -168h-305l-158 -228q162 2 418 2l12 -16l-55 -168h-500l-163 -235l-23 -7z" />
    <glyph glyph-name="lessequal" unicode="&#x2264;" 
d="M502 731l588 -242l-41 -184l-875 363l25 112l16 23q597 210 1012 344l-39 -184zM967 0h-922l37 174q352 10 928 10l12 -16z" />
    <glyph glyph-name="greaterequal" unicode="&#x2265;" 
d="M129 297l41 190l700 238l-598 236l39 184q486 -184 867 -344l6 -23l-27 -131zM989 0h-921l36 174q352 10 928 10l12 -16z" />
    <glyph glyph-name="lozenge" unicode="&#x25ca;" horiz-adv-x="1228" 
d="M109 653l20 95l569 665l203 21l299 -689l-20 -92l-576 -653l-201 -20zM528 127h2l480 573l-234 588h-2l-475 -590z" />
    <glyph glyph-name="fi" unicode="&#xfb01;" horiz-adv-x="1275" 
d="M-27 -512l-116 123q81 124 126.5 240.5t77.5 271.5l146 686l-141 10l26 123l152 41q5 53 20 127q42 213 194.5 329.5t379.5 116.5q143 0 255.5 -39.5t176.5 -103.5l-215 -217q-122 94 -252 94q-72 0 -113.5 -39t-58.5 -123q-22 -113 -25 -145h244l387 61
q0 -113 -38 -305.5t-76 -396t-38 -342.5h-368q0 196 76 547l41 188l4 64l-263 8l-120 -565q-26 -121 -51.5 -207.5t-63 -171t-86.5 -147.5t-118.5 -121t-162.5 -107z" />
    <glyph glyph-name="fl" unicode="&#xfb02;" horiz-adv-x="1267" 
d="M631 1128q-22 -113 -25 -145h277l57 264v13q-65 30 -137 30t-113.5 -39t-58.5 -123zM-27 -512l-116 123q81 124 126.5 240.5t77.5 271.5l146 686l-141 10l26 123l152 41q5 53 20 127q42 213 194.5 329.5t379.5 116.5q94 0 170 -18l335 18q0 -128 -40.5 -349.5t-89.5 -424
t-89.5 -426.5t-40.5 -356h-368q0 111 26.5 276.5t98.5 501.5l4 21l-269 8l-120 -565q-26 -121 -51.5 -207.5t-63 -171t-86.5 -147.5t-118.5 -121t-162.5 -107z" />
    <glyph glyph-name="a.inferior" horiz-adv-x="995" 
d="M6 113q0 80 22.5 159t70.5 152t115 129t162.5 89.5t207.5 33.5q86 0 182.5 -18.5t161.5 -51.5l-64 -293q-69 -319 -69 -469h-308q0 78 25 240q-36 -104 -118.5 -172t-182.5 -68q-96 0 -150.5 72.5t-54.5 196.5zM322 174q0 -42 15.5 -66t41.5 -24q55 0 111.5 94.5
t80.5 216.5q9 47 21 99q-37 16 -62 16q-53 0 -102.5 -55t-77.5 -133t-28 -148z" />
    <glyph glyph-name="b.inferior" horiz-adv-x="987" 
d="M156 834l10 225l323 16q0 -27 -2 -61t-5.5 -63t-11 -74t-12 -72.5t-16 -82.5t-16.5 -79t-19 -86.5t-18 -83.5q48 91 122.5 147t160.5 56q96 0 150.5 -70.5t54.5 -193.5q0 -79 -22.5 -158t-69.5 -153t-112.5 -131t-160 -91.5t-203.5 -34.5q-85 0 -177.5 19t-147.5 55
q-6 83 94 549zM502 436q-59 0 -118.5 -119.5t-80.5 -293.5q29 -13 53 -13q53 0 101.5 50t76 123t27.5 143q0 51 -15 80.5t-44 29.5zM303 23l4 36l-6 -36h2z" />
    <glyph glyph-name="c.inferior" horiz-adv-x="819" 
d="M662 92l32 -125q-72 -57 -170 -90t-196 -33q-155 0 -247.5 83t-92.5 237q0 100 40 193t109.5 163.5t170 113t214.5 42.5q136 0 244 -39l-64 -225q-99 69 -190 69t-150 -77.5t-59 -196.5q0 -168 150 -168q96 0 209 53z" />
    <glyph glyph-name="d.inferior" horiz-adv-x="976" 
d="M764 -139h-307q-3 81 14 202q-39 -96 -117 -157.5t-168 -61.5q-97 0 -151.5 74t-54.5 199q0 101 38 199.5t108 179.5t180.5 130.5t242.5 49.5q31 0 47 -2l35 160l10 225l322 16q2 -136 -70 -473q-7 -32 -29.5 -132t-31.5 -142t-25.5 -125.5t-23.5 -131.5t-13 -107
t-6 -103zM295 184q0 -100 55 -100t106 91t79 220q3 12 8 36.5t8 35.5l6 25q-35 18 -61 18q-51 0 -98.5 -51t-75 -126.5t-27.5 -148.5z" />
    <glyph glyph-name="e.inferior" horiz-adv-x="884" 
d="M655 92l33 -125q-63 -57 -162 -90t-202 -33q-154 0 -246 78.5t-92 231.5q0 100 41 194.5t111.5 167t171.5 116.5t214 44q128 0 207.5 -55t79.5 -150q0 -127 -141.5 -209.5t-368.5 -93.5q6 -129 145 -129q97 0 209 53zM477 516q-43 0 -80 -45t-57.5 -102t-30.5 -119
q96 24 159.5 80t63.5 123q0 63 -55 63z" />
    <glyph glyph-name="f.inferior" horiz-adv-x="727" 
d="M-29 -545l-98 101q65 101 102 194.5t62 214.5l110 516l-114 11l22 100l123 33q10 67 19 106q35 165 161.5 254.5t313.5 89.5q73 0 136.5 -15.5t100.5 -39.5l-104 -221q-87 55 -168 55q-54 0 -88 -26t-45 -74q-7 -35 -14 -76.5t-9 -52.5h205l14 -31l-32 -121l-213 6
l-90 -413q-21 -97 -41 -166.5t-50.5 -138.5t-70.5 -120.5t-98 -99t-134 -86.5z" />
    <glyph glyph-name="g.inferior" horiz-adv-x="907" 
d="M231 -539q-179 0 -287 56t-108 137q0 60 60.5 103t154.5 67l58 -51v-27q0 -67 48 -108t126 -41q62 0 100.5 20.5t38.5 54.5q0 10 -3.5 19t-13 17.5t-17.5 15t-25 15.5t-28.5 14t-34.5 15.5t-36 16.5q-74 34 -110.5 63t-36.5 72q0 47 43.5 84.5t98 53.5t99.5 14v4
q-44 0 -88 6q-106 16 -172.5 85.5t-66.5 178.5q0 80 38 144.5t101.5 104t140 60.5t158.5 21q190 0 265.5 3t146.5 17q26 -20 26 -63q0 -39 -23.5 -74t-76.5 -35q-25 0 -51 8t-55.5 22t-45.5 19l-2 -4q133 -68 133 -198q0 -62 -28.5 -114t-71.5 -84t-92.5 -59t-92.5 -43
t-71.5 -32t-28.5 -29q0 -12 22 -26t73 -37q37 -16 57 -26t58 -34t59.5 -45.5t39 -55t17.5 -69.5q0 -76 -68.5 -135t-180.5 -90t-247 -31zM502 424q0 108 -60 108q-53 0 -90 -74t-37 -151q0 -51 17.5 -85t50.5 -34q36 0 64 39t41.5 92t13.5 105z" />
    <glyph glyph-name="h.inferior" horiz-adv-x="1001" 
d="M307 -139h-307q0 89 19 210t77 396l78 367l10 225l324 16q0 -74 -16 -181t-33.5 -189t-50.5 -222h6q62 99 143.5 146t163.5 47q80 0 125 -45t45 -129q0 -28 -9.5 -77t-51.5 -244q-11 -51 -17 -79q-21 -89 -18 -241h-308q-1 88 12.5 174.5t53.5 281.5q6 27 6 52
q0 51 -39 51q-51 0 -100.5 -83t-80.5 -213.5t-32 -262.5z" />
    <glyph glyph-name="i.inferior" horiz-adv-x="516" 
d="M489 971q0 -82 -72 -148.5t-161 -66.5q-61 0 -98 33.5t-37 87.5q0 83 76 149t163 66q58 0 93.5 -32.5t35.5 -88.5zM307 -139h-307q0 167 57 426l33 147l10 225l322 17q2 -87 -27.5 -237t-59 -310t-28.5 -268z" />
    <glyph glyph-name="j.inferior" horiz-adv-x="509" 
d="M483 971q0 -82 -72 -148.5t-161 -66.5q-61 0 -98 33.5t-37 87.5q0 83 76 149t163 66q58 0 93.5 -32.5t35.5 -88.5zM-82 -545l-98 101q65 102 101 193t63 216l100 469l10 225l324 17q0 -38 -6 -91t-22 -137t-23.5 -122t-31 -148t-24.5 -115q-21 -97 -40.5 -166t-50.5 -138
t-70.5 -119.5t-97 -98t-134.5 -86.5z" />
    <glyph glyph-name="k.inferior" horiz-adv-x="1003" 
d="M930 512q0 -78 -61.5 -153.5t-168.5 -129.5q107 -236 197 -368h-381q-69 155 -96 297q108 92 155.5 161.5t47.5 112.5q0 49 -43 49q-42 0 -90 -54t-87.5 -139t-67 -200t-28.5 -227h-307q0 89 19 210t77 396l78 367l10 225l324 16q0 -68 -16.5 -176t-33 -188.5
t-48.5 -227.5h2q60 84 154 138.5t184 54.5q84 0 132 -46t48 -118z" />
    <glyph glyph-name="l.inferior" horiz-adv-x="518" 
d="M307 -139h-307q0 89 19 210t77 396l78 367l10 225l324 16q1 -99 -31 -272t-70.5 -332t-69.5 -333.5t-30 -276.5z" />
    <glyph glyph-name="m.inferior" horiz-adv-x="1486" 
d="M412 483q61 95 143.5 144t165.5 49q82 0 124 -46t42 -132v-15h4q60 94 146.5 143.5t170.5 49.5q82 0 124 -44t42 -124q0 -66 -51 -289q-17 -74 -24 -112t-13 -102t-6 -144h-307q0 66 7 131.5t14.5 105t23.5 117.5q26 132 26 156q0 49 -40 49q-48 0 -96 -66t-80.5 -186.5
t-34.5 -261.5v-45h-308q0 166 39 336q5 24 13 59t11.5 49.5t6 32t2.5 29.5q0 53 -39 53q-50 0 -99.5 -81.5t-81 -212t-32.5 -265.5h-307q0 186 90 573l10 225l322 17q0 -67 -14 -193h6z" />
    <glyph glyph-name="n.inferior" horiz-adv-x="999" 
d="M412 483q61 95 143.5 144t167.5 49q80 0 122 -43.5t42 -120.5q0 -76 -51 -293q-29 -126 -37 -192t-6 -166h-308q0 166 39 336q5 24 13 59t11.5 49.5t6 32t2.5 29.5q0 53 -39 53q-50 0 -99.5 -81.5t-81 -212t-32.5 -265.5h-307q0 186 90 573l10 225l322 17q0 -67 -14 -193
h6z" />
    <glyph glyph-name="o.inferior" horiz-adv-x="937" 
d="M848 358q0 -101 -41 -195t-110.5 -164t-169 -112.5t-210.5 -42.5q-149 0 -240 79t-91 231q0 102 42.5 198t113.5 167t170.5 114t207.5 43q152 0 240 -83t88 -235zM301 127q0 -113 61 -113q41 0 75 42t53.5 104t30.5 125.5t11 115.5q0 107 -61 107q-41 0 -75.5 -41.5
t-54 -103t-30 -124t-10.5 -112.5z" />
    <glyph glyph-name="p.inferior" horiz-adv-x="999" 
d="M319 -156q-33 0 -51 2q-51 -250 -49 -368h-307q-1 88 20 219t74 371l80 366l10 225l324 17q0 -80 -23 -215q41 95 119 155t170 60q95 0 149 -68.5t54 -191.5q0 -78 -22 -157.5t-69 -154.5t-113 -132.5t-161 -92.5t-205 -35zM518 436q-55 0 -107 -88.5t-81 -218.5
q-4 -18 -11.5 -51t-11.5 -51q34 -17 60 -17q53 0 102.5 58.5t76.5 135t27 138.5q0 43 -14.5 68.5t-40.5 25.5z" />
    <glyph glyph-name="q.inferior" horiz-adv-x="958" 
d="M213 -156q-99 0 -154 74t-55 195q0 81 25 161.5t75 152.5t118.5 128t161.5 88.5t198 32.5q83 0 177.5 -19.5t158.5 -54.5l-146 -665q-70 -324 -70 -459h-307q-2 122 82 519q5 27 8 40q-41 -86 -114 -139.5t-158 -53.5zM319 176q0 -42 15 -67t41 -25q53 0 103.5 84.5
t80.5 218.5l23 109q-22 14 -52 14q-56 0 -106.5 -59.5t-77.5 -136t-27 -138.5z" />
    <glyph glyph-name="r.inferior" horiz-adv-x="735" 
d="M305 -139h-307q0 167 57 426l33 147l10 225l322 17q0 -114 -37 -289h6q52 153 117 221t131 68q35 0 70 -19t49 -43l-142 -284q-50 18 -98 18q-105 0 -153.5 -118.5t-57.5 -368.5z" />
    <glyph glyph-name="s.inferior" horiz-adv-x="780" 
d="M717 637l-62 -225q-56 33 -118.5 51t-106.5 18q-41 0 -67.5 -13t-26.5 -36q0 -24 30.5 -43.5t74 -38t87.5 -43t74.5 -69.5t30.5 -105q0 -128 -122.5 -208.5t-295.5 -80.5q-77 0 -156.5 18t-119.5 46l61 219q61 -40 134.5 -64t125.5 -24q41 0 64.5 14t23.5 35q0 20 -22 38
t-55 31.5t-71.5 34t-71.5 44t-55 63t-22 88.5q0 82 60 149.5t156 103.5t206 36q138 0 244 -39z" />
    <glyph glyph-name="t.inferior" horiz-adv-x="720" 
d="M655 508l-235 6q-77 -351 -79 -373q-1 -7 -1 -12q0 -35 22.5 -53.5t61.5 -18.5q61 0 137 39l-20 -184q-122 -68 -265 -68q-121 0 -184 60t-63 174q0 40 14.5 114.5t71.5 329.5l-109 4l21 101l125 32l120 213l191 13l33 -35l-45 -191h229l14 -32z" />
    <glyph glyph-name="u.inferior" horiz-adv-x="983" 
d="M8 23q0 16 2 33t8.5 52t13.5 67t23 109.5t31 149.5l12 225l322 17q1 -65 -13 -151.5t-36 -188t-27 -133.5q-1 -6 -2.5 -17t-2.5 -20t-1 -16q0 -50 37 -50q51 0 98 91t76 231q15 85 22 174q2 20 2 63l324 17q-2 -22 -4.5 -43t-4.5 -38.5t-6.5 -43t-7 -41.5t-8.5 -49.5
t-9.5 -51.5t-12.5 -64t-13.5 -69.5t-16.5 -84.5t-19 -95q-19 -100 -19 -235h-307q0 104 10 178h-6q-59 -100 -139 -147.5t-160 -47.5q-81 0 -123.5 47.5t-42.5 131.5z" />
    <glyph glyph-name="v.inferior" horiz-adv-x="901" 
d="M111 -139q-16 518 -70 798l332 17q13 -115 10.5 -298.5t-21.5 -334.5h7q76 145 132.5 313t69.5 295q52 25 121 25q152 0 152 -109q0 -99 -111.5 -310t-269.5 -396h-352z" />
    <glyph glyph-name="w.inferior" horiz-adv-x="1488" 
d="M1278 676q152 0 152 -109q0 -102 -115.5 -319.5t-265.5 -386.5h-353q31 279 39 504h-4q-111 -278 -268 -504h-350q-21 539 -72 798l332 17q14 -125 12 -302t-20 -329h4q81 146 140.5 313t72.5 301h376q14 -120 11.5 -290t-21.5 -324h6q76 144 133 311.5t70 294.5
q52 25 121 25z" />
    <glyph glyph-name="x.inferior" horiz-adv-x="878" 
d="M-78 -139q8 111 91.5 231.5t224.5 202.5q-97 216 -228 364l316 17q76 -80 157 -262q79 112 76 233q53 29 127 29q69 0 110.5 -26t41.5 -75q0 -64 -77 -161.5t-204 -175.5q92 -227 184 -377h-315q-54 93 -119 266q-39 -41 -68 -118.5t-26 -147.5h-291z" />
    <glyph glyph-name="y.inferior" horiz-adv-x="903" 
d="M694 676q25 0 47.5 -4t47.5 -14t40 -32.5t15 -54.5q0 -55 -41.5 -159t-109.5 -227t-162 -252t-192 -233.5t-207 -171.5t-200 -67q-73 0 -116 44.5t-43 121.5q0 60 30 111q63 -17 138 -17q109 0 204.5 35t139.5 105h-174q-16 522 -70 798l332 17q13 -116 10.5 -299
t-21.5 -334h7q76 145 132.5 313t69.5 295q52 25 123 25z" />
    <glyph glyph-name="z.inferior" horiz-adv-x="870" 
d="M27 -156l-97 146q267 224 492 430q-81 18 -131 18q-129 0 -203 -92l-80 51q52 159 124 219t177 60q60 0 173.5 -22.5t164.5 -26.5q36 32 53 49q47 0 73 -23t26 -63q0 -71 -104.5 -173t-409.5 -321q21 6 45 6q20 0 82.5 -8t85.5 -8q57 0 99 30.5t67 80.5l98 -62
q-44 -165 -112 -228t-179 -63q-72 0 -176 26t-135 26q-62 0 -133 -52z" />
    <glyph glyph-name="a.superior" horiz-adv-x="995" 
d="M162 850q0 80 22.5 159t70 152t114.5 129t162.5 89.5t207.5 33.5q86 0 182.5 -18.5t161.5 -51.5l-63 -292q-70 -323 -70 -469h-307q0 76 25 239q-36 -104 -118.5 -171.5t-182.5 -67.5q-96 0 -150.5 72t-54.5 196zM477 911q0 -42 15.5 -66t42.5 -24q55 0 111.5 94.5
t80.5 217.5q8 40 21 98q-37 16 -62 16q-53 0 -102.5 -55t-78 -133t-28.5 -148z" />
    <glyph glyph-name="b.superior" horiz-adv-x="987" 
d="M311 1571l11 225l323 16q0 -27 -2 -61t-5.5 -63t-11 -74t-12 -72.5t-16 -82.5t-16.5 -79t-19 -86.5t-18 -83.5q48 92 122 147.5t160 55.5q96 0 150.5 -70.5t54.5 -193.5q0 -79 -22.5 -158t-69 -153t-112.5 -131t-160 -91t-203 -34q-86 0 -179 18.5t-147 54.5
q-6 83 94 549zM657 1174q-59 0 -118 -120t-80 -294q27 -12 53 -12q53 0 101.5 50t76 122.5t27.5 142.5q0 51 -15.5 81t-44.5 30zM459 760l4 37q-1 -6 -3 -18.5t-3 -18.5h2z" />
    </font>
</defs>
</svg>
