<?xml version="1.0" standalone="no"?>
<!DOCTYPE svg PUBLIC "-//W3C//DTD SVG 1.1//EN" "http://www.w3.org/Graphics/SVG/1.1/DTD/svg11.dtd" >
<svg xmlns="http://www.w3.org/2000/svg" xmlns:xlink="http://www.w3.org/1999/xlink" version="1.1">
<metadata>
Created by FontForge 20170731 at Sat Sep  3 03:34:04 2022
 By Aleksey,,,
Universidad La Salle A.C.
</metadata>
<defs>
<font id="IndivisaTextSans-Black" horiz-adv-x="1269" >
  <font-face 
    font-family="Indivisa Text Sans Black"
    font-weight="700"
    font-stretch="normal"
    units-per-em="2048"
    panose-1="0 0 0 0 0 0 0 0 0 0"
    ascent="1536"
    descent="-512"
    x-height="1024"
    cap-height="1434"
    bbox="-154 -766 11129 2521"
    underline-thickness="184"
    underline-position="-624"
    unicode-range="U+0020-FB02"
  />
<missing-glyph horiz-adv-x="1392" 
d="M205 0v1536h983v-1536h-983zM365 1454l331 -600l332 600h-663zM287 1425v-1310l364 655zM743 770l363 -655v1310zM360 82h672l-336 604z" />
    <glyph glyph-name="f_f" unicode="ff" horiz-adv-x="1437" 
d="M543 0h-369v809l-143 10v123l143 41q-6 65 -6 113q0 201 133.5 310.5t355.5 109.5q157 0 289 -54q126 94 334 94q88 0 170 -19.5t131 -49.5l-72 -268q-124 71 -219 71q-65 0 -100 -37t-35 -104q0 -43 6 -166h252l25 -37l-11 -147l-260 8v-807h-368v809h-256v-809z
M530 1094q0 -13 1.5 -32.5t3 -43.5t2.5 -35h262q-6 77 -6 137q0 70 14 125q-59 35 -133 35q-67 0 -105.5 -45.5t-38.5 -140.5z" />
    <glyph glyph-name="f_f_i" unicode="ffi" horiz-adv-x="1914" 
d="M543 0h-369v809l-143 10v123l143 41q-6 65 -6 113q0 201 133.5 310.5t355.5 109.5q157 0 289 -54q123 94 324 94q140 0 257.5 -39.5t192.5 -103.5l-168 -217q-135 94 -260 94q-72 0 -104.5 -39.5t-32.5 -124.5q0 -78 6 -143h232l358 61l41 -40v-1004h-369v641
q0 81 -6 158l-250 8v-807h-368v809h-256v-809zM530 1094q0 -13 1.5 -32.5t3 -43.5t2.5 -35h262q-6 77 -6 129q0 61 8 105q-59 32 -127 32q-67 0 -105.5 -37.5t-38.5 -117.5z" />
    <glyph glyph-name="f_f_l" unicode="ffl" horiz-adv-x="1914" 
d="M543 0h-369v809l-143 10v123l143 41q-6 65 -6 113q0 201 133.5 310.5t355.5 109.5q157 0 289 -54q126 94 334 94q115 0 213 -28l258 28l41 -40v-1516h-369v799l-256 8v-807h-368v809h-256v-809zM1155 1149q0 -43 6 -166h262v170q0 76 -2 113q-74 24 -131 24
q-65 0 -100 -37t-35 -104zM530 1094q0 -13 1.5 -32.5t3 -43.5t2.5 -35h262q-6 77 -6 137q0 58 8 97q-59 32 -127 32q-67 0 -105.5 -37.5t-38.5 -117.5z" />
    <glyph glyph-name="f_i" unicode="fi" horiz-adv-x="1290" 
d="M543 0h-369v809l-143 10v123l143 41q-6 77 -6 129q0 215 127.5 329.5t349.5 114.5q140 0 258 -39.5t193 -103.5l-168 -217q-135 94 -260 94q-72 0 -105 -39.5t-33 -124.5q0 -68 7 -143h231l358 61l41 -40v-1004h-368v641q0 81 -6 158l-250 8v-807z" />
    <glyph glyph-name="f_l" unicode="fl" horiz-adv-x="1290" 
d="M543 0h-369v809l-143 10v123l143 41q-6 77 -6 137q0 210 129 323t358 113q115 0 213 -28l258 28l41 -40v-1516h-368v799l-256 8v-807zM530 1149q0 -23 7 -166h262v170q0 76 -2 113q-74 24 -131 24q-65 0 -100.5 -37t-35.5 -104z" />
    <glyph glyph-name="symbol1" unicode="&#x2f;symbol&#x31;&#x2f;" horiz-adv-x="11333" 
d="M3820 844q-52 0 -83.5 29t-31.5 77q0 71 67 131t144 60q50 0 80 -28t30 -77q0 -74 -63.5 -133t-142.5 -59zM2630 844q-54 0 -85.5 29t-31.5 77q0 71 68 131t145 60q50 0 79 -28t29 -77q0 -73 -63 -132.5t-141 -59.5zM1964 0q0 80 23 221q-33 -103 -105.5 -169t-161.5 -66
q-84 0 -129 60.5t-45 168.5q0 74 20 150t62 146t100 124.5t140 87.5t176 33q35 0 51 -2l33 149l12 209l279 14q0 -92 -29.5 -252t-65 -306.5t-65 -309t-29.5 -258.5h-266zM205 0l160 745q36 182 43 279l262 14l22 -30l-213 -1008h-274zM7174 1008l-117 -1008h-268l41 358
q7 72 68 441h-6q-64 -206 -166 -441l-156 -358h-305l-4 358q-3 249 18 441h-4q-66 -269 -121 -441l-108 -358h-224l316 1024l377 12l2 -280q4 -279 -31 -531h4q78 253 193 531l114 268l346 14zM10887 614q-16 -79 -31.5 -151t-22.5 -104.5t-13 -60.5t-7.5 -38.5t-1.5 -19.5
q0 -34 19.5 -52t54.5 -18q52 0 121 37l-18 -162q-105 -59 -234 -59q-104 0 -159.5 51.5t-55.5 152.5q0 13 1 24.5t4 31.5t6 36t10.5 53.5t14 68.5t20.5 95.5t26 121.5l-96 2l18 90l111 28l108 195l166 12l27 -30l-41 -177h203l12 -28l-35 -105zM688 0q0 157 84 532l12 209
l281 15q0 -64 -14 -183h4q55 94 128 138.5t146 44.5q69 0 108.5 -40t39.5 -106q0 -55 -54 -301q-22 -102 -29.5 -165t-7.5 -144h-268q0 115 39 307q5 28 12 63t10.5 52t6 34.5t2.5 28.5q0 50 -35 50q-46 0 -91.5 -79t-74.5 -204t-31 -252h-268zM2396 0q0 150 55 395l29 137
l12 209l281 15q0 -94 -55.5 -362.5t-55.5 -393.5h-266zM2865 741l287 15q27 -273 -10 -592h4q70 139 121.5 298t64.5 283q50 11 102 11q66 0 100 -17t34 -69q0 -95 -104.5 -302.5t-237.5 -367.5h-306q-9 470 -55 741zM3588 0q0 144 53 395l31 137l12 209l281 15
q0 -94 -55.5 -362.5t-55.5 -393.5h-266zM9658 0q0 157 84 532l13 209l280 15q0 -24 -14 -183h4q55 94 127.5 138.5t146.5 44.5q69 0 108.5 -40t39.5 -106q0 -60 -53 -301q-23 -106 -31 -168t-8 -141h-267q0 115 39 307q5 28 12 63t10.5 52t6 34.5t2.5 28.5q0 50 -35 50
q-47 0 -92 -79t-74 -203.5t-32 -252.5h-267zM4598 524q-50 29 -105 45.5t-94 16.5q-36 0 -61 -15t-25 -39t27 -43.5t65.5 -37.5t77 -40.5t65.5 -64t27 -96.5q0 -118 -108.5 -191t-261.5 -73q-69 0 -137.5 15.5t-104.5 41.5l55 190q53 -35 118 -56t110 -21q38 0 59.5 15
t21.5 38t-27 43t-65.5 38.5t-77 42t-65.5 63.5t-27 93q0 115 111.5 191t263.5 76q119 0 213 -37zM5171 756q72 0 155.5 -16.5t143.5 -49.5l-59 -262q-64 -300 -64 -428h-266q0 69 25 229q-32 -106 -106 -174.5t-165 -68.5q-84 0 -128 60.5t-44 170.5q0 74 20 149t62 145.5
t100.5 124.5t143 87t182.5 33zM9529 104q-65 -57 -150.5 -87.5t-174.5 -30.5q-133 0 -212 71t-79 209q0 125 61.5 237t174 182.5t247.5 70.5q111 0 177.5 -48t66.5 -133q0 -118 -123 -197.5t-330 -88.5v-2q0 -131 129 -131q89 0 185 57zM8061 0q0 84 19 201.5t67 330.5
l10 209l281 15q0 -56 -15 -183h5q56 94 129 138.5t145 44.5q70 0 108.5 -40t38.5 -106q0 -60 -53 -301q-22 -102 -29.5 -165t-7.5 -144h-268q0 115 39 307q31 149 31 178q0 50 -35 50q-46 0 -91.5 -79t-74.5 -204t-31 -252h-268zM7717 756q72 0 154.5 -16.5t142.5 -49.5
l-58 -262q-63 -296 -63 -428h-266q0 91 24 229q-32 -106 -105.5 -174.5t-164.5 -68.5q-84 0 -129 60.5t-45 170.5q0 93 33 186.5t94.5 173t161.5 129.5t221 50zM9196 362q95 21 148.5 70t53.5 121q0 63 -45 63q-57 0 -99 -78.5t-58 -175.5zM7530 207q48 0 97.5 88.5
t77.5 206.5q2 17 9.5 50t8.5 40q-32 16 -55 16q-46 0 -91 -55.5t-70.5 -129.5t-25.5 -134q0 -38 13 -60t36 -22zM1870 207q45 0 91.5 81t76.5 193q2 16 16 82l6 29q-29 16 -55 16q-45 0 -89 -55.5t-69.5 -129.5t-25.5 -134q0 -38 13 -60t36 -22zM4987 207q47 0 96.5 89
t75.5 206q9 44 18 90q-29 16 -55 16q-46 0 -90 -55.5t-69 -129.5t-25 -134q0 -82 49 -82z" />
    <glyph glyph-name="symbol2" unicode="&#x2f;symbol&#x32;&#x2f;" horiz-adv-x="1908" 
d="M1012 1167l106 -184l-280 -491h-211l280 491l-106 184h211zM731 1167l107 -184l-283 -491h-211l283 491l-107 184h211zM1540 246h-211l-280 491l104 185l281 -492h211zM1399 0h-211l-281 492l105 184l282 -492h211zM205 246l104 184h563l105 -184h-561l-107 -185zM344 0
l107 184h561l106 -184h-563l-104 -184zM1616 180q37 0 62.5 -26.5t25.5 -63.5t-25.5 -63.5t-62.5 -26.5t-62.5 26.5t-25.5 63.5t25.5 63.5t62.5 26.5zM1698 90q0 34 -24 58t-58 24t-58 -24t-24 -58t24 -58t58 -24t58 24t24 58zM1579 141h37q14 0 22 -4q11 -8 11 -22
q0 -10 -7 -17q-2 -3 -12 -8q14 -3 17 -18q0 -18 6 -33h-17q-1 3 -2 13t-2 14q-2 12 -5.5 16t-16.5 4h-17v-47h-14v102zM1593 96h21q10 0 14 2q6 6 6 15q0 16 -20 16h-21v-33z" />
    <glyph glyph-name="symbol3" unicode="&#x2f;symbol&#x33;&#x2f;" horiz-adv-x="1959" 
d="M1034 1307l140 -553h552l-415 -277l278 -553l-555 277l-553 -553l277 829l-553 416l692 -139zM1667 178q37 0 62.5 -26t25.5 -64q0 -37 -25.5 -62.5t-62.5 -25.5t-62.5 25.5t-25.5 62.5q0 38 25.5 64t62.5 26zM1749 88q0 35 -24 59.5t-58 24.5t-58 -24.5t-24 -59.5
q0 -34 24 -58t58 -24t58 24t24 58zM1630 139h37q17 0 23 -4q12 -6 12 -20q0 -11 -8 -19q-6 -6 -13 -6q15 -6 17 -20q5 -30 6 -33h-14q-2 4 -3 9t-2 11t-2 9q0 11 -4 14.5t-16 3.5h-18v-47h-15v102zM1645 96h20q10 0 14 2q7 7 7 13q0 18 -21 18h-20v-33z" />
    <glyph glyph-name="symbol4" unicode="&#x2f;symbol&#x34;&#x2f;" horiz-adv-x="5339" 
d="M3449 831q0 128 -23 263l258 28l31 -30v-1092h-266v831zM3869 831q0 122 -21 263l258 28l29 -30v-1092h-266v831zM874 207v-207h-655v741q0 165 -14 277l258 14l29 -28v-811zM1894 43l15 223q59 -35 142.5 -54t152.5 -19q102 0 102 73q0 26 -22.5 50.5t-59 46.5t-80.5 46
t-88 54.5t-80.5 66.5t-59 88t-22.5 113q0 141 113 221t283 80q167 0 260 -37l-29 -227q-115 59 -227 59q-56 0 -87.5 -22.5t-31.5 -59.5q0 -31 22.5 -58t59 -50t80.5 -47t88 -54t80.5 -65t59 -86t22.5 -111q0 -134 -109.5 -211t-286.5 -77q-85 0 -171.5 16.5t-125.5 40.5z
M1628 0l-217 -14q-24 37 -43 100h-8q-31 -45 -88 -72.5t-125 -27.5q-89 0 -144 46.5t-55 135.5q0 119 104.5 178t286.5 64v41q0 110 -118 110q-114 0 -222 -59l-16 198q148 54 307 54q156 0 236 -70.5t80 -206.5q0 -52 -4.5 -142t-4.5 -142q0 -102 31 -193zM3330 0l-219 -14
q-27 46 -43 100h-6q-31 -45 -88.5 -72.5t-126.5 -27.5q-87 0 -142 46.5t-55 135.5q0 119 104 178t287 64v41q0 110 -119 110q-111 0 -223 -59l-14 198q148 54 307 54q156 0 234.5 -70.5t78.5 -206.5q0 -52 -3 -142t-3 -142q0 -102 31 -193zM4925 436q0 -49 -2 -74l-22 -22
h-391q28 -170 200 -170q91 0 172 43l15 -166q-92 -61 -260 -61q-186 0 -296 97t-110 275q0 175 107 285.5t270 110.5q147 0 232 -88.5t85 -229.5zM4504 424l159 8q4 28 4 53q0 51 -16.5 86t-52.5 35q-45 0 -68.5 -50.5t-25.5 -131.5zM1339 152v180q-59 -6 -96 -36.5
t-37 -80.5q0 -37 21 -59.5t55 -22.5q32 0 57 19zM3041 152v180q-59 -6 -96 -36.5t-37 -80.5q0 -37 20.5 -59.5t55.5 -22.5q32 0 57 19zM5046 174q37 0 62.5 -26.5t25.5 -63.5t-25.5 -63.5t-62.5 -26.5t-63.5 26.5t-26.5 63.5t26.5 63.5t63.5 26.5zM5128 84q0 34 -24 58
t-58 24t-58 -24t-24 -58t24 -58t58 -24t58 24t24 58zM5009 135h37q15 0 23 -6q10 -5 10 -20q0 -10 -6 -19q-6 -6 -12 -6q13 -3 16 -21q0 -15 6 -30h-16q-1 3 -2 12.5t-2 13.5q-2 11 -6 15t-17 4h-16v-45h-15v102zM5024 90h20q11 0 15 2q6 6 6 14q0 17 -21 17h-20v-33z" />
    <glyph glyph-name="symbol5" unicode="&#x2f;symbol&#x35;&#x2f;" horiz-adv-x="1443" 
d="M475 -12l-270 278l254 479l264 -278zM971 -12l-248 479l262 278l254 -479z" />
    <glyph glyph-name=".notdef" horiz-adv-x="1392" 
d="M205 0v1536h983v-1536h-983zM365 1454l331 -600l332 600h-663zM287 1425v-1310l364 655zM743 770l363 -655v1310zM360 82h672l-336 604z" />
    <glyph glyph-name=".null" horiz-adv-x="0" 
 />
    <glyph glyph-name="nonmarkingreturn" horiz-adv-x="682" 
 />
    <glyph glyph-name="space" unicode=" " horiz-adv-x="512" 
 />
    <glyph glyph-name="exclam" unicode="!" horiz-adv-x="716" 
d="M475 475h-223q-48 543 -88 938l348 21l41 -41q-8 -424 -78 -918zM551 184q0 -85 -60.5 -144.5t-148.5 -59.5q-78 0 -128 48t-50 117q0 83 65.5 143t153.5 60q73 0 120.5 -45.5t47.5 -118.5z" />
    <glyph glyph-name="quotedbl" unicode="&#x22;" horiz-adv-x="874" 
d="M393 1556l21 -61l-95 -588h-120l-86 649h280zM782 1556l21 -61l-94 -588h-121l-86 649h280z" />
    <glyph glyph-name="numbersign" unicode="#" horiz-adv-x="1466" 
d="M106 440h267l57 226h-244l-16 16l25 168h280l70 276l168 -30l16 -17l-57 -229h276l70 276l168 -30l16 -17l-57 -229h223l16 -16l-24 -168h-260l-58 -226h248l17 -16l-25 -168h-285l-69 -276l-168 30l-17 17l58 229h-277l-69 -276l-168 30l-17 17l58 229h-230l-16 16z
M569 440h277l57 226h-276z" />
    <glyph glyph-name="dollar" unicode="$" horiz-adv-x="1056" 
d="M453 -287l-17 17v250q-110 3 -211.5 24.5t-142.5 54.5l18 310q66 -44 176.5 -73.5t190.5 -29.5q119 0 119 111q0 25 -6.5 47t-22.5 42t-30.5 34.5t-43 32.5t-46.5 28.5t-54 30t-53 29.5q-54 31 -92.5 61t-77 75.5t-58.5 107.5t-20 139q0 172 107 279.5t288 139.5v271
l127 6l17 -17v-249q85 0 168.5 -15t134.5 -37l-39 -317q-63 38 -136.5 60t-138.5 22q-68 0 -103.5 -31.5t-35.5 -87.5q0 -23 6.5 -43.5t21 -38.5t29 -32t40.5 -30.5t44.5 -27t52 -28.5t52.5 -29q44 -25 77 -47.5t69 -58t59 -75t38 -95t15 -120.5q0 -178 -106 -283.5
t-289 -131.5v-269z" />
    <glyph glyph-name="percent" unicode="%" horiz-adv-x="1957" 
d="M1511 1434l-870 -1454h-133l868 1454h135zM911 1022q0 -101 -35 -182.5t-95.5 -132.5t-137.5 -78t-164 -27q-179 0 -293 105.5t-114 293.5q0 197 122.5 315t311.5 118q183 0 294 -112t111 -300zM387 1026q0 -129 24.5 -194.5t84.5 -65.5q59 0 79.5 61t20.5 179
q0 134 -23.5 199t-83.5 65q-57 0 -79.5 -57.5t-22.5 -186.5zM1886 260q0 -101 -35 -182.5t-95.5 -132.5t-137.5 -78t-164 -27q-179 0 -293 106t-114 294q0 197 122.5 314.5t311.5 117.5q183 0 294 -112t111 -300zM1362 264q0 -130 24 -195t84 -65q31 0 52 17.5t31 52t14 74
t4 96.5q0 134 -23.5 199t-83.5 65q-57 0 -79.5 -57.5t-22.5 -186.5z" />
    <glyph glyph-name="ampersand" unicode="&#x26;" horiz-adv-x="1642" 
d="M762 1167q-45 0 -71.5 -21.5t-26.5 -62.5q0 -88 145 -264l252 -305q14 86 14 162q0 99 -16 192l358 39l41 -41q-36 -331 -219 -561q40 -38 78.5 -56t89.5 -18q56 0 113 21l20 -219q-36 -21 -102 -37t-135 -16q-163 0 -308 112q-192 -112 -422 -112q-214 0 -332 98.5
t-118 261.5q0 146 89 246t222 135l-22 27q-74 90 -104 167q-29 74 -29 146q0 75 31.5 141.5t90 118.5t151 82.5t206.5 30.5q131 0 241 -40t177 -106l-168 -284q-71 85 -128.5 124t-117.5 39zM487 432q0 -102 68.5 -175t177.5 -73q65 0 129 31q-90 103 -125 145l-202 240
q-48 -73 -48 -168z" />
    <glyph glyph-name="quotesingle" unicode="'" horiz-adv-x="485" 
d="M373 1556l20 -61l-94 -588h-121l-86 649h281z" />
    <glyph glyph-name="parenleft" unicode="(" horiz-adv-x="940" 
d="M768 -406q-292 161 -448 410t-156 571t156 571t448 410l131 -184q-184 -162 -269 -357t-85 -440t85 -439.5t269 -356.5z" />
    <glyph glyph-name="parenright" unicode=")" horiz-adv-x="940" 
d="M776 575q0 -322 -156 -571t-448 -410l-131 185q184 162 269 356.5t85 439.5t-85 440t-269 357l131 184q292 -161 448 -410t156 -571z" />
    <glyph glyph-name="asterisk" unicode="*" horiz-adv-x="1034" 
d="M414 690l-15 49l72 305l-270 -239l-113 192l37 37l307 90l-350 115l111 193l49 -13l231 -217l-74 357h222l14 -50l-74 -311l273 246l112 -193l-37 -37l-301 -92l344 -112l-110 -193l-49 12l-234 222l76 -361h-221z" />
    <glyph glyph-name="plus" unicode="+" 
d="M1085 621h-358v-365h-180l-2 365h-381v174q98 2 381 6l-2 356h184v-354q141 2 363 2l16 -17z" />
    <glyph glyph-name="comma" unicode="," horiz-adv-x="610" 
d="M72 -303q132 144 172 287q-65 12 -108.5 64t-43.5 124q0 90 65 156.5t156 66.5q88 0 146.5 -57.5t58.5 -165.5q0 -80 -34.5 -168.5t-89.5 -164.5t-110 -135.5t-108 -102.5z" />
    <glyph glyph-name="hyphen" unicode="-" horiz-adv-x="849" 
d="M61 514v102h727v-102h-727z" />
    <glyph glyph-name="period" unicode="." horiz-adv-x="614" 
d="M520 190q0 -89 -62.5 -149.5t-154.5 -60.5t-150.5 58.5t-58.5 143.5q0 88 66.5 150.5t158.5 62.5q87 0 144 -57t57 -148z" />
    <glyph glyph-name="slash" unicode="/" horiz-adv-x="749" 
d="M676 1526l16 -17l-383 -1529l-168 30l-16 17l383 1529z" />
    <glyph glyph-name="zero" unicode="0" horiz-adv-x="1361" 
d="M1270 713q0 -176 -49 -318t-132.5 -231.5t-192 -136.5t-230.5 -47t-226.5 46.5t-182 134.5t-121.5 223t-44 302q0 171 46.5 312.5t128 236.5t192.5 147t239 52q257 0 414.5 -196.5t157.5 -524.5zM471 717q0 -98 6 -174.5t21 -141.5t39.5 -107t61.5 -65.5t87 -23.5
t86.5 24t59 65t36 105.5t18.5 135t5 163.5q0 126 -10 215.5t-33.5 158t-65.5 102.5t-104 34q-113 0 -160 -117t-47 -374z" />
    <glyph glyph-name="one" unicode="1" horiz-adv-x="808" 
d="M283 1063h-7l-194 -21l-51 226l573 164l41 -41v-1391h-369v786q0 186 7 277z" />
    <glyph glyph-name="two" unicode="2" horiz-adv-x="1290" 
d="M217 0l-41 256q59 37 128 91t146.5 129.5t140 153.5t103.5 166.5t41 164.5q0 90 -50 148t-142 58q-69 0 -157 -37t-173 -100l-35 291q85 45 209.5 79t245.5 34q213 0 347 -107.5t134 -279.5q0 -103 -51.5 -215t-137.5 -211t-188 -184t-213 -150h242q179 0 328 20
l-21 -307h-856z" />
    <glyph glyph-name="three" unicode="3" horiz-adv-x="1097" 
d="M84 1325q80 44 204 76.5t236 32.5q187 0 308.5 -89.5t121.5 -226.5q0 -111 -79 -210.5t-207 -139.5q164 -28 261 -124.5t97 -237.5q0 -189 -167 -307.5t-433 -118.5q-196 0 -354 47l32 245q56 -20 149 -33.5t157 -13.5q105 0 171 43.5t66 124.5q0 162 -291 162
q-88 0 -176 -14v245q78 7 146.5 25.5t125.5 48t90 74.5t33 100q0 60 -40 96.5t-121 36.5q-68 0 -155.5 -25.5t-160.5 -66.5z" />
    <glyph glyph-name="four" unicode="4" horiz-adv-x="1320" 
d="M51 541l553 868l406 23l41 -41v-816q128 7 209 19l-21 -285h-188v-309h-349v309h-610zM348 575v-6q110 4 354 4v195q0 263 15 395h-6z" />
    <glyph glyph-name="five" unicode="5" horiz-adv-x="1169" 
d="M133 27l33 256q56 -20 146 -33.5t151 -13.5q107 0 173 51t66 151q0 96 -58 141.5t-155 45.5q-124 0 -268 -58l-51 31v815h530q172 0 328 21l-20 -308h-541v-264q93 19 170 19q196 0 320 -109t124 -307q0 -117 -47 -210t-130 -152.5t-193.5 -91t-239.5 -31.5
q-180 0 -338 47z" />
    <glyph glyph-name="six" unicode="6" horiz-adv-x="1234" 
d="M647 -20q-114 0 -211.5 37.5t-173 112t-118 195t-42.5 275.5q0 175 54.5 327.5t153.5 265t247 177t326 64.5q120 0 174 -21l-31 -268q-72 22 -145 22q-64 0 -126 -22.5t-117.5 -65.5t-95.5 -115t-55 -163h7q103 49 243 49q190 0 303 -107t113 -297q0 -111 -40.5 -200.5
t-110 -147t-160.5 -88t-195 -30.5zM623 625q-38 0 -78.5 -14t-63.5 -36q0 -209 30.5 -289.5t113.5 -80.5q149 0 149 207q0 101 -38 157t-113 56z" />
    <glyph glyph-name="seven" unicode="7" horiz-adv-x="1116" 
d="M51 1085l27 328h932l45 -41v-205q-251 -257 -372 -541.5t-130 -625.5h-379q20 320 172 622t375 498v6h-238q-255 0 -432 -41z" />
    <glyph glyph-name="eight" unicode="8" horiz-adv-x="1277" 
d="M621 -20q-243 0 -386 103t-143 271q0 95 48 175t117.5 128t150.5 70v6q-54 32 -92 60.5t-78.5 70t-62 93.5t-21.5 112q0 157 138 261t361 104q95 0 175 -21t133.5 -55.5t91 -80t54.5 -93.5t17 -97q0 -98 -68 -186t-179 -143v-6q309 -136 309 -363q0 -79 -36 -151.5
t-104 -130.5t-178.5 -92.5t-246.5 -34.5zM641 1229q-63 0 -106 -37.5t-43 -101.5t47 -120t133 -96q53 44 83.5 101t30.5 112q0 64 -40.5 103t-104.5 39zM608 582q-75 -33 -121.5 -93t-46.5 -131q0 -76 53 -125t142 -49q86 0 144.5 44.5t58.5 121.5q0 144 -230 232z" />
    <glyph glyph-name="nine" unicode="9" horiz-adv-x="1234" 
d="M512 528q-194 0 -312 111.5t-118 310.5q0 150 70 261.5t185.5 167t258.5 55.5q112 0 207 -36.5t170 -109t117.5 -192t42.5 -273.5q0 -133 -30.5 -256t-93.5 -230t-152.5 -186.5t-214 -125t-271.5 -45.5q-95 0 -160 16l-4 262q73 -12 139 -12q179 0 276 84.5t130 253.5h-7
q-90 -56 -233 -56zM596 1188q-66 0 -100.5 -59t-34.5 -156q0 -106 42.5 -163.5t121.5 -57.5q64 0 129 30q0 214 -39.5 310t-118.5 96z" />
    <glyph glyph-name="colon" unicode=":" horiz-adv-x="614" 
d="M520 840q0 -89 -62.5 -150t-154.5 -61t-150.5 58.5t-58.5 143.5q0 88 66.5 150.5t158.5 62.5q87 0 144 -56.5t57 -147.5zM520 190q0 -89 -62.5 -149.5t-154.5 -60.5t-150.5 58.5t-58.5 143.5q0 88 66.5 150.5t158.5 62.5q87 0 144 -57t57 -148z" />
    <glyph glyph-name="semicolon" unicode=";" horiz-adv-x="610" 
d="M518 840q0 -89 -62.5 -150t-154.5 -61t-150.5 58.5t-58.5 143.5q0 88 66.5 150.5t158.5 62.5q87 0 144 -56.5t57 -147.5zM72 -303q132 144 172 287q-65 12 -108.5 64t-43.5 124q0 90 65 156.5t156 66.5q88 0 146.5 -57.5t58.5 -165.5q0 -80 -34.5 -168.5t-89.5 -164.5
t-110 -135.5t-108 -102.5z" />
    <glyph glyph-name="less" unicode="&#x3c;" 
d="M1085 190l-931 455v113l8 22q169 88 472 230.5t449 199.5v-194l-637 -303l639 -328v-195z" />
    <glyph glyph-name="equal" unicode="=" 
d="M1085 825h-921v174q383 11 926 11l16 -17zM1085 416h-921v174q348 10 926 10l16 -16z" />
    <glyph glyph-name="greater" unicode="&#x3e;" 
d="M184 190v195l639 328l-637 303v194q146 -57 450 -200t472 -230l8 -22v-113z" />
    <glyph glyph-name="question" unicode="?" horiz-adv-x="1077" 
d="M547 463l-207 -10q-37 66 -37 135q0 50 22.5 95.5t56 77.5t73 66.5t73 63.5t56 67.5t22.5 79.5q0 60 -44 96.5t-116 36.5q-68 0 -145 -37t-131 -100l-129 197q183 203 483 203q213 0 337 -98t124 -251q0 -73 -31.5 -138t-78 -109t-101.5 -85t-101.5 -69.5t-78 -60
t-31.5 -58.5v-86zM651 184q0 -85 -60.5 -144.5t-148.5 -59.5q-78 0 -128 48t-50 117q0 83 65.5 143t153.5 60q73 0 120.5 -45.5t47.5 -118.5z" />
    <glyph glyph-name="at" unicode="@" horiz-adv-x="2330" 
d="M1645 -328q-112 -91 -274 -147.5t-349 -56.5q-259 0 -464 113t-320 318t-115 466q0 162 46.5 317.5t128 285.5t196.5 240t248.5 186.5t287 119t309.5 42.5q190 0 353.5 -64.5t276 -176t176 -263t63.5 -323.5q0 -153 -50.5 -291t-137.5 -239t-210.5 -160t-263.5 -59
q-90 0 -154.5 25.5t-96.5 64.5t-46 91.5t-11.5 101t15.5 97.5h-12q-17 -64 -53.5 -129t-86 -122t-115.5 -93t-134 -36q-112 0 -176 92t-64 250q0 85 20 170.5t58 166.5t98 151t135.5 122t175.5 82t212 30q102 0 216.5 -23t198.5 -67l-79 -364q-12 -56 -18.5 -88t-15 -81
t-10.5 -77.5t-2 -65.5t7.5 -58t20.5 -41t35 -29t52 -9q62 0 128.5 43t122.5 116.5t92 185.5t36 237q0 157 -57.5 293.5t-158 232.5t-241.5 150.5t-303 54.5q-154 0 -312 -49.5t-298.5 -145.5t-250 -224.5t-174 -299t-64.5 -356.5q0 -173 58 -322.5t162.5 -257t257 -168.5
t333.5 -61q166 0 293.5 44.5t265.5 123.5zM1059 287q67 0 137 128t104 292l23 110q-44 23 -76 23q-64 0 -125 -77.5t-96 -179.5t-35 -184q0 -54 18 -83t50 -29z" />
    <glyph glyph-name="A" unicode="A" horiz-adv-x="1331" 
d="M369 0h-359l340 1188q41 139 56 225l458 19l62 -52l395 -1380h-379l-72 266h-430zM537 625l-25 -93h287l-25 91q-80 303 -112 487h-11q-48 -239 -114 -485z" />
    <glyph glyph-name="B" unicode="B" horiz-adv-x="1316" 
d="M709 0h-576v1047q0 237 -20 366h608q220 0 350.5 -107t130.5 -272q0 -205 -215 -297q268 -88 268 -348q0 -117 -72 -206.5t-195.5 -136t-278.5 -46.5zM655 1147h-143v-316h143q83 0 125.5 43t42.5 113q0 75 -43 117.5t-125 42.5zM674 586h-162v-320h162q91 0 141.5 43
t50.5 113q0 75 -49 119.5t-143 44.5z" />
    <glyph glyph-name="C" unicode="C" horiz-adv-x="1175" 
d="M1102 365l43 -304q-163 -81 -395 -81q-323 0 -506 188.5t-183 521.5q0 216 89.5 386t250 264t365.5 94q224 0 371 -82l-72 -318q-162 92 -295 92q-146 0 -232.5 -116.5t-86.5 -311.5q0 -193 93 -302t257 -109q160 0 301 78z" />
    <glyph glyph-name="D" unicode="D" horiz-adv-x="1417" 
d="M1356 719q0 -171 -58 -309t-158.5 -226.5t-234.5 -136t-289 -47.5h-483v1047q0 237 -20 366h544q328 0 513.5 -185.5t185.5 -508.5zM637 1147h-125v-881h137q318 0 318 434q0 73 -10.5 137t-35 122t-62 99t-94 65t-128.5 24z" />
    <glyph glyph-name="E" unicode="E" horiz-adv-x="1136" 
d="M1085 287v-287h-952v1047q0 237 -20 366h919l41 -41l-8 -246l-553 21v-330l451 10l-11 -260l-440 15v-316z" />
    <glyph glyph-name="F" unicode="F" horiz-adv-x="1054" 
d="M512 0h-379v1047q0 237 -20 366h878l41 -41l-8 -246l-512 21v-371l410 10l-11 -260l-399 15v-541z" />
    <glyph glyph-name="G" unicode="G" horiz-adv-x="1304" 
d="M1192 682l41 -41l-6 -580q-212 -81 -449 -81q-344 0 -530.5 184t-186.5 502q0 225 91 398.5t262 271.5t397 98q110 0 215 -22.5t182 -59.5l-61 -318q-155 103 -318 103q-172 0 -275 -115.5t-103 -331.5q0 -198 92.5 -311t271.5 -113q39 0 62 2q-2 184 -31 394z" />
    <glyph glyph-name="H" unicode="H" horiz-adv-x="1464" 
d="M512 0h-379v1030q0 224 -20 383l358 21l41 -41v-559h440v196q0 224 -20 383l358 21l41 -41v-1393h-379v567h-440v-567z" />
    <glyph glyph-name="I" unicode="I" horiz-adv-x="645" 
d="M512 0h-379v1030q0 224 -20 383l358 21l41 -41v-1393z" />
    <glyph glyph-name="J" unicode="J" horiz-adv-x="645" 
d="M102 -461l-116 154q147 222 147 594v743q0 188 -31 365l371 39l39 -39v-1108q0 -146 -17.5 -248t-63.5 -193t-125 -163t-204 -144z" />
    <glyph glyph-name="K" unicode="K" horiz-adv-x="1357" 
d="M133 1030q0 212 -20 383l358 21l41 -41v-609h123q147 329 278 650l359 -21l20 -39l-354 -631l403 -743l-438 -10q-131 231 -268 528h-123v-518h-379v1030z" />
    <glyph glyph-name="L" unicode="L" horiz-adv-x="1064" 
d="M1044 287v-287h-911v1030q0 224 -20 383l358 21l41 -41v-1127z" />
    <glyph glyph-name="M" unicode="M" horiz-adv-x="1847" 
d="M1591 1434l51 -41l134 -1393h-371l-47 496q-17 167 -37 577h-6q-25 -241 -101 -577l-110 -496h-422l-111 496q-74 333 -100 579h-6q-15 -340 -39 -579l-47 -496h-307l135 1413l516 17l86 -386q80 -354 113 -698h6q16 165 36 301t35 212t39 185l80 369z" />
    <glyph glyph-name="N" unicode="N" horiz-adv-x="1454" 
d="M786 903q114 -193 197 -399h6q-26 213 -26 409q0 275 -21 500l338 17l41 -41v-1389h-358q-66 110 -162 281.5t-135 236.5q-122 205 -195 373h-6q27 -171 27 -393v-498h-359v1047q0 207 -20 366l379 14q255 -458 294 -524z" />
    <glyph glyph-name="O" unicode="O" horiz-adv-x="1464" 
d="M1403 711q0 -174 -53.5 -314t-147 -230.5t-218 -138.5t-269.5 -48q-144 0 -264.5 48.5t-207 137.5t-134.5 222t-48 296q0 339 193 544.5t498 205.5q199 0 347 -90.5t226 -254t78 -378.5zM451 717q0 -130 27.5 -230.5t93.5 -165.5t163 -65q279 0 279 451q0 450 -277 450
q-97 0 -162 -57.5t-94.5 -154t-29.5 -228.5z" />
    <glyph glyph-name="P" unicode="P" horiz-adv-x="1243" 
d="M512 0h-379v1047q0 237 -20 366h561q249 0 393.5 -132t144.5 -353q0 -158 -77.5 -274t-206.5 -173t-293 -57h-123v-424zM590 1147h-78v-457h78q127 0 180 57.5t53 165.5q0 234 -233 234z" />
    <glyph glyph-name="Q" unicode="Q" horiz-adv-x="1423" 
d="M1403 711q0 -296 -146.5 -481.5t-384.5 -233.5q208 -94 670 -94l-41 -320q-132 0 -266.5 36t-248 95.5t-207 128.5t-165.5 144q-252 33 -402.5 217t-150.5 481q0 339 193 544.5t498 205.5q199 0 347 -90.5t226 -254t78 -378.5zM451 717q0 -130 27.5 -230.5t93.5 -165.5
t163 -65q279 0 279 451q0 450 -277 450q-97 0 -162 -57.5t-94.5 -154t-29.5 -228.5z" />
    <glyph glyph-name="R" unicode="R" horiz-adv-x="1284" 
d="M512 0h-379v1047q0 237 -20 366h503q289 0 442.5 -120.5t153.5 -336.5q0 -141 -63.5 -240.5t-167.5 -152.5l303 -563l-440 -10q-108 235 -195 475h-137v-465zM590 1147h-78v-426h78q127 0 180 55.5t53 157.5q0 105 -54 159t-179 54z" />
    <glyph glyph-name="S" unicode="S" horiz-adv-x="1126" 
d="M1044 403q0 -205 -149.5 -314t-398.5 -109q-119 0 -239.5 22.5t-174.5 56.5l20 310q73 -44 192.5 -73.5t205.5 -29.5q155 0 155 111q0 30 -13 56.5t-28 44.5t-51 41t-56 33.5t-70.5 34.5t-69.5 34q-62 32 -105.5 61.5t-87.5 75t-67 107.5t-23 139q0 137 74.5 235.5
t202 146.5t294.5 48q94 0 187.5 -15t150.5 -37l-41 -317q-151 82 -303 82q-86 0 -131 -31.5t-45 -87.5q0 -27 12 -51.5t28 -41.5t48.5 -37.5t55.5 -32t68 -33t69 -33.5q49 -25 85.5 -47.5t77.5 -58t67 -74.5t43 -95t17 -121z" />
    <glyph glyph-name="T" unicode="T" horiz-adv-x="1198" 
d="M788 0h-378v1135q-58 -2 -390 -17l21 295h1116l21 -295q-332 15 -390 17v-1135z" />
    <glyph glyph-name="U" unicode="U" horiz-adv-x="1392" 
d="M113 1030q0 206 -21 383l359 21l41 -41v-869q0 -128 55.5 -194t161.5 -66q105 0 159 66t54 194v588q0 157 -21 301l379 17v-938q0 -100 -30.5 -184t-84.5 -144t-128.5 -102t-162.5 -62t-186 -20q-165 0 -293 56t-205 173.5t-77 282.5v538z" />
    <glyph glyph-name="V" unicode="V" horiz-adv-x="1312" 
d="M446 0l-440 1395l406 39l206 -754q57 -202 74 -299q26 135 74 295l217 758l303 -21l21 -39l-441 -1374h-420z" />
    <glyph glyph-name="W" unicode="W" horiz-adv-x="1966" 
d="M356 0l-350 1395l406 39l143 -713q11 -54 22 -119t22 -134t15 -93q12 64 74 342l152 696l364 21l150 -713q25 -110 71 -346q36 221 64 350l147 709l303 -21l21 -39l-350 -1374h-420l-109 457q-19 79 -48 229t-44 215h-6q-67 -325 -98 -450l-109 -451h-420z" />
    <glyph glyph-name="X" unicode="X" horiz-adv-x="1241" 
d="M29 0l-23 41l379 625l-379 737l408 31l241 -529h7l227 529l323 -25l23 -41l-371 -680l371 -688h-422l-219 449h-4l-232 -449h-329z" />
    <glyph glyph-name="Y" unicode="Y" horiz-adv-x="1196" 
d="M408 442l-402 953l406 39l125 -398q82 -255 96 -309h6q10 31 48 143t54 162l125 402l303 -21l21 -39l-404 -932v-442h-378v442z" />
    <glyph glyph-name="Z" unicode="Z" horiz-adv-x="1196" 
d="M123 0l-62 246l637 858l-606 -19l21 328h915l96 -246l-628 -856l614 17l-20 -328h-967z" />
    <glyph glyph-name="bracketleft" unicode="[" horiz-adv-x="909" 
d="M246 1556h561v-274h-213v-1413h213v-275h-561v1962z" />
    <glyph glyph-name="backslash" unicode="\" horiz-adv-x="813" 
d="M506 -20l-383 1529l16 17l168 30l383 -1529l-16 -17z" />
    <glyph glyph-name="bracketright" unicode="]" horiz-adv-x="909" 
d="M664 1556v-1962h-562v275h213v1413h-213v274h562z" />
    <glyph glyph-name="asciicircum" unicode="^" horiz-adv-x="1077" 
d="M358 430h-194l307 696h135l307 -696h-194l-184 426z" />
    <glyph glyph-name="underscore" unicode="_" horiz-adv-x="962" 
d="M0 -492v103h963v-103h-963z" />
    <glyph glyph-name="grave" unicode="`" horiz-adv-x="565" 
d="M412 1159q-193 149 -320 348l21 62l327 16q37 -183 115 -405z" />
    <glyph glyph-name="a" unicode="a" horiz-adv-x="1077" 
d="M623 119q-43 -64 -122 -101.5t-175 -37.5q-123 0 -199 64t-76 187q0 112 70.5 187.5t189 110t283.5 38.5v58q0 153 -164 153q-155 0 -309 -82l-21 277q84 29 201.5 50t224.5 21q217 0 327 -96.5t110 -285.5q0 -72 -5.5 -198t-5.5 -198q0 -143 43 -266l-303 -20
q-33 53 -59 139h-10zM410 297q0 -51 28.5 -82t75.5 -31q44 0 80 25v252q-81 -10 -132.5 -52t-51.5 -112z" />
    <glyph glyph-name="b" unicode="b" horiz-adv-x="1177" 
d="M1106 522q0 -259 -125 -400.5t-356 -141.5q-125 0 -230 30l-293 -30v1173q0 177 -30 365l358 38l41 -40v-555q112 83 246 83q183 0 286 -142t103 -380zM555 819q-47 0 -84 -18v-627q38 -10 72 -10q96 0 140 83.5t44 254.5q0 167 -41 242t-131 75z" />
    <glyph glyph-name="c" unicode="c" horiz-adv-x="1007" 
d="M956 958l-77 -274q-129 94 -244 94q-85 0 -134.5 -66.5t-49.5 -179.5q0 -141 68.5 -218.5t191.5 -77.5q83 0 204 59l21 -232q-125 -83 -328 -83q-243 1 -389.5 144t-146.5 378q0 238 153.5 390t392.5 152q202 0 338 -86z" />
    <glyph glyph-name="d" unicode="d" horiz-adv-x="1202" 
d="M739 115q-106 -135 -276 -135q-177 0 -284 130t-107 357q0 273 154.5 425t410.5 152q26 0 72 -4v113q0 181 -29 365l356 38l41 -40v-1250q0 -139 43 -266l-311 -20q-24 37 -61 135h-9zM451 518q0 -151 46.5 -242.5t131.5 -91.5q42 0 80 23v653h-17q-241 0 -241 -342z" />
    <glyph glyph-name="e" unicode="e" horiz-adv-x="1097" 
d="M1034 502l-30 -31h-545q40 -235 278 -235q129 0 240 59l20 -232q-134 -83 -362 -83q-257 0 -410 135t-153 381q0 243 148.5 395.5t375.5 152.5q202 0 321 -122t119 -316q0 -69 -2 -104zM582 840q-64 0 -97.5 -71t-33.5 -181l223 12q4 36 4 74q0 72 -23 119t-73 47z" />
    <glyph glyph-name="f" unicode="f" horiz-adv-x="813" 
d="M543 0h-369v809l-143 10v123l143 41q-6 77 -6 137q0 210 129 323t358 113q88 0 170 -19.5t131 -49.5l-71 -268q-124 71 -219 71q-65 0 -100.5 -37t-35.5 -104q0 -23 7 -166h251l25 -37l-10 -147l-260 8v-807z" />
    <glyph glyph-name="g" unicode="g" horiz-adv-x="1103" 
d="M190 102q0 118 136 199q-121 41 -192 128t-71 208q0 169 132.5 288t343.5 119q171 0 270 -71q32 79 101 119.5t151 40.5l43 -37l-10 -217h-209l-4 -9q102 -78 102 -225q0 -162 -129 -268.5t-334 -106.5q-39 0 -59 2q-2 -8 -2 -24q0 -41 21.5 -55t68.5 -17l196 -12
q156 -9 250.5 -82.5t94.5 -206.5q0 -181 -167.5 -294t-439.5 -113q-218 0 -350.5 71.5t-132.5 184.5q0 72 54 123t132 67l123 -51q-2 -8 -2 -25q0 -85 63 -146t165 -61q80 0 133 39.5t53 106.5q0 114 -162 133l-178 20q-90 11 -140.5 55t-50.5 117zM635 659q0 106 -25 158.5
t-82 52.5q-116 0 -116 -215q0 -211 114 -211q57 0 83 52.5t26 162.5z" />
    <glyph glyph-name="h" unicode="h" horiz-adv-x="1187" 
d="M471 0h-369v1153q0 194 -30 365l358 38l41 -40v-601q144 129 307 129q134 0 210.5 -87.5t76.5 -239.5v-717h-369v649q0 77 -28 113.5t-88 36.5q-53 0 -109 -33v-766z" />
    <glyph glyph-name="i" unicode="i" horiz-adv-x="604" 
d="M518 1382q0 -94 -68 -160.5t-165 -66.5q-87 0 -142 53.5t-55 130.5q0 92 72.5 159t169.5 67q83 0 135.5 -50.5t52.5 -132.5zM113 0v641q0 188 -31 365l358 38l41 -40v-1004h-368z" />
    <glyph glyph-name="j" unicode="j" horiz-adv-x="610" 
d="M516 1382q0 -94 -68 -160.5t-165 -66.5q-87 0 -142 53.5t-55 130.5q0 92 72.5 159t169.5 67q83 0 135.5 -50.5t52.5 -132.5zM143 -532l-143 122q119 195 119 502v549q0 188 -31 365l358 38l41 -40v-902q0 -239 -72.5 -379t-271.5 -255z" />
    <glyph glyph-name="k" unicode="k" horiz-adv-x="1144" 
d="M102 1153q0 194 -30 365l358 38l41 -40v-936h61q106 204 216 464l311 -20l20 -41l-241 -371q113 -245 307 -612l-422 -20q-112 241 -180 415h-72v-395h-369v1153z" />
    <glyph glyph-name="l" unicode="l" horiz-adv-x="604" 
d="M481 0h-368v1153q0 188 -31 365l358 38l41 -40v-1516z" />
    <glyph glyph-name="m" unicode="m" horiz-adv-x="1792" 
d="M481 0h-368v641q0 154 -41 344l348 59q28 -72 45 -143q149 143 323 143q90 0 156 -41t98 -116q157 157 340 157q134 0 210.5 -87.5t76.5 -239.5v-717h-369v649q0 77 -28 113.5t-88 36.5q-56 0 -111 -35q2 -14 2 -47v-717h-368v649q0 77 -28.5 113.5t-88.5 36.5
q-53 0 -109 -33v-766z" />
    <glyph glyph-name="n" unicode="n" horiz-adv-x="1198" 
d="M481 0h-368v641q0 154 -41 344l348 59q28 -72 45 -143q149 143 323 143q134 0 210.5 -87.5t76.5 -239.5v-717h-368v649q0 77 -28.5 113.5t-88.5 36.5q-53 0 -109 -33v-766z" />
    <glyph glyph-name="o" unicode="o" horiz-adv-x="1163" 
d="M1092 518q0 -130 -42.5 -234.5t-115.5 -169.5t-167 -99.5t-200 -34.5t-196 34t-157 97.5t-104.5 161t-37.5 219.5q0 252 149 402t377 150q223 0 358.5 -143t135.5 -383zM451 522q0 -167 30.5 -252.5t104.5 -85.5q39 0 64.5 22.5t39 67t18.5 97.5t5 127q0 173 -29.5 257.5
t-103.5 84.5q-70 0 -99.5 -76t-29.5 -242z" />
    <glyph glyph-name="p" unicode="p" horiz-adv-x="1189" 
d="M113 -492v1133q0 148 -41 344l348 59q25 -63 35 -108q120 108 278 108q180 0 282.5 -142t102.5 -380q0 -259 -125 -400.5t-360 -141.5q-83 0 -152 14v-123q0 -175 29 -365l-356 -38zM567 819q-49 0 -86 -18v-627q38 -10 72 -10q97 0 141.5 83t44.5 255q0 167 -41 242
t-131 75z" />
    <glyph glyph-name="q" unicode="q" horiz-adv-x="1200" 
d="M709 -492v572q-100 -100 -244 -100q-178 0 -285.5 138.5t-107.5 364.5q0 259 142.5 410t377.5 151q102 0 217 -28l268 28v-1173q0 -175 29 -365l-356 -38zM451 512q0 -153 45 -240.5t129 -87.5q43 0 84 23v653h-19q-239 0 -239 -348z" />
    <glyph glyph-name="r" unicode="r" horiz-adv-x="851" 
d="M481 0h-368v641q0 154 -41 344l348 59q49 -131 61 -245q44 118 101.5 181.5t146.5 63.5q64 0 102 -30l-24 -350q-72 16 -139 16q-115 0 -187 -41v-639z" />
    <glyph glyph-name="s" unicode="s" horiz-adv-x="925" 
d="M840 993l-21 -270q-79 40 -163 63t-140 23q-49 0 -77.5 -17.5t-28.5 -46.5q0 -27 25.5 -49.5t66.5 -40.5t90.5 -37.5t99 -47t90.5 -61.5t66.5 -87.5t25.5 -120.5q0 -150 -121 -235.5t-329 -85.5q-106 0 -209 21.5t-164 57.5l21 265q88 -50 187.5 -79.5t166.5 -29.5
q100 0 100 61q0 27 -25.5 50.5t-66.5 42t-90.5 38.5t-99.5 47t-91 61t-66.5 86.5t-25.5 117.5q0 149 124.5 237t332.5 88q172 0 322 -51z" />
    <glyph glyph-name="t" unicode="t" horiz-adv-x="858" 
d="M801 840l-289 8v-457q0 -155 125 -155q76 0 160 49l20 -222q-131 -83 -303 -83q-175 0 -273 105t-98 304v467l-133 4v123l144 41l92 268l225 17l45 -43l-4 -242h281l24 -41z" />
    <glyph glyph-name="u" unicode="u" horiz-adv-x="1187" 
d="M113 639q0 181 -29 365l356 40l41 -40v-613q0 -72 27 -105.5t84 -33.5q52 0 104 27v745l369 20v-778q0 -123 33 -266l-303 -20q-38 68 -60 149h-12q-67 -72 -150.5 -110.5t-169.5 -38.5q-131 0 -210.5 80.5t-79.5 213.5v365z" />
    <glyph glyph-name="v" unicode="v" horiz-adv-x="1038" 
d="M1028 983l-295 -983h-430l-293 1014l389 30l113 -538q38 -180 45 -281h6q7 70 51 281l111 538l283 -20z" />
    <glyph glyph-name="w" unicode="w" horiz-adv-x="1671" 
d="M248 0l-238 1014l379 30l90 -518q4 -24 13.5 -74.5t16 -92t9.5 -72.5h6q4 38 18.5 122.5t18.5 116.5l76 498h469l80 -498q4 -24 13.5 -74.5t16 -92t9.5 -72.5h6q4 37 37 239l86 518l286 -20l21 -41l-238 -983h-471l-71 418q-41 243 -47 319h-7q-3 -38 -8.5 -83t-10.5 -75
t-14.5 -84.5t-13.5 -78.5l-71 -416h-461z" />
    <glyph glyph-name="x" unicode="x" horiz-adv-x="1026" 
d="M627 0l-166 332l-144 -332h-286l-21 41l275 471l-275 502l379 30l170 -374l150 374l286 -20l21 -41l-279 -473l279 -510h-389z" />
    <glyph glyph-name="y" unicode="y" horiz-adv-x="1038" 
d="M1028 983l-256 -874q-23 -80 -44 -140.5t-53.5 -131t-68.5 -121t-87 -100t-111 -80t-140 -49.5t-174 -19l-51 307q339 0 434 225h-174l-293 1014l389 30l113 -538q38 -180 45 -281h6q5 51 51 281l111 538l283 -20z" />
    <glyph glyph-name="z" unicode="z" horiz-adv-x="942" 
d="M47 727l21 297h772l41 -236l-432 -501h124q179 0 328 20l-20 -307h-799l-41 236l451 499z" />
    <glyph glyph-name="braceleft" unicode="{" horiz-adv-x="960" 
d="M373 250q0 101 -48 154.5t-161 66.5v205q113 13 161 66t48 155q0 62 -32 185.5t-32 185.5q0 155 126.5 221.5t416.5 66.5l6 -204q-87 0 -135.5 -46t-48.5 -126q0 -55 25.5 -162t25.5 -160q0 -111 -70 -184.5t-188 -100.5q118 -27 188 -100t70 -184q0 -45 -25.5 -155.5
t-25.5 -166.5q0 -80 48.5 -126t135.5 -46l-6 -205q-290 0 -416.5 67t-126.5 222q0 64 32 194t32 177z" />
    <glyph glyph-name="bar" unicode="|" horiz-adv-x="665" 
d="M262 -532l-16 16v2066l157 6l17 -16v-2066z" />
    <glyph glyph-name="braceright" unicode="}" horiz-adv-x="960" 
d="M797 471l-209 -221q0 -47 31.5 -177t31.5 -194q0 -155 -126.5 -222t-415.5 -67l-7 205q87 0 136 46t49 126q0 56 -25.5 166.5t-25.5 155.5q0 111 70 184t188 100q-118 27 -188 100.5t-70 184.5q0 53 25.5 160t25.5 162q0 80 -49 126t-136 46l7 204q290 0 416 -66.5
t126 -221.5q0 -62 -31.5 -186t-31.5 -185q0 -102 48 -155t161 -66v-205z" />
    <glyph glyph-name="asciitilde" unicode="~" 
d="M903 434q-51 0 -285 51.5t-264 51.5q-5 0 -11 -3t-13.5 -10t-14.5 -13.5t-17.5 -19t-18 -21.5t-20.5 -25t-21 -25l-105 69q21 38 36.5 64.5t41.5 63.5t48.5 60t51 39.5t56.5 16.5q51 0 285 -51t263 -51q4 0 8.5 2t10 6t10.5 8.5t12.5 12.5t13 14t14.5 16.5t15 18
t16.5 19.5t16.5 20l105 -70q-21 -38 -36.5 -64.5t-41.5 -63.5t-48.5 -60t-51 -39.5t-56.5 -16.5z" />
    <glyph glyph-name="nbspace" unicode="&#xa0;" horiz-adv-x="1228" 
 />
    <glyph glyph-name="exclamdown" unicode="&#xa1;" horiz-adv-x="716" 
d="M166 840q0 85 60.5 144.5t148.5 59.5q78 0 128 -48t50 -117q0 -83 -65.5 -143t-153.5 -60q-73 0 -120.5 45.5t-47.5 118.5zM242 549h223q48 -543 88 -938l-348 -21l-41 41q8 424 78 918z" />
    <glyph glyph-name="cent" unicode="&#xa2;" horiz-adv-x="1007" 
d="M508 -287l-16 17v260q-194 37 -307 185t-113 368q0 231 127 388.5t333 186.5v268l127 7l17 -17v-254q164 -12 280 -84l-77 -274q-129 94 -244 94q-85 0 -134.5 -77t-49.5 -208q0 -161 68.5 -249t191.5 -88q83 0 204 59l21 -232q-115 -77 -301 -83v-261z" />
    <glyph glyph-name="sterling" unicode="&#xa3;" horiz-adv-x="1263" 
d="M313 569l-237 11l26 122l220 41q7 159 44.5 284.5t107.5 217t178 140.5t249 49q117 0 211 -31t152 -80l-115 -268q-140 112 -244 112q-99 0 -155 -98.5t-74 -325.5h364l17 -36l-39 -138h-367q-56 -317 -200 -467q72 -42 123.5 -68t128.5 -56.5t161.5 -46t175.5 -15.5
q112 0 224 23l-82 -306q-55 -16 -150 -16q-69 0 -137.5 14.5t-123 34.5t-115 56t-101.5 64.5t-93.5 75t-80 73t-72.5 71.5q-62 -26 -143 -26q-90 0 -138 34t-48 92q0 57 41.5 91t109.5 34q71 0 148 -36q24 123 30 280z" />
    <glyph glyph-name="currency" unicode="&#xa4;" horiz-adv-x="1126" 
d="M920 61l-142 148q-98 -66 -231 -66q-118 0 -211 52l-133 -134l-131 132l129 129q-60 97 -60 217q0 135 72 245l-133 138l123 122q79 -75 139 -137q94 56 217 56q127 0 221 -62l144 143l131 -131l-146 -145q52 -96 52 -207q0 -116 -58 -219q57 -59 152 -154v-22zM551 778
q-101 0 -158 -66.5t-57 -160.5q0 -88 58.5 -155.5t158.5 -67.5q107 0 160 65.5t53 161.5q0 91 -57.5 157t-157.5 66z" />
    <glyph glyph-name="yen" unicode="&#xa5;" horiz-adv-x="1136" 
d="M121 188v123h266v144h-266v123h266l-381 817l385 39l105 -287q61 -175 106 -334h4q34 126 103 313l118 308l283 -21l20 -39l-382 -796h266v-123h-266v-144h266v-123h-266v-188h-361v188h-266z" />
    <glyph glyph-name="brokenbar" unicode="&#xa6;" horiz-adv-x="665" 
d="M420 713l-158 -6l-16 16v827l157 6l17 -16v-827zM420 -526l-158 -6l-16 16v819l157 6l17 -16v-819z" />
    <glyph glyph-name="section" unicode="&#xa7;" horiz-adv-x="1193" 
d="M750 1147q-59 0 -91 -29t-32 -69q0 -35 26.5 -84t69.5 -103t95 -116.5t103.5 -134t94.5 -144.5t69.5 -158.5t26.5 -167.5q0 -214 -167 -352.5t-443 -138.5q-90 0 -183 14.5t-149 36.5l41 317q56 -38 119.5 -59.5t113.5 -21.5q59 0 91 29t32 69q0 35 -26.5 84t-69.5 103
t-94.5 116.5t-103.5 133.5t-95 144t-69.5 158.5t-26.5 167.5q0 214 167.5 353t442.5 139q89 0 182 -15t150 -37l-41 -317q-56 38 -119.5 60t-113.5 22zM684 -160q117 35 182.5 115t65.5 188q0 66 -27 136.5t-69.5 134.5t-94.5 129.5t-104 129.5t-94.5 125.5t-69.5 127.5
t-27 125q0 113 78 170l-14 22q-117 -35 -182.5 -115t-65.5 -188q0 -66 27 -136.5t69.5 -134.5t94.5 -129t104 -129.5t94.5 -125.5t69.5 -127t27 -125q0 -113 -78 -170z" />
    <glyph glyph-name="dieresis" unicode="&#xa8;" horiz-adv-x="1062" 
d="M481 1384q0 -86 -61.5 -147t-149.5 -61q-80 0 -129 49.5t-49 120.5q0 84 65.5 146t153.5 62q74 0 122 -47t48 -123zM971 1384q0 -86 -61.5 -147t-149.5 -61q-80 0 -129 49.5t-49 120.5q0 84 65.5 146t153.5 62q74 0 122 -47t48 -123z" />
    <glyph glyph-name="copyright" unicode="&#xa9;" horiz-adv-x="1392" 
d="M696 -102q-171 0 -312 80.5t-221.5 221.5t-80.5 312q0 166 82.5 307.5t224 224t307.5 82.5q172 0 313.5 -82.5t221.5 -223.5t80 -308q0 -166 -82.5 -307.5t-224.5 -224t-308 -82.5zM696 0q139 0 257 69t186.5 187t68.5 256q0 212 -150 362t-362 150q-138 0 -256 -68.5
t-187 -186.5t-69 -257q0 -218 147 -365t365 -147zM971 807l-53 -182q-85 61 -166 61q-55 0 -88 -41t-33 -110q0 -89 46.5 -138t129.5 -49q57 0 135 37l14 -154q-84 -53 -221 -53q-164 0 -263 92.5t-99 243.5q0 153 103 250.5t267 97.5q133 0 228 -55z" />
    <glyph glyph-name="ordfeminine" unicode="&#xaa;" horiz-adv-x="901" 
d="M516 686q-36 -50 -100.5 -79t-141.5 -29q-100 0 -162.5 50t-62.5 146q0 129 119 193t326 69v41q0 117 -134 117q-129 0 -254 -61l-16 221q171 55 350 55q361 0 361 -303q0 -56 -4 -151.5t-4 -153.5q0 -114 34 -207l-252 -16q-28 42 -49 108h-10zM348 827q0 -38 23 -62
t61 -24q31 0 62 17v194q-64 -6 -105 -39t-41 -86z" />
    <glyph glyph-name="guillemetleft" unicode="&#xab;" horiz-adv-x="1052" 
d="M76 551v98q178 142 354 375l94 -37q-44 -195 -176 -387q132 -192 176 -387l-94 -37q-176 233 -354 375zM524 551v98q181 144 355 375l94 -37q-44 -195 -176 -387q132 -192 176 -387l-94 -37q-174 231 -355 375z" />
    <glyph glyph-name="logicalnot" unicode="&#xac;" 
d="M1075 694v-518h-184v350h-758v174q383 11 926 11z" />
    <glyph glyph-name="registered" unicode="&#xae;" horiz-adv-x="1392" 
d="M696 -102q-171 0 -312 80.5t-221.5 221.5t-80.5 312q0 166 82.5 307.5t224 224t307.5 82.5q172 0 313.5 -82.5t221.5 -223.5t80 -308q0 -166 -82.5 -307.5t-224.5 -224t-308 -82.5zM696 0q139 0 257 69t186.5 187t68.5 256q0 212 -150 362t-362 150q-138 0 -256 -68.5
t-187 -186.5t-69 -257q0 -218 147 -365t365 -147zM643 188h-207v430q0 156 -20 244h237q177 0 269 -63t92 -185q0 -138 -125 -208l129 -218l-215 -10q-17 30 -49.5 96.5t-36.5 73.5l-4 -2h-70v-158zM668 688h-25v-168h25q129 0 129 84q0 39 -32 61.5t-97 22.5z" />
    <glyph glyph-name="macron" unicode="&#xaf;" horiz-adv-x="839" 
d="M92 1266v196h610v-196h-610z" />
    <glyph glyph-name="degree" unicode="&#xb0;" horiz-adv-x="706" 
d="M346 604q-114 0 -184 69t-70 183q0 120 75 195t195 75q111 0 181.5 -69.5t70.5 -179.5q0 -119 -75 -196t-193 -77zM354 1024q-68 0 -108.5 -46.5t-40.5 -117.5q0 -66 41.5 -109.5t105.5 -43.5q67 0 108.5 47t41.5 118q0 66 -41 109t-107 43z" />
    <glyph glyph-name="plusminus" unicode="&#xb1;" 
d="M1044 815h-317v-293h-180l-2 293h-340v174q95 2 340 6l-2 285h184v-283q125 2 322 2l16 -16zM1085 154h-921v174q348 10 926 10l16 -16z" />
    <glyph glyph-name="twosuperior" unicode="&#xb2;" horiz-adv-x="796" 
d="M113 721l-31 170q37 16 91 55t111.5 91t97.5 117t40 120q0 50 -27.5 82.5t-79.5 32.5q-87 0 -206 -84l-25 196q145 68 299 68q141 0 231.5 -66t90.5 -170q0 -78 -54.5 -161.5t-135 -148.5t-173.5 -110h127q101 0 215 13l-14 -205h-557z" />
    <glyph glyph-name="threesuperior" unicode="&#xb3;" horiz-adv-x="800" 
d="M88 1503q55 27 137 46.5t156 19.5q127 0 209 -54.5t82 -136.5q0 -64 -48.5 -120.5t-125.5 -81.5q101 -19 161 -77t60 -138q0 -114 -112.5 -185t-289.5 -71q-134 0 -235 28l24 164q36 -12 96.5 -20.5t100.5 -8.5q59 0 97 21.5t38 62.5q0 82 -174 82q-33 0 -119 -8v164
q60 2 113.5 15t93 43t39.5 71q0 32 -23 51t-71 19q-41 0 -97.5 -14.5t-101.5 -37.5z" />
    <glyph glyph-name="acute" unicode="&#xb4;" horiz-adv-x="565" 
d="M535 1569l20 -62q-128 -200 -319 -348l-144 21q78 222 115 405z" />
    <glyph glyph-name="paragraph" unicode="&#xb6;" horiz-adv-x="1228" 
d="M467 -164q317 0 317 402v1062h-143v-870h-45q-242 0 -398.5 135t-156.5 357q0 153 79.5 266t212.5 169t302 56h375v-1198q0 -255 -147 -409t-396 -154q-143 0 -281 53l17 195q153 -64 264 -64z" />
    <glyph glyph-name="periodcentered" unicode="&#xb7;" horiz-adv-x="675" 
d="M551 553q0 -89 -62.5 -150t-154.5 -61t-150.5 59t-58.5 144q0 88 66.5 150.5t158.5 62.5q87 0 144 -57t57 -148z" />
    <glyph glyph-name="cedilla" unicode="&#xb8;" horiz-adv-x="622" 
d="M541 -295q0 -69 -43.5 -118t-117.5 -73.5t-152 -35t-167 -10.5l11 122q101 6 158 35t57 76q0 74 -156 74l-39 61l74 252h190l-61 -188q246 -30 246 -195z" />
    <glyph glyph-name="onesuperior" unicode="&#xb9;" horiz-adv-x="626" 
d="M223 1323h-4l-121 -8l-37 153l402 101l31 -29v-819h-275v440q0 115 4 162z" />
    <glyph glyph-name="ordmasculine" unicode="&#xba;" horiz-adv-x="970" 
d="M905 997q0 -101 -35 -182.5t-95.5 -132t-137.5 -77.5t-164 -27q-179 0 -293 105.5t-114 293.5q0 197 122.5 314.5t311.5 117.5q183 0 294 -112t111 -300zM381 1001q0 -130 24 -195t84 -65q31 0 52 17.5t31 52t14 74t4 96.5q0 134 -23.5 199t-83.5 65q-57 0 -79.5 -57.5
t-22.5 -186.5z" />
    <glyph glyph-name="guillemetright" unicode="&#xbb;" horiz-adv-x="1052" 
d="M977 551q-178 -142 -354 -375l-95 37q44 192 177 387q-133 195 -177 387l95 37q176 -233 354 -375v-98zM528 551q-178 -142 -354 -375l-94 37q44 195 176 387q-132 192 -176 387l94 37q176 -233 354 -375v-98z" />
    <glyph glyph-name="onequarter" unicode="&#xbc;" horiz-adv-x="1843" 
d="M285 1200h-4l-121 -8l-37 154l401 100l31 -29v-819h-274v440q0 115 4 162zM1352 1434l-871 -1454h-133l869 1454h135zM958 307l310 508l303 12l31 -26v-469q39 2 108 10l-14 -190h-94v-172h-259v172h-356zM1178 332v-4q3 0 23 0.5t57 1t83 0.5v82q0 158 13 243h-4z" />
    <glyph glyph-name="onehalf" unicode="&#xbd;" horiz-adv-x="1865" 
d="M285 1200h-4l-121 -8l-37 154l401 100l31 -29v-819h-274v440q0 115 4 162zM1352 1434l-871 -1454h-133l869 1454h135zM1120 -20l-30 170q28 13 69 39.5t88.5 66.5t88 84t67.5 95.5t27 96.5q0 50 -27.5 82.5t-79.5 32.5q-88 0 -207 -84l-24 197q143 67 299 67
q141 0 231 -65.5t90 -169.5q0 -78 -54.5 -161.5t-134.5 -148.5t-173 -110h127q110 0 215 12l-15 -204h-557z" />
    <glyph glyph-name="threequarters" unicode="&#xbe;" horiz-adv-x="1953" 
d="M150 1376q55 27 136.5 46.5t155.5 19.5q127 0 209 -54.5t82 -136.5q0 -64 -48.5 -120.5t-125.5 -81.5q101 -19 161 -77t60 -138q0 -114 -112 -185t-289 -71q-135 0 -236 28l25 164q36 -12 96.5 -20.5t100.5 -8.5q59 0 97 21.5t38 62.5q0 82 -174 82q-33 0 -119 -8v164
q60 2 113.5 15t93 43t39.5 71q0 31 -23.5 50.5t-71.5 19.5q-40 0 -96.5 -14.5t-101.5 -37.5zM1462 1434l-870 -1454h-133l868 1454h135zM1069 307l309 508l303 12l31 -26v-469q41 2 109 10l-15 -190h-94v-172h-258v172h-356zM1288 332v-4q3 0 23 0.5t57.5 1t83.5 0.5v82
q0 165 12 243h-4z" />
    <glyph glyph-name="questiondown" unicode="&#xbf;" horiz-adv-x="1077" 
d="M426 840q0 85 60.5 144.5t148.5 59.5q78 0 128 -48t50 -117q0 -83 -65.5 -143t-153.5 -60q-73 0 -120.5 45.5t-47.5 118.5zM530 561l207 10q37 -66 37 -135q0 -50 -22.5 -95.5t-56 -77.5t-73 -66.5t-73 -63.5t-56 -67.5t-22.5 -79.5q0 -60 44 -96.5t116 -36.5
q68 0 145 37t131 100l129 -197q-183 -203 -483 -203q-213 0 -337 98t-124 251q0 73 31.5 138t78 109t101.5 85t101.5 69.5t78 60t31.5 58.5v86z" />
    <glyph glyph-name="Agrave" unicode="&#xc0;" horiz-adv-x="1331" 
d="M967 1579q-347 3 -607 129l-20 59l219 187q196 -156 432 -291zM369 0h-359l340 1188q41 139 56 225l458 19l62 -52l395 -1380h-379l-72 266h-430zM537 625l-25 -93h287l-25 91q-80 303 -112 487h-11q-48 -239 -114 -485z" />
    <glyph glyph-name="Aacute" unicode="&#xc1;" horiz-adv-x="1331" 
d="M991 1767l-20 -59q-260 -126 -606 -129l-25 84q236 135 432 291zM369 0h-359l340 1188q41 139 56 225l458 19l62 -52l395 -1380h-379l-72 266h-430zM537 625l-25 -93h287l-25 91q-80 303 -112 487h-11q-48 -239 -114 -485z" />
    <glyph glyph-name="Acircumflex" unicode="&#xc2;" horiz-adv-x="1331" 
d="M391 1581l-96 82q109 96 250 248l239 20q123 -146 250 -268l-96 -82q-87 30 -272 123q-194 -95 -275 -123zM369 0h-359l340 1188q41 139 56 225l458 19l62 -52l395 -1380h-379l-72 266h-430zM537 625l-25 -93h287l-25 91q-80 303 -112 487h-11q-48 -239 -114 -485z" />
    <glyph glyph-name="Atilde" unicode="&#xc3;" horiz-adv-x="1331" 
d="M514 1931q46 0 93 -18t79 -40t72.5 -40t75.5 -18q39 0 62 20t54 68l90 -15q0 -59 -12.5 -112.5t-37.5 -98.5t-68.5 -71.5t-98.5 -26.5q-52 0 -115 29.5t-120.5 58.5t-95.5 29q-32 0 -58.5 -20.5t-54.5 -67.5l-90 14q0 59 11.5 111t36 98t70 73t107.5 27zM369 0h-359
l340 1188q41 139 56 225l458 19l62 -52l395 -1380h-379l-72 266h-430zM537 625l-25 -93h287l-25 91q-80 303 -112 487h-11q-48 -239 -114 -485z" />
    <glyph glyph-name="Adieresis" unicode="&#xc4;" horiz-adv-x="1331" 
d="M1098 1778q0 -80 -58.5 -133.5t-146.5 -53.5q-72 0 -119 42.5t-47 103.5q0 77 61.5 131.5t147.5 54.5q69 0 115.5 -40.5t46.5 -104.5zM604 1778q0 -80 -58.5 -133.5t-146.5 -53.5q-72 0 -119 42.5t-47 103.5q0 77 61.5 131.5t147.5 54.5q69 0 115.5 -40.5t46.5 -104.5z
M369 0h-359l340 1188q41 139 56 225l458 19l62 -52l395 -1380h-379l-72 266h-430zM537 625l-25 -93h287l-25 91q-80 303 -112 487h-11q-48 -239 -114 -485z" />
    <glyph glyph-name="Aring" unicode="&#xc5;" horiz-adv-x="1331" 
d="M926 1794q0 -105 -82 -179.5t-199 -74.5q-106 0 -172.5 60t-66.5 147q0 103 86.5 178.5t203.5 75.5q100 0 165 -57.5t65 -149.5zM551 1759q0 -44 29 -74t75 -30q51 0 88 38t37 89q0 49 -26.5 76.5t-69.5 27.5q-54 0 -93.5 -38t-39.5 -89zM369 0h-359l340 1188
q41 139 56 225l458 19l62 -52l395 -1380h-379l-72 266h-430zM537 625l-25 -93h287l-25 91q-80 303 -112 487h-11q-48 -239 -114 -485z" />
    <glyph glyph-name="AE" unicode="&#xc6;" horiz-adv-x="1861" 
d="M369 0h-359l496 1188q74 177 90 225h1046l41 -41l-8 -246l-538 17l39 -326l450 10l-10 -260l-414 13l37 -314l571 21v-287h-919l-27 266h-391zM614 625l-36 -93h260l-9 91q-20 198 -26 487h-10q-113 -317 -179 -485z" />
    <glyph glyph-name="Ccedilla" unicode="&#xc7;" horiz-adv-x="1175" 
d="M1006 -309q0 -69 -43.5 -118t-117.5 -74t-152 -35.5t-167 -10.5l11 123q101 6 158 35t57 76q0 73 -156 73l-39 62l49 168q-259 40 -402 223t-143 477q0 216 89.5 386t250 264t365.5 94q224 0 371 -82l-72 -318q-162 92 -295 92q-146 0 -232.5 -116.5t-86.5 -311.5
q0 -193 93 -302t257 -109q160 0 301 78l43 -304q-147 -75 -354 -81l-31 -95q246 -30 246 -194z" />
    <glyph glyph-name="Egrave" unicode="&#xc8;" horiz-adv-x="1136" 
d="M913 1579q-346 3 -606 129l-20 59l219 187q196 -156 432 -291zM1085 287v-287h-952v1047q0 237 -20 366h919l41 -41l-8 -246l-553 21v-330l451 10l-11 -260l-440 15v-316z" />
    <glyph glyph-name="Eacute" unicode="&#xc9;" horiz-adv-x="1136" 
d="M938 1767l-20 -59q-260 -126 -607 -129l-24 84q236 135 432 291zM1085 287v-287h-952v1047q0 237 -20 366h919l41 -41l-8 -246l-553 21v-330l451 10l-11 -260l-440 15v-316z" />
    <glyph glyph-name="Ecircumflex" unicode="&#xca;" horiz-adv-x="1136" 
d="M338 1581l-96 82q109 96 250 248l239 20q123 -146 250 -268l-96 -82q-90 31 -273 123q-196 -96 -274 -123zM1085 287v-287h-952v1047q0 237 -20 366h919l41 -41l-8 -246l-553 21v-330l451 10l-11 -260l-440 15v-316z" />
    <glyph glyph-name="Edieresis" unicode="&#xcb;" horiz-adv-x="1136" 
d="M1044 1778q0 -80 -58 -133.5t-146 -53.5q-72 0 -119 42.5t-47 103.5q0 77 61.5 131.5t147.5 54.5q68 0 114.5 -40.5t46.5 -104.5zM551 1778q0 -80 -58.5 -133.5t-146.5 -53.5q-72 0 -119 42.5t-47 103.5q0 77 61.5 131.5t147.5 54.5q69 0 115.5 -40.5t46.5 -104.5z
M1085 287v-287h-952v1047q0 237 -20 366h919l41 -41l-8 -246l-553 21v-330l451 10l-11 -260l-440 15v-316z" />
    <glyph glyph-name="Igrave" unicode="&#xcc;" horiz-adv-x="645" 
d="M608 1579q-346 3 -606 129l-20 59l219 187q196 -156 432 -291zM512 0h-379v1030q0 224 -20 383l358 21l41 -41v-1393z" />
    <glyph glyph-name="Iacute" unicode="&#xcd;" horiz-adv-x="645" 
d="M633 1767l-21 -59q-260 -126 -606 -129l-24 84q236 135 432 291zM512 0h-379v1030q0 224 -20 383l358 21l41 -41v-1393z" />
    <glyph glyph-name="Icircumflex" unicode="&#xce;" horiz-adv-x="645" 
d="M33 1581l-96 82q104 91 249 248l240 20q123 -146 250 -268l-96 -82q-90 31 -273 123q-196 -96 -274 -123zM512 0h-379v1030q0 224 -20 383l358 21l41 -41v-1393z" />
    <glyph glyph-name="Idieresis" unicode="&#xcf;" horiz-adv-x="645" 
d="M739 1778q0 -80 -58 -133.5t-146 -53.5q-72 0 -119 42.5t-47 103.5q0 77 61.5 131.5t147.5 54.5q68 0 114.5 -40.5t46.5 -104.5zM246 1778q0 -80 -58.5 -133.5t-146.5 -53.5q-72 0 -119 42.5t-47 103.5q0 77 61.5 131.5t147.5 54.5q69 0 115.5 -40.5t46.5 -104.5zM512 0
h-379v1030q0 224 -20 383l358 21l41 -41v-1393z" />
    <glyph glyph-name="Eth" unicode="&#xd0;" horiz-adv-x="1417" 
d="M1356 719q0 -171 -58 -309t-158.5 -226.5t-234.5 -136t-289 -47.5h-483v614h-133v185h133v248q0 237 -20 366h544q328 0 513.5 -185.5t185.5 -508.5zM791 614h-279v-348h137q318 0 318 434q0 73 -10.5 137t-35 122t-62 99t-94 65t-128.5 24h-125v-348h279v-185z" />
    <glyph glyph-name="Ntilde" unicode="&#xd1;" horiz-adv-x="1454" 
d="M545 1931q46 0 92.5 -18t78.5 -40t72.5 -40t75.5 -18q39 0 63 20t54 68l90 -15q0 -59 -12.5 -112.5t-37.5 -98.5t-68.5 -71.5t-98.5 -26.5q-41 0 -90.5 18.5t-86.5 40t-80.5 40t-74.5 18.5q-32 0 -58 -20.5t-54 -67.5l-91 14q0 59 11.5 111t36.5 98t70.5 73t107.5 27z
M786 903q114 -193 197 -399h6q-26 213 -26 409q0 275 -21 500l338 17l41 -41v-1389h-358q-66 110 -162 281.5t-135 236.5q-122 205 -195 373h-6q27 -171 27 -393v-498h-359v1047q0 207 -20 366l379 14q255 -458 294 -524z" />
    <glyph glyph-name="Ograve" unicode="&#xd2;" horiz-adv-x="1464" 
d="M1038 1559q-346 3 -606 129l-20 59l219 186q196 -156 432 -291zM1403 711q0 -174 -53.5 -314t-147 -230.5t-218 -138.5t-269.5 -48q-144 0 -264.5 48.5t-207 137.5t-134.5 222t-48 296q0 339 193 544.5t498 205.5q199 0 347 -90.5t226 -254t78 -378.5zM451 717
q0 -130 27.5 -230.5t93.5 -165.5t163 -65q279 0 279 451q0 450 -277 450q-97 0 -162 -57.5t-94.5 -154t-29.5 -228.5z" />
    <glyph glyph-name="Oacute" unicode="&#xd3;" horiz-adv-x="1464" 
d="M1063 1747l-21 -59q-260 -126 -606 -129l-24 83q236 135 432 291zM1403 711q0 -174 -53.5 -314t-147 -230.5t-218 -138.5t-269.5 -48q-144 0 -264.5 48.5t-207 137.5t-134.5 222t-48 296q0 339 193 544.5t498 205.5q199 0 347 -90.5t226 -254t78 -378.5zM451 717
q0 -130 27.5 -230.5t93.5 -165.5t163 -65q279 0 279 451q0 450 -277 450q-97 0 -162 -57.5t-94.5 -154t-29.5 -228.5z" />
    <glyph glyph-name="Ocircumflex" unicode="&#xd4;" horiz-adv-x="1464" 
d="M463 1561l-96 81q104 91 249 248l240 21q127 -151 250 -269l-96 -81q-97 34 -273 122q-189 -92 -274 -122zM1403 711q0 -174 -53.5 -314t-147 -230.5t-218 -138.5t-269.5 -48q-144 0 -264.5 48.5t-207 137.5t-134.5 222t-48 296q0 339 193 544.5t498 205.5
q199 0 347 -90.5t226 -254t78 -378.5zM451 717q0 -130 27.5 -230.5t93.5 -165.5t163 -65q279 0 279 451q0 450 -277 450q-97 0 -162 -57.5t-94.5 -154t-29.5 -228.5z" />
    <glyph glyph-name="Otilde" unicode="&#xd5;" horiz-adv-x="1464" 
d="M586 1911q46 0 92.5 -18.5t78.5 -40t72.5 -40t75.5 -18.5q39 0 63 20t54 68l90 -14q0 -59 -12.5 -112.5t-37.5 -98.5t-68.5 -71.5t-98.5 -26.5q-52 0 -115 29t-121 58t-96 29q-32 0 -58 -20.5t-54 -67.5l-91 15q0 59 11.5 111t36.5 98t70.5 73t107.5 27zM1403 711
q0 -174 -53.5 -314t-147 -230.5t-218 -138.5t-269.5 -48q-144 0 -264.5 48.5t-207 137.5t-134.5 222t-48 296q0 339 193 544.5t498 205.5q199 0 347 -90.5t226 -254t78 -378.5zM451 717q0 -130 27.5 -230.5t93.5 -165.5t163 -65q279 0 279 451q0 450 -277 450
q-97 0 -162 -57.5t-94.5 -154t-29.5 -228.5z" />
    <glyph glyph-name="Odieresis" unicode="&#xd6;" horiz-adv-x="1464" 
d="M1169 1757q0 -80 -58 -133t-146 -53q-72 0 -119 42t-47 103q0 77 61.5 132t147.5 55q68 0 114.5 -41t46.5 -105zM676 1757q0 -80 -58.5 -133t-146.5 -53q-72 0 -119 42t-47 103q0 77 61.5 132t147.5 55q68 0 115 -41t47 -105zM1403 711q0 -174 -53.5 -314t-147 -230.5
t-218 -138.5t-269.5 -48q-144 0 -264.5 48.5t-207 137.5t-134.5 222t-48 296q0 339 193 544.5t498 205.5q199 0 347 -90.5t226 -254t78 -378.5zM451 717q0 -130 27.5 -230.5t93.5 -165.5t163 -65q279 0 279 451q0 450 -277 450q-97 0 -162 -57.5t-94.5 -154t-29.5 -228.5z
" />
    <glyph glyph-name="multiply" unicode="&#xd7;" 
d="M940 266l-303 312l-311 -312l-131 131l313 314l-305 313l123 123q117 -111 309 -309l309 309l131 -131l-309 -309q302 -307 309 -314v-22z" />
    <glyph glyph-name="Oslash" unicode="&#xd8;" horiz-adv-x="1464" 
d="M1403 711q0 -174 -53.5 -314t-147 -230.5t-218 -138.5t-269.5 -48q-239 0 -406 129l-121 -140l-133 115l131 152q-125 180 -125 448q0 339 193 544.5t498 205.5q222 0 378 -113l107 123l135 -113l-115 -133q146 -191 146 -487zM451 717q0 -93 14 -162l455 522
q-67 80 -183 80q-97 0 -162 -57.5t-94.5 -154t-29.5 -228.5zM1014 707q0 111 -17 192l-465 -532q75 -111 203 -111q279 0 279 451z" />
    <glyph glyph-name="Ugrave" unicode="&#xd9;" horiz-adv-x="1392" 
d="M997 1559q-346 3 -606 129l-20 59l219 186q196 -156 432 -291zM113 1030q0 206 -21 383l359 21l41 -41v-869q0 -128 55.5 -194t161.5 -66q105 0 159 66t54 194v588q0 157 -21 301l379 17v-938q0 -100 -30.5 -184t-84.5 -144t-128.5 -102t-162.5 -62t-186 -20
q-165 0 -293 56t-205 173.5t-77 282.5v538z" />
    <glyph glyph-name="Uacute" unicode="&#xda;" horiz-adv-x="1392" 
d="M1022 1747l-21 -59q-260 -126 -606 -129l-24 83q236 135 432 291zM113 1030q0 206 -21 383l359 21l41 -41v-869q0 -128 55.5 -194t161.5 -66q105 0 159 66t54 194v588q0 157 -21 301l379 17v-938q0 -100 -30.5 -184t-84.5 -144t-128.5 -102t-162.5 -62t-186 -20
q-165 0 -293 56t-205 173.5t-77 282.5v538z" />
    <glyph glyph-name="Ucircumflex" unicode="&#xdb;" horiz-adv-x="1392" 
d="M422 1561l-96 81q104 91 249 248l240 21q127 -151 250 -269l-96 -81q-97 34 -273 122q-189 -92 -274 -122zM113 1030q0 206 -21 383l359 21l41 -41v-869q0 -128 55.5 -194t161.5 -66q105 0 159 66t54 194v588q0 157 -21 301l379 17v-938q0 -100 -30.5 -184t-84.5 -144
t-128.5 -102t-162.5 -62t-186 -20q-165 0 -293 56t-205 173.5t-77 282.5v538z" />
    <glyph glyph-name="Udieresis" unicode="&#xdc;" horiz-adv-x="1392" 
d="M1128 1757q0 -80 -58 -133t-146 -53q-72 0 -119 42t-47 103q0 77 61.5 132t147.5 55q68 0 114.5 -41t46.5 -105zM635 1757q0 -80 -58.5 -133t-146.5 -53q-72 0 -119 42t-47 103q0 77 61.5 132t147.5 55q68 0 115 -41t47 -105zM113 1030q0 206 -21 383l359 21l41 -41v-869
q0 -128 55.5 -194t161.5 -66q105 0 159 66t54 194v588q0 157 -21 301l379 17v-938q0 -100 -30.5 -184t-84.5 -144t-128.5 -102t-162.5 -62t-186 -20q-165 0 -293 56t-205 173.5t-77 282.5v538z" />
    <glyph glyph-name="Yacute" unicode="&#xdd;" horiz-adv-x="1196" 
d="M971 1747l-21 -59q-260 -126 -606 -129l-25 83q239 137 433 291zM408 442l-402 953l406 39l125 -398q82 -255 96 -309h6q10 31 48 143t54 162l125 402l303 -21l21 -39l-404 -932v-442h-378v442z" />
    <glyph glyph-name="Thorn" unicode="&#xde;" horiz-adv-x="1243" 
d="M512 0h-379v1047q0 237 -20 366h399v-190h162q249 0 393.5 -132.5t144.5 -353.5q0 -158 -77.5 -274t-206.5 -173t-293 -57h-123v-233zM590 956h-78v-456h78q127 0 180 57.5t53 165.5q0 233 -233 233z" />
    <glyph glyph-name="germandbls" unicode="&#xdf;" horiz-adv-x="1413" 
d="M174 850l-143 10v123l143 41v14q0 250 142.5 384t400.5 134q221 0 350 -96t129 -254q0 -106 -59 -190.5t-156 -136.5q169 -59 264.5 -181.5t95.5 -289.5q0 -192 -121.5 -310t-332.5 -118q-65 0 -133 10.5t-99 23.5v226q87 -35 160 -35q90 0 134 58.5t44 144.5
q0 115 -80 214t-247 156v152q192 103 192 256q0 70 -37.5 118t-113.5 48q-164 0 -164 -244v-1108h-369v850z" />
    <glyph glyph-name="agrave" unicode="&#xe0;" horiz-adv-x="1077" 
d="M618 1159q-191 148 -319 348l20 62l328 16q37 -183 115 -405zM623 119q-43 -64 -122 -101.5t-175 -37.5q-123 0 -199 64t-76 187q0 112 70.5 187.5t189 110t283.5 38.5v58q0 153 -164 153q-155 0 -309 -82l-21 277q84 29 201.5 50t224.5 21q217 0 327 -96.5t110 -285.5
q0 -72 -5.5 -198t-5.5 -198q0 -143 43 -266l-303 -20q-33 53 -59 139h-10zM410 297q0 -51 28.5 -82t75.5 -31q44 0 80 25v252q-81 -10 -132.5 -52t-51.5 -112z" />
    <glyph glyph-name="aacute" unicode="&#xe1;" horiz-adv-x="1077" 
d="M741 1569l21 -62q-127 -199 -320 -348l-143 21q78 222 115 405zM623 119q-43 -64 -122 -101.5t-175 -37.5q-123 0 -199 64t-76 187q0 112 70.5 187.5t189 110t283.5 38.5v58q0 153 -164 153q-155 0 -309 -82l-21 277q84 29 201.5 50t224.5 21q217 0 327 -96.5t110 -285.5
q0 -72 -5.5 -198t-5.5 -198q0 -143 43 -266l-303 -20q-33 53 -59 139h-10zM410 297q0 -51 28.5 -82t75.5 -31q44 0 80 25v252q-81 -10 -132.5 -52t-51.5 -112z" />
    <glyph glyph-name="acircumflex" unicode="&#xe2;" horiz-adv-x="1077" 
d="M305 1130l-117 82q110 140 236 336l240 21q121 -202 235 -357l-117 -82q-83 52 -239 191q-145 -133 -238 -191zM623 119q-43 -64 -122 -101.5t-175 -37.5q-123 0 -199 64t-76 187q0 112 70.5 187.5t189 110t283.5 38.5v58q0 153 -164 153q-155 0 -309 -82l-21 277
q84 29 201.5 50t224.5 21q217 0 327 -96.5t110 -285.5q0 -72 -5.5 -198t-5.5 -198q0 -143 43 -266l-303 -20q-33 53 -59 139h-10zM410 297q0 -51 28.5 -82t75.5 -31q44 0 80 25v252q-81 -10 -132.5 -52t-51.5 -112z" />
    <glyph glyph-name="atilde" unicode="&#xe3;" horiz-adv-x="1077" 
d="M375 1561q58 0 118.5 -29.5t113.5 -58.5t95 -29q37 0 58.5 20.5t48.5 67.5l100 -14q0 -91 -21 -168t-72 -130t-124 -53q-52 0 -118.5 29.5t-126 58.5t-95.5 29q-56 0 -102 -88l-98 14q0 67 11.5 126.5t36 111.5t69.5 82.5t106 30.5zM623 119q-43 -64 -122 -101.5
t-175 -37.5q-123 0 -199 64t-76 187q0 112 70.5 187.5t189 110t283.5 38.5v58q0 153 -164 153q-155 0 -309 -82l-21 277q84 29 201.5 50t224.5 21q217 0 327 -96.5t110 -285.5q0 -72 -5.5 -198t-5.5 -198q0 -143 43 -266l-303 -20q-33 53 -59 139h-10zM410 297
q0 -51 28.5 -82t75.5 -31q44 0 80 25v252q-81 -10 -132.5 -52t-51.5 -112z" />
    <glyph glyph-name="adieresis" unicode="&#xe4;" horiz-adv-x="1077" 
d="M479 1384q0 -86 -61.5 -147t-149.5 -61q-80 0 -129 49.5t-49 120.5q0 84 65.5 146t153.5 62q74 0 122 -47t48 -123zM969 1384q0 -86 -61.5 -147t-149.5 -61q-80 0 -129 49.5t-49 120.5q0 84 65.5 146t153.5 62q74 0 122 -47t48 -123zM623 119q-43 -64 -122 -101.5
t-175 -37.5q-123 0 -199 64t-76 187q0 112 70.5 187.5t189 110t283.5 38.5v58q0 153 -164 153q-155 0 -309 -82l-21 277q84 29 201.5 50t224.5 21q217 0 327 -96.5t110 -285.5q0 -72 -5.5 -198t-5.5 -198q0 -143 43 -266l-303 -20q-33 53 -59 139h-10zM410 297
q0 -51 28.5 -82t75.5 -31q44 0 80 25v252q-81 -10 -132.5 -52t-51.5 -112z" />
    <glyph glyph-name="aring" unicode="&#xe5;" horiz-adv-x="1077" 
d="M825 1415q0 -105 -81.5 -179.5t-198.5 -74.5q-106 0 -173 60t-67 147q0 103 87 178.5t204 75.5q100 0 164.5 -57.5t64.5 -149.5zM451 1380q0 -44 29 -74t75 -30q51 0 88 38t37 89q0 49 -26.5 76.5t-69.5 27.5q-54 0 -93.5 -38t-39.5 -89zM623 119q-43 -64 -122 -101.5
t-175 -37.5q-123 0 -199 64t-76 187q0 112 70.5 187.5t189 110t283.5 38.5v58q0 153 -164 153q-155 0 -309 -82l-21 277q84 29 201.5 50t224.5 21q217 0 327 -96.5t110 -285.5q0 -72 -5.5 -198t-5.5 -198q0 -143 43 -266l-303 -20q-33 53 -59 139h-10zM410 297
q0 -51 28.5 -82t75.5 -31q44 0 80 25v252q-81 -10 -132.5 -52t-51.5 -112z" />
    <glyph glyph-name="ae" unicode="&#xe6;" horiz-adv-x="1617" 
d="M1554 502l-30 -31h-545q40 -235 278 -235q129 0 240 59l21 -232q-56 -35 -150 -59t-209 -24q-156 0 -276.5 50t-192.5 146q-60 -91 -155 -143.5t-209 -52.5q-123 0 -199 64t-76 187q0 112 70.5 187.5t189 110t283.5 38.5v58q0 19 -1 32.5t-10 38.5t-25.5 40.5t-51.5 28.5
t-84 13q-69 0 -151 -23t-150 -59l-21 277q85 29 202 50t228 21q199 0 301 -77q129 77 285 77q202 0 321 -122t119 -316q0 -69 -2 -104zM1102 840q-64 0 -97.5 -71t-33.5 -181l223 12q4 40 4 66q0 174 -96 174zM410 297q0 -51 28.5 -82t75.5 -31q69 0 127 70q-43 87 -49 207
q-80 -9 -131 -52t-51 -112z" />
    <glyph glyph-name="ccedilla" unicode="&#xe7;" horiz-adv-x="1007" 
d="M874 -309q0 -56 -29.5 -99t-76.5 -68.5t-112 -42t-128 -22.5t-133 -6l11 123q101 6 158 35t57 76q0 73 -156 73l-39 62l49 170q-187 38 -295 174t-108 336q0 238 153.5 390t392.5 152q202 0 338 -86l-77 -274q-129 94 -244 94q-85 0 -134.5 -66.5t-49.5 -179.5
q0 -141 68.5 -218.5t191.5 -77.5q83 0 204 59l21 -232q-112 -73 -277 -81l-30 -97q245 -30 245 -194z" />
    <glyph glyph-name="egrave" unicode="&#xe8;" horiz-adv-x="1097" 
d="M637 1159q-193 149 -320 348l21 62l328 16q38 -190 114 -405zM1034 502l-30 -31h-545q40 -235 278 -235q129 0 240 59l20 -232q-134 -83 -362 -83q-257 0 -410 135t-153 381q0 243 148.5 395.5t375.5 152.5q202 0 321 -122t119 -316q0 -69 -2 -104zM582 840
q-64 0 -97.5 -71t-33.5 -181l223 12q4 36 4 74q0 72 -23 119t-73 47z" />
    <glyph glyph-name="eacute" unicode="&#xe9;" horiz-adv-x="1097" 
d="M760 1569l20 -62q-128 -200 -319 -348l-144 21q78 222 115 405zM1034 502l-30 -31h-545q40 -235 278 -235q129 0 240 59l20 -232q-134 -83 -362 -83q-257 0 -410 135t-153 381q0 243 148.5 395.5t375.5 152.5q202 0 321 -122t119 -316q0 -69 -2 -104zM582 840
q-64 0 -97.5 -71t-33.5 -181l223 12q4 36 4 74q0 72 -23 119t-73 47z" />
    <glyph glyph-name="ecircumflex" unicode="&#xea;" horiz-adv-x="1097" 
d="M324 1130l-117 82q105 133 235 336l240 21q116 -194 236 -357l-117 -82q-86 54 -240 191q-147 -135 -237 -191zM1034 502l-30 -31h-545q40 -235 278 -235q129 0 240 59l20 -232q-134 -83 -362 -83q-257 0 -410 135t-153 381q0 243 148.5 395.5t375.5 152.5
q202 0 321 -122t119 -316q0 -69 -2 -104zM582 840q-64 0 -97.5 -71t-33.5 -181l223 12q4 36 4 74q0 72 -23 119t-73 47z" />
    <glyph glyph-name="edieresis" unicode="&#xeb;" horiz-adv-x="1097" 
d="M498 1384q0 -86 -61.5 -147t-149.5 -61q-80 0 -129 49.5t-49 120.5q0 84 65.5 146t153.5 62q74 0 122 -47t48 -123zM987 1384q0 -86 -61.5 -147t-149.5 -61q-80 0 -129 49.5t-49 120.5q0 84 65.5 146t153.5 62q74 0 122 -47t48 -123zM1034 502l-30 -31h-545
q40 -235 278 -235q129 0 240 59l20 -232q-134 -83 -362 -83q-257 0 -410 135t-153 381q0 243 148.5 395.5t375.5 152.5q202 0 321 -122t119 -316q0 -69 -2 -104zM582 840q-64 0 -97.5 -71t-33.5 -181l223 12q4 36 4 74q0 72 -23 119t-73 47z" />
    <glyph glyph-name="igrave" unicode="&#xec;" horiz-adv-x="604" 
d="M391 1159q-191 148 -319 348l20 62l328 16q37 -183 115 -405zM113 0v641q0 188 -31 365l358 38l41 -40v-1004h-368z" />
    <glyph glyph-name="iacute" unicode="&#xed;" horiz-adv-x="604" 
d="M514 1569l21 -62q-127 -199 -320 -348l-143 21q76 215 114 405zM113 0v641q0 188 -31 365l358 38l41 -40v-1004h-368z" />
    <glyph glyph-name="icircumflex" unicode="&#xee;" horiz-adv-x="604" 
d="M145 1149l-131 49q60 152 117 361l342 20q54 -210 117 -381l-131 -49q-81 78 -156 205q-80 -130 -158 -205zM113 0v641q0 188 -31 365l358 38l41 -40v-1004h-368z" />
    <glyph glyph-name="idieresis" unicode="&#xef;" horiz-adv-x="604" 
d="M281 1386q0 -86 -55.5 -147t-133.5 -61q-72 0 -118 49.5t-46 120.5q0 84 61 146t140 62q65 0 108.5 -47.5t43.5 -122.5zM676 1386q0 -86 -56.5 -147t-134.5 -61q-70 0 -113.5 49.5t-43.5 120.5q0 84 58 146t136 62q67 0 110.5 -47t43.5 -123zM113 0v641q0 188 -31 365
l358 38l41 -40v-1004h-368z" />
    <glyph glyph-name="eth" unicode="&#xf0;" horiz-adv-x="1222" 
d="M604 -20q-142 0 -254 59t-180 179t-68 284q0 215 112.5 340t299.5 125q138 0 219 -72q-48 138 -147 252l-162 -107l-94 146l127 84q-47 38 -127 88l119 198q127 -48 245 -129l197 129l96 -145l-151 -100q145 -141 225 -326t80 -397q0 -152 -42.5 -270.5t-117 -191
t-170.5 -109.5t-207 -37zM621 743q-140 0 -140 -260q0 -258 140 -258q139 0 139 258q0 260 -139 260z" />
    <glyph glyph-name="ntilde" unicode="&#xf1;" horiz-adv-x="1198" 
d="M430 1561q46 0 94.5 -18.5t82.5 -40t75.5 -40t75.5 -18.5q37 0 58 20t48 68l101 -14q0 -91 -21 -168t-72 -130t-124 -53q-52 0 -118.5 29.5t-126 58.5t-95.5 29q-57 0 -103 -88l-98 14q0 67 11.5 126.5t36 111.5t69.5 82.5t106 30.5zM481 0h-368v641q0 154 -41 344
l348 59q28 -72 45 -143q149 143 323 143q134 0 210.5 -87.5t76.5 -239.5v-717h-368v649q0 77 -28.5 113.5t-88.5 36.5q-53 0 -109 -33v-766z" />
    <glyph glyph-name="ograve" unicode="&#xf2;" horiz-adv-x="1163" 
d="M670 1159q-193 149 -320 348l21 62l327 16q37 -183 115 -405zM1092 518q0 -130 -42.5 -234.5t-115.5 -169.5t-167 -99.5t-200 -34.5t-196 34t-157 97.5t-104.5 161t-37.5 219.5q0 252 149 402t377 150q223 0 358.5 -143t135.5 -383zM451 522q0 -167 30.5 -252.5
t104.5 -85.5q39 0 64.5 22.5t39 67t18.5 97.5t5 127q0 173 -29.5 257.5t-103.5 84.5q-70 0 -99.5 -76t-29.5 -242z" />
    <glyph glyph-name="oacute" unicode="&#xf3;" horiz-adv-x="1163" 
d="M793 1569l20 -62q-128 -200 -319 -348l-144 21q78 222 115 405zM1092 518q0 -130 -42.5 -234.5t-115.5 -169.5t-167 -99.5t-200 -34.5t-196 34t-157 97.5t-104.5 161t-37.5 219.5q0 252 149 402t377 150q223 0 358.5 -143t135.5 -383zM451 522q0 -167 30.5 -252.5
t104.5 -85.5q39 0 64.5 22.5t39 67t18.5 97.5t5 127q0 173 -29.5 257.5t-103.5 84.5q-70 0 -99.5 -76t-29.5 -242z" />
    <glyph glyph-name="ocircumflex" unicode="&#xf4;" horiz-adv-x="1163" 
d="M356 1130l-116 82q105 133 235 336l240 21q121 -202 235 -357l-116 -82q-86 54 -240 191q-145 -133 -238 -191zM1092 518q0 -130 -42.5 -234.5t-115.5 -169.5t-167 -99.5t-200 -34.5t-196 34t-157 97.5t-104.5 161t-37.5 219.5q0 252 149 402t377 150q223 0 358.5 -143
t135.5 -383zM451 522q0 -167 30.5 -252.5t104.5 -85.5q39 0 64.5 22.5t39 67t18.5 97.5t5 127q0 173 -29.5 257.5t-103.5 84.5q-70 0 -99.5 -76t-29.5 -242z" />
    <glyph glyph-name="otilde" unicode="&#xf5;" horiz-adv-x="1163" 
d="M426 1561q46 0 94.5 -18.5t82.5 -40t75.5 -40t75.5 -18.5q37 0 58 20t48 68l101 -14q0 -91 -21.5 -168t-72.5 -130t-124 -53q-52 0 -118.5 29.5t-126 58.5t-95.5 29q-56 0 -102 -88l-98 14q0 67 11.5 126.5t36 111.5t69.5 82.5t106 30.5zM1092 518q0 -130 -42.5 -234.5
t-115.5 -169.5t-167 -99.5t-200 -34.5t-196 34t-157 97.5t-104.5 161t-37.5 219.5q0 252 149 402t377 150q223 0 358.5 -143t135.5 -383zM451 522q0 -167 30.5 -252.5t104.5 -85.5q39 0 64.5 22.5t39 67t18.5 97.5t5 127q0 173 -29.5 257.5t-103.5 84.5q-70 0 -99.5 -76
t-29.5 -242z" />
    <glyph glyph-name="odieresis" unicode="&#xf6;" horiz-adv-x="1163" 
d="M530 1384q0 -86 -61.5 -147t-149.5 -61q-80 0 -129 49.5t-49 120.5q0 84 65.5 146t153.5 62q74 0 122 -47t48 -123zM1020 1384q0 -86 -61.5 -147t-149.5 -61q-80 0 -129 49.5t-49 120.5q0 84 65.5 146t153.5 62q74 0 122 -47t48 -123zM1092 518q0 -130 -42.5 -234.5
t-115.5 -169.5t-167 -99.5t-200 -34.5t-196 34t-157 97.5t-104.5 161t-37.5 219.5q0 252 149 402t377 150q223 0 358.5 -143t135.5 -383zM451 522q0 -167 30.5 -252.5t104.5 -85.5q39 0 64.5 22.5t39 67t18.5 97.5t5 127q0 173 -29.5 257.5t-103.5 84.5q-70 0 -99.5 -76
t-29.5 -242z" />
    <glyph glyph-name="divide" unicode="&#xf7;" 
d="M795 1112q0 -75 -51.5 -126.5t-127.5 -51.5q-62 0 -102.5 41t-40.5 100q0 73 53.5 125.5t128.5 52.5q59 0 99.5 -39.5t40.5 -101.5zM1085 621h-921v174q348 10 926 10l16 -17zM797 350q0 -75 -51.5 -126.5t-127.5 -51.5q-62 0 -102.5 41t-40.5 100q0 74 53.5 126.5
t128.5 52.5q59 0 99.5 -40t40.5 -102z" />
    <glyph glyph-name="oslash" unicode="&#xf8;" horiz-adv-x="1163" 
d="M1092 518q0 -130 -42.5 -234.5t-115.5 -169.5t-167 -99.5t-200 -34.5q-168 0 -293 81l-112 -120l-121 114l117 125q-86 125 -86 312q0 252 149 402t377 150q169 0 287 -83l114 122l123 -112l-118 -129q88 -134 88 -324zM451 522v0v0v0v0v-1v0v0v-1v0v-1v-1v-1v-1v-1v-1
v-1v-1v-1v-1v-1v-1v-1v-1v-1v-9l235 252q-31 92 -106 92q-70 0 -99.5 -76t-29.5 -242zM713 498v32l-236 -251q32 -95 109 -95q39 0 64.5 22.5t39 67t18.5 97.5t5 127z" />
    <glyph glyph-name="ugrave" unicode="&#xf9;" horiz-adv-x="1187" 
d="M686 1159q-191 148 -319 348l20 62l328 16q38 -190 114 -405zM113 639q0 181 -29 365l356 40l41 -40v-613q0 -72 27 -105.5t84 -33.5q52 0 104 27v745l369 20v-778q0 -123 33 -266l-303 -20q-38 68 -60 149h-12q-67 -72 -150.5 -110.5t-169.5 -38.5q-131 0 -210.5 80.5
t-79.5 213.5v365z" />
    <glyph glyph-name="uacute" unicode="&#xfa;" horiz-adv-x="1187" 
d="M809 1569l20 -62q-128 -200 -319 -348l-143 21q76 215 114 405zM113 639q0 181 -29 365l356 40l41 -40v-613q0 -72 27 -105.5t84 -33.5q52 0 104 27v745l369 20v-778q0 -123 33 -266l-303 -20q-38 68 -60 149h-12q-67 -72 -150.5 -110.5t-169.5 -38.5q-131 0 -210.5 80.5
t-79.5 213.5v365z" />
    <glyph glyph-name="ucircumflex" unicode="&#xfb;" horiz-adv-x="1187" 
d="M373 1130l-117 82q110 140 236 336l239 21q116 -194 236 -357l-117 -82q-86 54 -240 191q-147 -135 -237 -191zM113 639q0 181 -29 365l356 40l41 -40v-613q0 -72 27 -105.5t84 -33.5q52 0 104 27v745l369 20v-778q0 -123 33 -266l-303 -20q-38 68 -60 149h-12
q-67 -72 -150.5 -110.5t-169.5 -38.5q-131 0 -210.5 80.5t-79.5 213.5v365z" />
    <glyph glyph-name="udieresis" unicode="&#xfc;" horiz-adv-x="1187" 
d="M547 1384q0 -86 -61.5 -147t-149.5 -61q-80 0 -129 49.5t-49 120.5q0 84 65.5 146t153.5 62q74 0 122 -47t48 -123zM1036 1384q0 -86 -61.5 -147t-149.5 -61q-80 0 -129 49.5t-49 120.5q0 84 65.5 146t153.5 62q74 0 122 -47t48 -123zM113 639q0 181 -29 365l356 40
l41 -40v-613q0 -72 27 -105.5t84 -33.5q52 0 104 27v745l369 20v-778q0 -123 33 -266l-303 -20q-38 68 -60 149h-12q-67 -72 -150.5 -110.5t-169.5 -38.5q-131 0 -210.5 80.5t-79.5 213.5v365z" />
    <glyph glyph-name="yacute" unicode="&#xfd;" horiz-adv-x="1038" 
d="M752 1569l20 -62q-128 -200 -319 -348l-144 21q78 222 115 405zM1028 983l-256 -874q-23 -80 -44 -140.5t-53.5 -131t-68.5 -121t-87 -100t-111 -80t-140 -49.5t-174 -19l-51 307q339 0 434 225h-174l-293 1014l389 30l113 -538q38 -180 45 -281h6q5 51 51 281l111 538
l283 -20z" />
    <glyph glyph-name="thorn" unicode="&#xfe;" horiz-adv-x="1179" 
d="M102 1153q0 177 -30 365l358 38l41 -40v-558q111 86 252 86q180 0 282.5 -142t102.5 -380q0 -259 -125 -400.5t-360 -141.5q-83 0 -152 14v-103q0 -174 29 -364l-357 -39l-41 41v1624zM557 819q-49 0 -86 -18v-627q38 -10 72 -10q97 0 141.5 83t44.5 255q0 167 -41 242
t-131 75z" />
    <glyph glyph-name="ydieresis" unicode="&#xff;" horiz-adv-x="1038" 
d="M489 1384q0 -86 -61 -147t-149 -61q-80 0 -129.5 49.5t-49.5 120.5q0 84 65.5 146t153.5 62q74 0 122 -47t48 -123zM979 1384q0 -86 -61.5 -147t-149.5 -61q-80 0 -129 49.5t-49 120.5q0 84 65.5 146t153.5 62q74 0 122 -47t48 -123zM1028 983l-256 -874
q-23 -80 -44 -140.5t-53.5 -131t-68.5 -121t-87 -100t-111 -80t-140 -49.5t-174 -19l-51 307q339 0 434 225h-174l-293 1014l389 30l113 -538q38 -180 45 -281h6q5 51 51 281l111 538l283 -20z" />
    <glyph glyph-name="Amacron" unicode="&#x100;" horiz-adv-x="1331" 
d="M360 1657v196h611v-196h-611zM369 0h-359l340 1188q41 139 56 225l458 19l62 -52l395 -1380h-379l-72 266h-430zM537 625l-25 -93h287l-25 91q-80 303 -112 487h-11q-48 -239 -114 -485z" />
    <glyph glyph-name="amacron" unicode="&#x101;" horiz-adv-x="1077" 
d="M225 1266v196h611v-196h-611zM623 119q-43 -64 -122 -101.5t-175 -37.5q-123 0 -199 64t-76 187q0 112 70.5 187.5t189 110t283.5 38.5v58q0 153 -164 153q-155 0 -309 -82l-21 277q84 29 201.5 50t224.5 21q217 0 327 -96.5t110 -285.5q0 -72 -5.5 -198t-5.5 -198
q0 -143 43 -266l-303 -20q-33 53 -59 139h-10zM410 297q0 -51 28.5 -82t75.5 -31q44 0 80 25v252q-81 -10 -132.5 -52t-51.5 -112z" />
    <glyph glyph-name="Abreve" unicode="&#x102;" horiz-adv-x="1331" 
d="M846 1911l141 18q-8 -151 -97.5 -246.5t-236.5 -95.5q-130 0 -217 83.5t-94 221.5l143 21q15 -46 65 -73.5t116 -27.5q67 0 116.5 28.5t63.5 70.5zM369 0h-359l340 1188q41 139 56 225l458 19l62 -52l395 -1380h-379l-72 266h-430zM537 625l-25 -93h287l-25 91
q-80 303 -112 487h-11q-48 -239 -114 -485z" />
    <glyph glyph-name="abreve" unicode="&#x103;" horiz-adv-x="1077" 
d="M707 1567l141 18q-8 -178 -97.5 -290.5t-236.5 -112.5q-130 0 -217 100t-94 266l143 21q15 -74 64 -118t116 -44q68 0 117.5 45.5t63.5 114.5zM623 119q-43 -64 -122 -101.5t-175 -37.5q-123 0 -199 64t-76 187q0 112 70.5 187.5t189 110t283.5 38.5v58q0 153 -164 153
q-155 0 -309 -82l-21 277q84 29 201.5 50t224.5 21q217 0 327 -96.5t110 -285.5q0 -72 -5.5 -198t-5.5 -198q0 -143 43 -266l-303 -20q-33 53 -59 139h-10zM410 297q0 -51 28.5 -82t75.5 -31q44 0 80 25v252q-81 -10 -132.5 -52t-51.5 -112z" />
    <glyph glyph-name="Aogonek" unicode="&#x104;" horiz-adv-x="1331" 
d="M369 0h-359l340 1188q41 139 56 225l458 19l62 -52l395 -1380q-110 -52 -173 -118.5t-63 -129.5q0 -38 22.5 -61t66.5 -23q49 0 110 27l51 -121q-60 -53 -138.5 -86t-158.5 -33q-106 0 -175.5 60.5t-69.5 158.5q0 94 76.5 180t211.5 146h-139l-72 266h-430zM537 625
l-25 -93h287l-25 91q-80 303 -112 487h-11q-48 -239 -114 -485z" />
    <glyph glyph-name="aogonek" unicode="&#x105;" horiz-adv-x="1077" 
d="M623 119q-43 -64 -122 -101.5t-175 -37.5q-123 0 -199 64t-76 187q0 112 70.5 187.5t189 110t283.5 38.5v58q0 153 -164 153q-155 0 -309 -82l-21 277q84 29 201.5 50t224.5 21q217 0 327 -96.5t110 -285.5q0 -72 -5.5 -198t-5.5 -198q0 -143 43 -266
q-110 -52 -172.5 -118.5t-62.5 -129.5q0 -39 22 -61.5t66 -22.5q49 0 110 27l52 -121q-60 -53 -138.5 -86t-158.5 -33q-106 0 -176 60.5t-70 158.5q0 86 66 167t184 141l-25 -2q-33 53 -59 139h-10zM410 297q0 -51 28.5 -82t75.5 -31q44 0 80 25v252q-81 -10 -132.5 -52
t-51.5 -112z" />
    <glyph glyph-name="Cacute" unicode="&#x106;" horiz-adv-x="1175" 
d="M1016 1767l-21 -59q-260 -126 -606 -129l-24 84q236 135 432 291zM1102 365l43 -304q-163 -81 -395 -81q-323 0 -506 188.5t-183 521.5q0 216 89.5 386t250 264t365.5 94q224 0 371 -82l-72 -318q-162 92 -295 92q-146 0 -232.5 -116.5t-86.5 -311.5q0 -193 93 -302
t257 -109q160 0 301 78z" />
    <glyph glyph-name="cacute" unicode="&#x107;" horiz-adv-x="1007" 
d="M770 1569l21 -62q-127 -199 -320 -348l-143 21q76 215 114 405zM956 958l-77 -274q-129 94 -244 94q-85 0 -134.5 -66.5t-49.5 -179.5q0 -141 68.5 -218.5t191.5 -77.5q83 0 204 59l21 -232q-125 -83 -328 -83q-243 1 -389.5 144t-146.5 378q0 238 153.5 390t392.5 152
q202 0 338 -86z" />
    <glyph glyph-name="Ccircumflex" unicode="&#x108;" horiz-adv-x="1175" 
d="M416 1581l-97 82q109 96 250 248l240 20q123 -146 250 -268l-96 -82q-90 31 -273 123q-196 -96 -274 -123zM1102 365l43 -304q-163 -81 -395 -81q-323 0 -506 188.5t-183 521.5q0 216 89.5 386t250 264t365.5 94q224 0 371 -82l-72 -318q-162 92 -295 92
q-146 0 -232.5 -116.5t-86.5 -311.5q0 -193 93 -302t257 -109q160 0 301 78z" />
    <glyph glyph-name="ccircumflex" unicode="&#x109;" horiz-adv-x="1007" 
d="M334 1130l-117 82q110 140 236 336l239 21q116 -194 236 -357l-117 -82q-86 54 -240 191q-147 -135 -237 -191zM956 958l-77 -274q-129 94 -244 94q-85 0 -134.5 -66.5t-49.5 -179.5q0 -141 68.5 -218.5t191.5 -77.5q83 0 204 59l21 -232q-125 -83 -328 -83
q-243 1 -389.5 144t-146.5 378q0 238 153.5 390t392.5 152q202 0 338 -86z" />
    <glyph glyph-name="Cdotaccent" unicode="&#x10a;" horiz-adv-x="1175" 
d="M901 1782q0 -92 -66 -152.5t-163 -60.5q-83 0 -138 48.5t-55 119.5q0 84 71.5 145.5t168.5 61.5q77 0 129.5 -45t52.5 -117zM1102 365l43 -304q-163 -81 -395 -81q-323 0 -506 188.5t-183 521.5q0 216 89.5 386t250 264t365.5 94q224 0 371 -82l-72 -318q-162 92 -295 92
q-146 0 -232.5 -116.5t-86.5 -311.5q0 -193 93 -302t257 -109q160 0 301 78z" />
    <glyph glyph-name="cdotaccent" unicode="&#x10b;" horiz-adv-x="1007" 
d="M774 1382q0 -94 -68 -160.5t-165 -66.5q-87 0 -142 53.5t-55 130.5q0 92 72.5 159t169.5 67q83 0 135.5 -50.5t52.5 -132.5zM956 958l-77 -274q-129 94 -244 94q-85 0 -134.5 -66.5t-49.5 -179.5q0 -141 68.5 -218.5t191.5 -77.5q83 0 204 59l21 -232q-125 -83 -328 -83
q-243 1 -389.5 144t-146.5 378q0 238 153.5 390t392.5 152q202 0 338 -86z" />
    <glyph glyph-name="Ccaron" unicode="&#x10c;" horiz-adv-x="1175" 
d="M963 1939l96 -81q-109 -96 -250 -248l-240 -21q-127 151 -250 269l97 81q93 -33 272 -122q186 91 275 122zM1102 365l43 -304q-163 -81 -395 -81q-323 0 -506 188.5t-183 521.5q0 216 89.5 386t250 264t365.5 94q224 0 371 -82l-72 -318q-162 92 -295 92
q-146 0 -232.5 -116.5t-86.5 -311.5q0 -193 93 -302t257 -109q160 0 301 78z" />
    <glyph glyph-name="ccaron" unicode="&#x10d;" horiz-adv-x="1007" 
d="M811 1606l117 -82q-110 -140 -236 -336l-239 -21q-116 194 -236 357l117 82q83 -52 239 -191q145 133 238 191zM956 958l-77 -274q-129 94 -244 94q-85 0 -134.5 -66.5t-49.5 -179.5q0 -141 68.5 -218.5t191.5 -77.5q83 0 204 59l21 -232q-125 -83 -328 -83
q-243 1 -389.5 144t-146.5 378q0 238 153.5 390t392.5 152q202 0 338 -86z" />
    <glyph glyph-name="Dcaron" unicode="&#x10e;" horiz-adv-x="1417" 
d="M952 1939l97 -81q-109 -96 -250 -248l-240 -21q-127 151 -250 269l97 81q93 -33 272 -122q189 92 274 122zM1356 719q0 -171 -58 -309t-158.5 -226.5t-234.5 -136t-289 -47.5h-483v1047q0 237 -20 366h544q328 0 513.5 -185.5t185.5 -508.5zM637 1147h-125v-881h137
q318 0 318 434q0 73 -10.5 137t-35 122t-62 99t-94 65t-128.5 24z" />
    <glyph glyph-name="dcaron" unicode="&#x10f;" horiz-adv-x="1202" 
d="M739 115q-106 -135 -276 -135q-177 0 -284 130t-107 357q0 273 154.5 425t410.5 152q26 0 72 -4v113q0 181 -29 365l356 38l41 -40v-1250q0 -139 43 -266l-311 -20q-24 37 -61 135h-9zM1550 1556l21 -61q-78 -207 -225 -430h-121q35 354 45 491h280zM451 518
q0 -151 46.5 -242.5t131.5 -91.5q42 0 80 23v653h-17q-241 0 -241 -342z" />
    <glyph glyph-name="Dcroat" unicode="&#x110;" horiz-adv-x="1417" 
d="M1356 719q0 -171 -58 -309t-158.5 -226.5t-234.5 -136t-289 -47.5h-483v614h-133v185h133v248q0 237 -20 366h544q328 0 513.5 -185.5t185.5 -508.5zM791 614h-279v-348h137q318 0 318 434q0 73 -10.5 137t-35 122t-62 99t-94 65t-128.5 24h-125v-348h279v-185z" />
    <glyph glyph-name="dcroat" unicode="&#x111;" horiz-adv-x="1202" 
d="M739 115q-106 -135 -276 -135q-177 0 -284 130t-107 357q0 273 154.5 425t410.5 152q26 0 72 -4v119h-256v184h247q-7 93 -20 175l356 38l41 -40v-173h166v-184h-166v-893q0 -139 43 -266l-311 -20q-24 37 -61 135h-9zM451 518q0 -151 46.5 -242.5t131.5 -91.5
q42 0 80 23v653h-17q-241 0 -241 -342z" />
    <glyph glyph-name="Emacron" unicode="&#x112;" horiz-adv-x="1136" 
d="M307 1657v196h611v-196h-611zM1085 287v-287h-952v1047q0 237 -20 366h919l41 -41l-8 -246l-553 21v-330l451 10l-11 -260l-440 15v-316z" />
    <glyph glyph-name="emacron" unicode="&#x113;" horiz-adv-x="1097" 
d="M244 1266v196h610v-196h-610zM1034 502l-30 -31h-545q40 -235 278 -235q129 0 240 59l20 -232q-134 -83 -362 -83q-257 0 -410 135t-153 381q0 243 148.5 395.5t375.5 152.5q202 0 321 -122t119 -316q0 -69 -2 -104zM582 840q-64 0 -97.5 -71t-33.5 -181l223 12
q4 36 4 74q0 72 -23 119t-73 47z" />
    <glyph glyph-name="Ebreve" unicode="&#x114;" horiz-adv-x="1136" 
d="M793 1911l141 18q-8 -151 -97.5 -246.5t-236.5 -95.5q-130 0 -217 83.5t-94 221.5l143 21q15 -46 64.5 -73.5t115.5 -27.5q67 0 117 28.5t64 70.5zM1085 287v-287h-952v1047q0 237 -20 366h919l41 -41l-8 -246l-553 21v-330l451 10l-11 -260l-440 15v-316z" />
    <glyph glyph-name="ebreve" unicode="&#x115;" horiz-adv-x="1097" 
d="M725 1567l141 18q-8 -178 -97.5 -290.5t-236.5 -112.5q-130 0 -217 100t-94 266l144 21q15 -74 64 -118t116 -44t116.5 45.5t63.5 114.5zM1034 502l-30 -31h-545q40 -235 278 -235q129 0 240 59l20 -232q-134 -83 -362 -83q-257 0 -410 135t-153 381q0 243 148.5 395.5
t375.5 152.5q202 0 321 -122t119 -316q0 -69 -2 -104zM582 840q-64 0 -97.5 -71t-33.5 -181l223 12q4 36 4 74q0 72 -23 119t-73 47z" />
    <glyph glyph-name="Edotaccent" unicode="&#x116;" horiz-adv-x="1136" 
d="M823 1782q0 -92 -66 -152.5t-163 -60.5q-83 0 -138 48.5t-55 119.5q0 84 71.5 145.5t168.5 61.5q77 0 129.5 -45t52.5 -117zM1085 287v-287h-952v1047q0 237 -20 366h919l41 -41l-8 -246l-553 21v-330l451 10l-11 -260l-440 15v-316z" />
    <glyph glyph-name="edotaccent" unicode="&#x117;" horiz-adv-x="1097" 
d="M764 1382q0 -94 -68.5 -160.5t-165.5 -66.5q-87 0 -141.5 53.5t-54.5 130.5q0 92 72 159t169 67q83 0 136 -50.5t53 -132.5zM1034 502l-30 -31h-545q40 -235 278 -235q129 0 240 59l20 -232q-134 -83 -362 -83q-257 0 -410 135t-153 381q0 243 148.5 395.5t375.5 152.5
q202 0 321 -122t119 -316q0 -69 -2 -104zM582 840q-64 0 -97.5 -71t-33.5 -181l223 12q4 36 4 74q0 72 -23 119t-73 47z" />
    <glyph glyph-name="Eogonek" unicode="&#x118;" horiz-adv-x="1136" 
d="M1085 0q-110 -52 -172.5 -118.5t-62.5 -129.5q0 -39 22 -61.5t66 -22.5q50 0 111 27l51 -121q-60 -53 -138.5 -86t-158.5 -33q-106 0 -176 60.5t-70 158.5q0 93 76.5 179.5t212.5 146.5h-713v1047q0 237 -20 366h919l41 -41l-8 -246l-553 21v-330l451 10l-11 -260
l-440 15v-316l573 21v-287z" />
    <glyph glyph-name="eogonek" unicode="&#x119;" horiz-adv-x="1097" 
d="M1034 502l-30 -31h-545q40 -235 278 -235q129 0 240 59l20 -232q-1 -1 -4 -3t-4 -3q-282 -168 -282 -299q0 -77 88 -77q51 0 110 26l51 -121q-59 -53 -138 -85.5t-159 -32.5q-106 0 -175.5 57t-69.5 149q0 158 268 308q-16 -2 -47 -2q-257 0 -410 135t-153 381
q0 243 148.5 395.5t375.5 152.5q202 0 321 -122t119 -316q0 -69 -2 -104zM582 840q-64 0 -97.5 -71t-33.5 -181l223 12q4 36 4 74q0 72 -23 119t-73 47z" />
    <glyph glyph-name="Ecaron" unicode="&#x11a;" horiz-adv-x="1136" 
d="M885 1939l96 -81q-109 -96 -250 -248l-239 -21q-127 151 -250 269l96 81q93 -33 272 -122q186 91 275 122zM1085 287v-287h-952v1047q0 237 -20 366h919l41 -41l-8 -246l-553 21v-330l451 10l-11 -260l-440 15v-316z" />
    <glyph glyph-name="ecaron" unicode="&#x11b;" horiz-adv-x="1097" 
d="M801 1606l117 -82q-110 -140 -236 -336l-240 -21q-121 202 -235 357l117 82q83 -52 239 -191q145 133 238 191zM1034 502l-30 -31h-545q40 -235 278 -235q129 0 240 59l20 -232q-134 -83 -362 -83q-257 0 -410 135t-153 381q0 243 148.5 395.5t375.5 152.5
q202 0 321 -122t119 -316q0 -69 -2 -104zM582 840q-64 0 -97.5 -71t-33.5 -181l223 12q4 36 4 74q0 72 -23 119t-73 47z" />
    <glyph glyph-name="Gcircumflex" unicode="&#x11c;" horiz-adv-x="1304" 
d="M436 1581l-96 82q109 96 250 248l239 20q123 -146 250 -268l-96 -82q-87 30 -272 123q-194 -95 -275 -123zM1192 682l41 -41l-6 -580q-212 -81 -449 -81q-344 0 -530.5 184t-186.5 502q0 225 91 398.5t262 271.5t397 98q110 0 215 -22.5t182 -59.5l-61 -318
q-155 103 -318 103q-172 0 -275 -115.5t-103 -331.5q0 -198 92.5 -311t271.5 -113q39 0 62 2q-2 184 -31 394z" />
    <glyph glyph-name="gcircumflex" unicode="&#x11d;" horiz-adv-x="1103" 
d="M305 1130l-117 82q110 140 236 336l240 21q121 -202 235 -357l-117 -82q-83 52 -239 191q-145 -133 -238 -191zM190 102q0 118 136 199q-121 41 -192 128t-71 208q0 169 132.5 288t343.5 119q171 0 270 -71q32 79 101 119.5t151 40.5l43 -37l-10 -217h-209l-4 -9
q102 -78 102 -225q0 -162 -129 -268.5t-334 -106.5q-39 0 -59 2q-2 -8 -2 -24q0 -41 21.5 -55t68.5 -17l196 -12q156 -9 250.5 -82.5t94.5 -206.5q0 -181 -167.5 -294t-439.5 -113q-218 0 -350.5 71.5t-132.5 184.5q0 72 54 123t132 67l123 -51q-2 -8 -2 -25q0 -85 63 -146
t165 -61q80 0 133 39.5t53 106.5q0 114 -162 133l-178 20q-90 11 -140.5 55t-50.5 117zM635 659q0 106 -25 158.5t-82 52.5q-116 0 -116 -215q0 -211 114 -211q57 0 83 52.5t26 162.5z" />
    <glyph glyph-name="Gbreve" unicode="&#x11e;" horiz-adv-x="1304" 
d="M891 1911l141 18q-8 -151 -97.5 -246.5t-236.5 -95.5q-130 0 -217 83.5t-94 221.5l143 21q15 -46 65 -73.5t116 -27.5q67 0 116.5 28.5t63.5 70.5zM1192 682l41 -41l-6 -580q-212 -81 -449 -81q-344 0 -530.5 184t-186.5 502q0 225 91 398.5t262 271.5t397 98
q110 0 215 -22.5t182 -59.5l-61 -318q-155 103 -318 103q-172 0 -275 -115.5t-103 -331.5q0 -198 92.5 -311t271.5 -113q39 0 62 2q-2 184 -31 394z" />
    <glyph glyph-name="gbreve" unicode="&#x11f;" horiz-adv-x="1103" 
d="M707 1567l141 18q-8 -178 -97.5 -290.5t-236.5 -112.5q-130 0 -217 100t-94 266l143 21q15 -74 64 -118t116 -44q68 0 117.5 45.5t63.5 114.5zM190 102q0 118 136 199q-121 41 -192 128t-71 208q0 169 132.5 288t343.5 119q171 0 270 -71q32 79 101 119.5t151 40.5
l43 -37l-10 -217h-209l-4 -9q102 -78 102 -225q0 -162 -129 -268.5t-334 -106.5q-39 0 -59 2q-2 -8 -2 -24q0 -41 21.5 -55t68.5 -17l196 -12q156 -9 250.5 -82.5t94.5 -206.5q0 -181 -167.5 -294t-439.5 -113q-218 0 -350.5 71.5t-132.5 184.5q0 72 54 123t132 67l123 -51
q-2 -8 -2 -25q0 -85 63 -146t165 -61q80 0 133 39.5t53 106.5q0 114 -162 133l-178 20q-90 11 -140.5 55t-50.5 117zM635 659q0 106 -25 158.5t-82 52.5q-116 0 -116 -215q0 -211 114 -211q57 0 83 52.5t26 162.5z" />
    <glyph glyph-name="Gdotaccent" unicode="&#x120;" horiz-adv-x="1304" 
d="M922 1782q0 -92 -66.5 -152.5t-163.5 -60.5q-83 0 -137.5 48.5t-54.5 119.5q0 85 71 146t168 61q77 0 130 -45t53 -117zM1192 682l41 -41l-6 -580q-212 -81 -449 -81q-344 0 -530.5 184t-186.5 502q0 225 91 398.5t262 271.5t397 98q110 0 215 -22.5t182 -59.5l-61 -318
q-155 103 -318 103q-172 0 -275 -115.5t-103 -331.5q0 -198 92.5 -311t271.5 -113q39 0 62 2q-2 184 -31 394z" />
    <glyph glyph-name="gdotaccent" unicode="&#x121;" horiz-adv-x="1103" 
d="M745 1382q0 -94 -68 -160.5t-165 -66.5q-87 0 -142 53.5t-55 130.5q0 92 72.5 159t169.5 67q83 0 135.5 -50.5t52.5 -132.5zM190 102q0 118 136 199q-121 41 -192 128t-71 208q0 169 132.5 288t343.5 119q171 0 270 -71q32 79 101 119.5t151 40.5l43 -37l-10 -217h-209
l-4 -9q102 -78 102 -225q0 -162 -129 -268.5t-334 -106.5q-39 0 -59 2q-2 -8 -2 -24q0 -41 21.5 -55t68.5 -17l196 -12q156 -9 250.5 -82.5t94.5 -206.5q0 -181 -167.5 -294t-439.5 -113q-218 0 -350.5 71.5t-132.5 184.5q0 72 54 123t132 67l123 -51q-2 -8 -2 -25
q0 -85 63 -146t165 -61q80 0 133 39.5t53 106.5q0 114 -162 133l-178 20q-90 11 -140.5 55t-50.5 117zM635 659q0 106 -25 158.5t-82 52.5q-116 0 -116 -215q0 -211 114 -211q57 0 83 52.5t26 162.5z" />
    <glyph glyph-name="Gcommaaccent" unicode="&#x122;" horiz-adv-x="1304" 
d="M1192 682l41 -41l-6 -580q-212 -81 -449 -81q-344 0 -530.5 184t-186.5 502q0 225 91 398.5t262 271.5t397 98q110 0 215 -22.5t182 -59.5l-61 -318q-155 103 -318 103q-172 0 -275 -115.5t-103 -331.5q0 -198 92.5 -311t271.5 -113q39 0 62 2q-2 184 -31 394zM569 -666
q90 93 125 195q-55 11 -91 53.5t-36 102.5q0 72 54 125t131 53q73 0 123.5 -51t50.5 -144q0 -63 -24.5 -128t-66 -121t-79.5 -97.5t-82 -79.5z" />
    <glyph glyph-name="gcommaaccent" unicode="&#x123;" horiz-adv-x="1103" 
d="M696 1698q-90 -93 -125 -195q55 -11 91 -53t36 -102q0 -72 -53.5 -125.5t-130.5 -53.5q-73 0 -123.5 51t-50.5 144q0 63 24.5 128t66 121t79.5 97.5t82 79.5zM190 102q0 118 136 199q-121 41 -192 128t-71 208q0 169 132.5 288t343.5 119q171 0 270 -71q32 79 101 119.5
t151 40.5l43 -37l-10 -217h-209l-4 -9q102 -78 102 -225q0 -162 -129 -268.5t-334 -106.5q-39 0 -59 2q-2 -8 -2 -24q0 -41 21.5 -55t68.5 -17l196 -12q156 -9 250.5 -82.5t94.5 -206.5q0 -181 -167.5 -294t-439.5 -113q-218 0 -350.5 71.5t-132.5 184.5q0 72 54 123t132 67
l123 -51q-2 -8 -2 -25q0 -85 63 -146t165 -61q80 0 133 39.5t53 106.5q0 114 -162 133l-178 20q-90 11 -140.5 55t-50.5 117zM635 659q0 106 -25 158.5t-82 52.5q-116 0 -116 -215q0 -211 114 -211q57 0 83 52.5t26 162.5z" />
    <glyph glyph-name="Hcircumflex" unicode="&#x124;" horiz-adv-x="1464" 
d="M459 1581l-97 82q109 96 250 248l240 20q123 -146 250 -268l-96 -82q-90 31 -273 123q-196 -96 -274 -123zM512 0h-379v1030q0 224 -20 383l358 21l41 -41v-559h440v196q0 224 -20 383l358 21l41 -41v-1393h-379v567h-440v-567z" />
    <glyph glyph-name="hcircumflex" unicode="&#x125;" horiz-adv-x="1187" 
d="M-2 1673l-96 82q109 96 250 248l239 20q123 -146 250 -268l-96 -82q-90 31 -273 123q-196 -96 -274 -123zM471 0h-369v1153q0 194 -30 365l358 38l41 -40v-601q144 129 307 129q134 0 210.5 -87.5t76.5 -239.5v-717h-369v649q0 77 -28 113.5t-88 36.5q-53 0 -109 -33
v-766z" />
    <glyph glyph-name="Hbar" unicode="&#x126;" horiz-adv-x="1464" 
d="M512 0h-379v1004h-137v184h135q-6 123 -18 225l358 21l41 -41v-205h438q-6 123 -18 225l358 21l41 -41v-205h139v-184h-139v-1004h-379v567h-440v-567zM512 834h440v170h-440v-170z" />
    <glyph glyph-name="hbar" unicode="&#x127;" horiz-adv-x="1187" 
d="M471 0h-369v1151h-165v184h157q-5 78 -22 183l358 38l41 -40v-181h256v-184h-256v-236q144 129 307 129q134 0 210.5 -87.5t76.5 -239.5v-717h-369v649q0 77 -28 113.5t-88 36.5q-53 0 -109 -33v-766z" />
    <glyph glyph-name="Itilde" unicode="&#x128;" horiz-adv-x="645" 
d="M156 1931q46 0 92.5 -18t78.5 -40t72.5 -40t75.5 -18q39 0 63 20t54 68l90 -15q0 -59 -12.5 -112.5t-37.5 -98.5t-68.5 -71.5t-98.5 -26.5q-41 0 -90.5 18.5t-86.5 40t-80.5 40t-74.5 18.5q-32 0 -58.5 -20.5t-54.5 -67.5l-90 14q0 59 11.5 111t36.5 98t70.5 73t107.5 27
zM512 0h-379v1030q0 224 -20 383l358 21l41 -41v-1393z" />
    <glyph glyph-name="itilde" unicode="&#x129;" horiz-adv-x="604" 
d="M174 1563q45 0 96.5 -29.5t95.5 -58.5t72 -29t48.5 20.5t37.5 67.5l90 -14q0 -92 -16 -167t-59 -129.5t-109 -54.5q-41 0 -97 29.5t-102.5 58.5t-64.5 29q-28 0 -48.5 -20.5t-37.5 -67.5l-90 14q0 92 16 167t59 129.5t109 54.5zM113 0v641q0 188 -31 365l358 38l41 -40
v-1004h-368z" />
    <glyph glyph-name="Imacron" unicode="&#x12a;" horiz-adv-x="645" 
d="M2 1657v196h610v-196h-610zM512 0h-379v1030q0 224 -20 383l358 21l41 -41v-1393z" />
    <glyph glyph-name="imacron" unicode="&#x12b;" horiz-adv-x="604" 
d="M27 1266v196h551v-196h-551zM113 0v641q0 188 -31 365l358 38l41 -40v-1004h-368z" />
    <glyph glyph-name="Ibreve" unicode="&#x12c;" horiz-adv-x="645" 
d="M487 1911l142 18q-8 -151 -97.5 -246.5t-236.5 -95.5q-130 0 -217 83.5t-94 221.5l143 21q15 -46 64.5 -73.5t115.5 -27.5q67 0 116.5 28.5t63.5 70.5zM512 0h-379v1030q0 224 -20 383l358 21l41 -41v-1393z" />
    <glyph glyph-name="ibreve" unicode="&#x12d;" horiz-adv-x="604" 
d="M446 1542l142 19q-6 -177 -86 -290.5t-211 -113.5q-115 0 -192 101t-83 266l144 20q6 -74 45 -118t98 -44q60 0 99 45.5t44 114.5zM113 0v641q0 188 -31 365l358 38l41 -40v-1004h-368z" />
    <glyph glyph-name="Iogonek" unicode="&#x12e;" horiz-adv-x="645" 
d="M512 0q-70 -52 -110 -117.5t-40 -124.5q0 -90 89 -90q49 0 110 27l51 -121q-62 -54 -139.5 -86.5t-157.5 -32.5q-106 0 -175.5 62t-69.5 164q0 88 60.5 173.5t160.5 145.5h-158v1030q0 224 -20 383l358 21l41 -41v-1393z" />
    <glyph glyph-name="iogonek" unicode="&#x12f;" horiz-adv-x="604" 
d="M518 1382q0 -94 -68 -160.5t-165 -66.5q-87 0 -142 53.5t-55 130.5q0 92 72.5 159t169.5 67q83 0 135.5 -50.5t52.5 -132.5zM113 0v641q0 188 -31 365l358 38l41 -40v-1004q-74 -47 -116.5 -108.5t-42.5 -120.5q0 -40 25 -65t73 -25q52 0 100 26l51 -121
q-61 -53 -139 -85.5t-158 -32.5q-107 0 -176 57t-69 153q0 90 62 176.5t167 145.5h-145z" />
    <glyph glyph-name="Idotaccent" unicode="&#x130;" horiz-adv-x="645" 
d="M518 1782q0 -92 -66 -152.5t-163 -60.5q-83 0 -138 48.5t-55 119.5q0 84 71.5 145.5t168.5 61.5q77 0 129.5 -45t52.5 -117zM512 0h-379v1030q0 224 -20 383l358 21l41 -41v-1393z" />
    <glyph glyph-name="dotlessi" unicode="&#x131;" horiz-adv-x="604" 
d="M113 0v641q0 188 -31 365l358 38l41 -40v-1004h-368z" />
    <glyph glyph-name="IJ" unicode="&#x132;" horiz-adv-x="1290" 
d="M512 0h-379v1030q0 224 -20 383l358 21l41 -41v-1393zM748 -461l-117 154q147 222 147 594v743q0 194 -30 365l370 39l39 -39v-1108q0 -146 -17 -248t-63 -193t-125 -163t-204 -144z" />
    <glyph glyph-name="ij" unicode="&#x133;" horiz-adv-x="1214" 
d="M518 1382q0 -94 -68 -160.5t-165 -66.5q-87 0 -142 53.5t-55 130.5q0 92 72.5 159t169.5 67q83 0 135.5 -50.5t52.5 -132.5zM1120 1382q0 -94 -68 -160.5t-165 -66.5q-87 0 -142 53.5t-55 130.5q0 92 72.5 159t169.5 67q83 0 135.5 -50.5t52.5 -132.5zM113 0v641
q0 188 -31 365l358 38l41 -40v-1004h-368zM748 -532l-144 122q119 195 119 502v549q0 188 -31 365l359 38l41 -40v-902q0 -239 -72.5 -379t-271.5 -255z" />
    <glyph glyph-name="Jcircumflex" unicode="&#x134;" horiz-adv-x="645" 
d="M49 1581l-96 82q109 96 250 248l239 20q123 -146 250 -268l-96 -82q-87 30 -272 123q-194 -95 -275 -123zM102 -461l-116 154q147 222 147 594v743q0 188 -31 365l371 39l39 -39v-1108q0 -146 -17.5 -248t-63.5 -193t-125 -163t-204 -144z" />
    <glyph glyph-name="jcircumflex" unicode="&#x135;" horiz-adv-x="610" 
d="M143 1149l-131 49q60 152 117 361l342 20q54 -210 117 -381l-131 -49q-81 78 -156 205q-80 -130 -158 -205zM143 -532l-143 122q119 195 119 502v549q0 188 -31 365l358 38l41 -40v-902q0 -239 -72.5 -379t-271.5 -255z" />
    <glyph glyph-name="Kcommaaccent" unicode="&#x136;" horiz-adv-x="1357" 
d="M133 1030q0 212 -20 383l358 21l41 -41v-609h123q147 329 278 650l359 -21l20 -39l-354 -631l403 -743l-438 -10q-131 231 -268 528h-123v-518h-379v1030zM502 -666q90 93 125 195q-55 11 -91 53.5t-36 102.5q0 72 53.5 125t130.5 53q73 0 123.5 -51t50.5 -144
q0 -63 -24.5 -128t-66 -121t-79.5 -97.5t-82 -79.5z" />
    <glyph glyph-name="kcommaaccent" unicode="&#x137;" horiz-adv-x="1144" 
d="M102 1153q0 194 -30 365l358 38l41 -40v-936h61q106 204 216 464l311 -20l20 -41l-241 -371q113 -245 307 -612l-422 -20q-112 241 -180 415h-72v-395h-369v1153zM395 -666q90 93 125 195q-55 11 -91 53.5t-36 102.5q0 72 54 125t131 53q73 0 123.5 -51t50.5 -144
q0 -63 -24.5 -128t-66 -121t-79.5 -97.5t-82 -79.5z" />
    <glyph glyph-name="kgreenlandic" unicode="&#x138;" horiz-adv-x="1144" 
d="M102 641q0 194 -30 365l358 38l41 -40v-424h61q106 204 216 464l311 -20l20 -41l-241 -371q113 -245 307 -612l-422 -20q-112 241 -180 415h-72v-395h-369v641z" />
    <glyph glyph-name="Lacute" unicode="&#x139;" horiz-adv-x="1064" 
d="M791 1767l-21 -59q-260 -126 -606 -129l-25 84q236 135 432 291zM1044 287v-287h-911v1030q0 224 -20 383l358 21l41 -41v-1127z" />
    <glyph glyph-name="lacute" unicode="&#x13a;" horiz-adv-x="604" 
d="M629 1888l-21 -59q-260 -126 -606 -129l-25 84q239 137 433 291zM481 0h-368v1153q0 188 -31 365l358 38l41 -40v-1516z" />
    <glyph glyph-name="Lcommaaccent" unicode="&#x13b;" horiz-adv-x="1064" 
d="M1044 287v-287h-911v1030q0 224 -20 383l358 21l41 -41v-1127zM424 -666q90 93 125 195q-55 11 -91 53.5t-36 102.5q0 72 53.5 125t130.5 53q73 0 123.5 -51t50.5 -144q0 -63 -24.5 -128t-66 -121t-79.5 -97.5t-82 -79.5z" />
    <glyph glyph-name="lcommaaccent" unicode="&#x13c;" horiz-adv-x="604" 
d="M481 0h-368v1153q0 188 -31 365l358 38l41 -40v-1516zM125 -666q90 93 125 195q-55 11 -91 53.5t-36 102.5q0 72 53.5 125t130.5 53q73 0 123.5 -51t50.5 -144q0 -63 -24.5 -128t-66 -121t-79.5 -97.5t-82 -79.5z" />
    <glyph glyph-name="Lcaron" unicode="&#x13d;" horiz-adv-x="1064" 
d="M1001 1610l21 -62q-78 -207 -225 -430h-121q35 352 45 492h280zM1044 287v-287h-911v1030q0 224 -20 383l358 21l41 -41v-1127z" />
    <glyph glyph-name="lcaron" unicode="&#x13e;" horiz-adv-x="604" 
d="M936 1610l20 -62q-78 -207 -225 -430h-121q35 352 45 492h281zM481 0h-368v1153q0 188 -31 365l358 38l41 -40v-1516z" />
    <glyph glyph-name="Ldot" unicode="&#x13f;" horiz-adv-x="1064" 
d="M1034 778q0 -89 -62.5 -150t-154.5 -61t-150.5 59t-58.5 144q0 88 67 150.5t159 62.5q87 0 143.5 -57t56.5 -148zM1044 287v-287h-911v1030q0 224 -20 383l358 21l41 -41v-1127z" />
    <glyph glyph-name="ldot" unicode="&#x140;" horiz-adv-x="1150" 
d="M481 0h-368v1153q0 188 -31 365l358 38l41 -40v-1516zM1079 664q0 -89 -62.5 -150t-154.5 -61t-150.5 58.5t-58.5 143.5q0 88 67 150.5t159 62.5q87 0 143.5 -56.5t56.5 -147.5z" />
    <glyph glyph-name="Lslash" unicode="&#x141;" horiz-adv-x="1064" 
d="M1044 287v-287h-911v504l-160 -88l-82 151l242 133v330q0 224 -20 383l358 21l41 -41v-482l197 109l84 -152l-281 -155v-447z" />
    <glyph glyph-name="lslash" unicode="&#x142;" horiz-adv-x="604" 
d="M481 0h-368v672l-185 -103l-82 152l267 147v285q0 188 -31 365l358 38l41 -40v-443l183 101l84 -152l-267 -148v-874z" />
    <glyph glyph-name="Nacute" unicode="&#x143;" horiz-adv-x="1454" 
d="M1022 1767l-21 -59q-260 -126 -606 -129l-24 84q236 135 432 291zM786 903q114 -193 197 -399h6q-26 213 -26 409q0 275 -21 500l338 17l41 -41v-1389h-358q-66 110 -162 281.5t-135 236.5q-122 205 -195 373h-6q27 -171 27 -393v-498h-359v1047q0 207 -20 366l379 14
q255 -458 294 -524z" />
    <glyph glyph-name="nacute" unicode="&#x144;" horiz-adv-x="1198" 
d="M797 1569l20 -62q-128 -200 -319 -348l-144 21q78 222 115 405zM481 0h-368v641q0 154 -41 344l348 59q28 -72 45 -143q149 143 323 143q134 0 210.5 -87.5t76.5 -239.5v-717h-368v649q0 77 -28.5 113.5t-88.5 36.5q-53 0 -109 -33v-766z" />
    <glyph glyph-name="Ncommaaccent" unicode="&#x145;" horiz-adv-x="1454" 
d="M786 903q114 -193 197 -399h6q-26 213 -26 409q0 275 -21 500l338 17l41 -41v-1389h-358q-66 110 -162 281.5t-135 236.5q-122 205 -195 373h-6q27 -171 27 -393v-498h-359v1047q0 207 -20 366l379 14q255 -458 294 -524zM567 -666q90 93 125 195q-55 11 -91 53.5
t-36 102.5q0 72 54 125t131 53q73 0 123.5 -51t50.5 -144q0 -63 -24.5 -128t-66 -121t-79.5 -97.5t-82 -79.5z" />
    <glyph glyph-name="ncommaaccent" unicode="&#x146;" horiz-adv-x="1198" 
d="M481 0h-368v641q0 154 -41 344l348 59q28 -72 45 -143q149 143 323 143q134 0 210.5 -87.5t76.5 -239.5v-717h-368v649q0 77 -28.5 113.5t-88.5 36.5q-53 0 -109 -33v-766zM408 -666q88 92 124 195q-55 11 -90.5 53.5t-35.5 102.5q0 72 53.5 125t130.5 53q73 0 123.5 -51
t50.5 -144q0 -63 -24.5 -128t-66 -121t-79.5 -97.5t-82 -79.5z" />
    <glyph glyph-name="Ncaron" unicode="&#x147;" horiz-adv-x="1454" 
d="M969 1939l96 -81q-109 -96 -250 -248l-240 -21q-131 156 -249 269l96 81q93 -33 272 -122q186 91 275 122zM786 903q114 -193 197 -399h6q-26 213 -26 409q0 275 -21 500l338 17l41 -41v-1389h-358q-66 110 -162 281.5t-135 236.5q-122 205 -195 373h-6q27 -171 27 -393
v-498h-359v1047q0 207 -20 366l379 14q255 -458 294 -524z" />
    <glyph glyph-name="ncaron" unicode="&#x148;" horiz-adv-x="1198" 
d="M838 1606l116 -82q-105 -133 -235 -336l-240 -21q-121 202 -235 357l116 82q86 -54 240 -191q145 133 238 191zM481 0h-368v641q0 154 -41 344l348 59q28 -72 45 -143q149 143 323 143q134 0 210.5 -87.5t76.5 -239.5v-717h-368v649q0 77 -28.5 113.5t-88.5 36.5
q-53 0 -109 -33v-766z" />
    <glyph glyph-name="Eng" unicode="&#x14a;" horiz-adv-x="1454" 
d="M899 -414l-104 127q70 90 103 161t40 165q-57 96 -145 255t-127 224q-122 205 -195 373h-6q27 -171 27 -393v-498h-359v1047q0 207 -20 366l379 14q255 -458 294 -524q114 -193 197 -399h6q-26 213 -26 409q0 275 -21 500l338 17l41 -41v-1102q0 -111 -11 -193.5
t-38.5 -157.5t-75.5 -134t-120.5 -112.5t-176.5 -103.5z" />
    <glyph glyph-name="eng" unicode="&#x14b;" horiz-adv-x="1198" 
d="M481 0h-368v641q0 154 -41 344l348 59q28 -72 45 -143q149 143 323 143q134 0 210.5 -87.5t76.5 -239.5v-594q0 -234 -67 -368.5t-254 -266.5l-144 123q97 224 97 512v526q0 77 -28.5 113.5t-88.5 36.5q-53 0 -109 -33v-766z" />
    <glyph glyph-name="Omacron" unicode="&#x14c;" horiz-adv-x="1464" 
d="M432 1636v197h610v-197h-610zM1403 711q0 -174 -53.5 -314t-147 -230.5t-218 -138.5t-269.5 -48q-144 0 -264.5 48.5t-207 137.5t-134.5 222t-48 296q0 339 193 544.5t498 205.5q199 0 347 -90.5t226 -254t78 -378.5zM451 717q0 -130 27.5 -230.5t93.5 -165.5t163 -65
q279 0 279 451q0 450 -277 450q-97 0 -162 -57.5t-94.5 -154t-29.5 -228.5z" />
    <glyph glyph-name="omacron" unicode="&#x14d;" horiz-adv-x="1163" 
d="M276 1266v196h611v-196h-611zM1092 518q0 -130 -42.5 -234.5t-115.5 -169.5t-167 -99.5t-200 -34.5t-196 34t-157 97.5t-104.5 161t-37.5 219.5q0 252 149 402t377 150q223 0 358.5 -143t135.5 -383zM451 522q0 -167 30.5 -252.5t104.5 -85.5q39 0 64.5 22.5t39 67
t18.5 97.5t5 127q0 173 -29.5 257.5t-103.5 84.5q-70 0 -99.5 -76t-29.5 -242z" />
    <glyph glyph-name="Obreve" unicode="&#x14e;" horiz-adv-x="1464" 
d="M918 1890l141 19q-8 -151 -97.5 -246.5t-236.5 -95.5q-130 0 -217 83.5t-94 221.5l143 20q15 -46 64.5 -73t115.5 -27q68 0 117.5 28t63.5 70zM1403 711q0 -174 -53.5 -314t-147 -230.5t-218 -138.5t-269.5 -48q-144 0 -264.5 48.5t-207 137.5t-134.5 222t-48 296
q0 339 193 544.5t498 205.5q199 0 347 -90.5t226 -254t78 -378.5zM451 717q0 -130 27.5 -230.5t93.5 -165.5t163 -65q279 0 279 451q0 450 -277 450q-97 0 -162 -57.5t-94.5 -154t-29.5 -228.5z" />
    <glyph glyph-name="obreve" unicode="&#x14f;" horiz-adv-x="1163" 
d="M758 1567l141 18q-8 -178 -97.5 -290.5t-236.5 -112.5q-130 0 -217 100t-94 266l143 21q15 -74 64.5 -118t116.5 -44t116.5 45.5t63.5 114.5zM1092 518q0 -130 -42.5 -234.5t-115.5 -169.5t-167 -99.5t-200 -34.5t-196 34t-157 97.5t-104.5 161t-37.5 219.5
q0 252 149 402t377 150q223 0 358.5 -143t135.5 -383zM451 522q0 -167 30.5 -252.5t104.5 -85.5q39 0 64.5 22.5t39 67t18.5 97.5t5 127q0 173 -29.5 257.5t-103.5 84.5q-70 0 -99.5 -76t-29.5 -242z" />
    <glyph glyph-name="Ohungarumlaut" unicode="&#x150;" horiz-adv-x="1464" 
d="M737 1753l-20 -59q-206 -132 -490 -135l-24 83q200 135 366 291zM1270 1753l-21 -59q-206 -132 -489 -135l-25 83q203 138 367 291zM1403 711q0 -174 -53.5 -314t-147 -230.5t-218 -138.5t-269.5 -48q-144 0 -264.5 48.5t-207 137.5t-134.5 222t-48 296q0 339 193 544.5
t498 205.5q199 0 347 -90.5t226 -254t78 -378.5zM451 717q0 -130 27.5 -230.5t93.5 -165.5t163 -65q279 0 279 451q0 450 -277 450q-97 0 -162 -57.5t-94.5 -154t-29.5 -228.5z" />
    <glyph glyph-name="ohungarumlaut" unicode="&#x151;" horiz-adv-x="1163" 
d="M561 1569l21 -62q-99 -196 -254 -348l-144 21q78 222 115 405zM956 1569l21 -62q-99 -196 -254 -348l-143 21q76 215 114 405zM1092 518q0 -130 -42.5 -234.5t-115.5 -169.5t-167 -99.5t-200 -34.5t-196 34t-157 97.5t-104.5 161t-37.5 219.5q0 252 149 402t377 150
q223 0 358.5 -143t135.5 -383zM451 522q0 -167 30.5 -252.5t104.5 -85.5q39 0 64.5 22.5t39 67t18.5 97.5t5 127q0 173 -29.5 257.5t-103.5 84.5q-70 0 -99.5 -76t-29.5 -242z" />
    <glyph glyph-name="OE" unicode="&#x152;" horiz-adv-x="2002" 
d="M1952 287v-287h-1057q-81 -20 -180 -20q-144 0 -264.5 48.5t-207 137.5t-134.5 222t-48 296q0 339 193 544.5t498 205.5q94 0 176 -21h970l41 -41l-8 -246l-635 17q84 -145 101 -326l432 10l-10 -260l-424 13q-23 -176 -109 -310zM451 717q0 -130 27.5 -230.5
t93.5 -165.5t163 -65q279 0 279 451q0 450 -277 450q-97 0 -162 -57.5t-94.5 -154t-29.5 -228.5z" />
    <glyph glyph-name="oe" unicode="&#x153;" horiz-adv-x="1738" 
d="M1675 502l-30 -31h-545q40 -235 278 -235q129 0 240 59l20 -232q-52 -34 -149.5 -58.5t-200.5 -24.5q-235 0 -387 139q-145 -139 -350 -139q-98 0 -184 34t-152 97t-104.5 161.5t-38.5 219.5q0 126 41 231t111.5 174.5t163 108t196.5 38.5q201 0 334 -139
q142 139 335 139q187 0 305.5 -123.5t118.5 -314.5q0 -69 -2 -104zM451 522q0 -167 30.5 -252.5t104.5 -85.5q38 0 63.5 22.5t39 67.5t19 99t5.5 129q0 170 -29.5 254t-103.5 84q-70 0 -99.5 -76t-29.5 -242zM1223 840q-64 0 -97.5 -71t-33.5 -181l223 12q4 40 4 66
q0 174 -96 174z" />
    <glyph glyph-name="Racute" unicode="&#x154;" horiz-adv-x="1284" 
d="M981 1747l-20 -59q-260 -126 -607 -129l-24 83q236 135 432 291zM512 0h-379v1047q0 237 -20 366h503q289 0 442.5 -120.5t153.5 -336.5q0 -141 -63.5 -240.5t-167.5 -152.5l303 -563l-440 -10q-108 235 -195 475h-137v-465zM590 1147h-78v-426h78q127 0 180 55.5
t53 157.5q0 105 -54 159t-179 54z" />
    <glyph glyph-name="racute" unicode="&#x155;" horiz-adv-x="851" 
d="M637 1569l20 -62q-128 -200 -319 -348l-143 21q76 215 114 405zM481 0h-368v641q0 154 -41 344l348 59q49 -131 61 -245q44 118 101.5 181.5t146.5 63.5q64 0 102 -30l-24 -350q-72 16 -139 16q-115 0 -187 -41v-639z" />
    <glyph glyph-name="Rcommaaccent" unicode="&#x156;" horiz-adv-x="1284" 
d="M512 0h-379v1047q0 237 -20 366h503q289 0 442.5 -120.5t153.5 -336.5q0 -141 -63.5 -240.5t-167.5 -152.5l303 -563l-440 -10q-108 235 -195 475h-137v-465zM590 1147h-78v-426h78q127 0 180 55.5t53 157.5q0 105 -54 159t-179 54zM477 -666q90 93 125 195
q-55 11 -91 53.5t-36 102.5q0 72 53.5 125t130.5 53q73 0 124 -51t51 -144q0 -63 -24.5 -128t-66 -121t-79.5 -97.5t-82 -79.5z" />
    <glyph glyph-name="rcommaaccent" unicode="&#x157;" horiz-adv-x="851" 
d="M481 0h-368v641q0 154 -41 344l348 59q49 -131 61 -245q44 118 101.5 181.5t146.5 63.5q64 0 102 -30l-24 -350q-72 16 -139 16q-115 0 -187 -41v-639zM123 -666q90 93 125 195q-55 11 -91 53.5t-36 102.5q0 72 53.5 125t130.5 53q73 0 123.5 -51t50.5 -144
q0 -63 -24.5 -128t-66 -121t-79.5 -97.5t-82 -79.5z" />
    <glyph glyph-name="Rcaron" unicode="&#x158;" horiz-adv-x="1284" 
d="M928 1919l96 -82q-109 -96 -250 -248l-239 -20q-123 146 -250 268l96 82q87 -30 272 -123q194 95 275 123zM512 0h-379v1047q0 237 -20 366h503q289 0 442.5 -120.5t153.5 -336.5q0 -141 -63.5 -240.5t-167.5 -152.5l303 -563l-440 -10q-108 235 -195 475h-137v-465z
M590 1147h-78v-426h78q127 0 180 55.5t53 157.5q0 105 -54 159t-179 54z" />
    <glyph glyph-name="rcaron" unicode="&#x159;" horiz-adv-x="851" 
d="M678 1606l117 -82q-110 -140 -236 -336l-240 -21q-121 202 -235 357l117 82q83 -52 239 -191q145 133 238 191zM481 0h-368v641q0 154 -41 344l348 59q49 -131 61 -245q44 118 101.5 181.5t146.5 63.5q64 0 102 -30l-24 -350q-72 16 -139 16q-115 0 -187 -41v-639z" />
    <glyph glyph-name="Sacute" unicode="&#x15a;" horiz-adv-x="1126" 
d="M913 1747l-20 -59q-260 -126 -606 -129l-25 83q236 135 432 291zM1044 403q0 -205 -149.5 -314t-398.5 -109q-119 0 -239.5 22.5t-174.5 56.5l20 310q73 -44 192.5 -73.5t205.5 -29.5q155 0 155 111q0 30 -13 56.5t-28 44.5t-51 41t-56 33.5t-70.5 34.5t-69.5 34
q-62 32 -105.5 61.5t-87.5 75t-67 107.5t-23 139q0 137 74.5 235.5t202 146.5t294.5 48q94 0 187.5 -15t150.5 -37l-41 -317q-151 82 -303 82q-86 0 -131 -31.5t-45 -87.5q0 -27 12 -51.5t28 -41.5t48.5 -37.5t55.5 -32t68 -33t69 -33.5q49 -25 85.5 -47.5t77.5 -58
t67 -74.5t43 -95t17 -121z" />
    <glyph glyph-name="sacute" unicode="&#x15b;" horiz-adv-x="925" 
d="M680 1569l20 -62q-128 -200 -319 -348l-143 21q76 215 114 405zM840 993l-21 -270q-79 40 -163 63t-140 23q-49 0 -77.5 -17.5t-28.5 -46.5q0 -27 25.5 -49.5t66.5 -40.5t90.5 -37.5t99 -47t90.5 -61.5t66.5 -87.5t25.5 -120.5q0 -150 -121 -235.5t-329 -85.5
q-106 0 -209 21.5t-164 57.5l21 265q88 -50 187.5 -79.5t166.5 -29.5q100 0 100 61q0 27 -25.5 50.5t-66.5 42t-90.5 38.5t-99.5 47t-91 61t-66.5 86.5t-25.5 117.5q0 149 124.5 237t332.5 88q172 0 322 -51z" />
    <glyph glyph-name="Scircumflex" unicode="&#x15c;" horiz-adv-x="1126" 
d="M313 1561l-96 81q109 96 250 248l240 21q131 -156 249 -269l-96 -81q-93 33 -272 122q-186 -91 -275 -122zM1044 403q0 -205 -149.5 -314t-398.5 -109q-119 0 -239.5 22.5t-174.5 56.5l20 310q73 -44 192.5 -73.5t205.5 -29.5q155 0 155 111q0 30 -13 56.5t-28 44.5
t-51 41t-56 33.5t-70.5 34.5t-69.5 34q-62 32 -105.5 61.5t-87.5 75t-67 107.5t-23 139q0 137 74.5 235.5t202 146.5t294.5 48q94 0 187.5 -15t150.5 -37l-41 -317q-151 82 -303 82q-86 0 -131 -31.5t-45 -87.5q0 -27 12 -51.5t28 -41.5t48.5 -37.5t55.5 -32t68 -33
t69 -33.5q49 -25 85.5 -47.5t77.5 -58t67 -74.5t43 -95t17 -121z" />
    <glyph glyph-name="scircumflex" unicode="&#x15d;" horiz-adv-x="925" 
d="M244 1130l-117 82q105 133 235 336l240 21q116 -194 236 -357l-117 -82q-86 54 -240 191q-147 -135 -237 -191zM840 993l-21 -270q-79 40 -163 63t-140 23q-49 0 -77.5 -17.5t-28.5 -46.5q0 -27 25.5 -49.5t66.5 -40.5t90.5 -37.5t99 -47t90.5 -61.5t66.5 -87.5
t25.5 -120.5q0 -150 -121 -235.5t-329 -85.5q-106 0 -209 21.5t-164 57.5l21 265q88 -50 187.5 -79.5t166.5 -29.5q100 0 100 61q0 27 -25.5 50.5t-66.5 42t-90.5 38.5t-99.5 47t-91 61t-66.5 86.5t-25.5 117.5q0 149 124.5 237t332.5 88q172 0 322 -51z" />
    <glyph glyph-name="Scedilla" unicode="&#x15e;" horiz-adv-x="1126" 
d="M872 -309q0 -56 -29.5 -99t-76.5 -68.5t-112 -42t-128 -22.5t-133 -6l10 123q101 6 158 35t57 76q0 73 -155 73l-39 62l47 158q-117 3 -227.5 24.5t-161.5 54.5l20 310q73 -44 192.5 -73.5t205.5 -29.5q155 0 155 111q0 30 -13 56.5t-28 44.5t-51 41t-56 33.5t-70.5 34.5
t-69.5 34q-62 32 -105.5 61.5t-87.5 75t-67 107.5t-23 139q0 137 74.5 235.5t202 146.5t294.5 48q94 0 187.5 -15t150.5 -37l-41 -317q-151 82 -303 82q-86 0 -131 -31.5t-45 -87.5q0 -27 12 -51.5t28 -41.5t48.5 -37.5t55.5 -32t68 -33t69 -33.5q49 -25 85.5 -47.5
t77.5 -58t67 -74.5t43 -95t17 -121q0 -167 -101.5 -271.5t-280.5 -137.5l-35 -109q245 -30 245 -194z" />
    <glyph glyph-name="scedilla" unicode="&#x15f;" horiz-adv-x="925" 
d="M758 -309q0 -56 -29.5 -99t-76.5 -68.5t-112 -42t-128 -22.5t-133 -6l10 123q101 6 158 35t57 76q0 73 -156 73l-39 62l47 160q-196 13 -305 77l21 265q88 -50 187.5 -79.5t166.5 -29.5q100 0 100 61q0 27 -25.5 50.5t-66.5 42t-90.5 38.5t-99.5 47t-91 61t-66.5 86.5
t-25.5 117.5q0 149 124.5 237t332.5 88q172 0 322 -51l-21 -270q-79 40 -163 63t-140 23q-49 0 -77.5 -17.5t-28.5 -46.5q0 -27 25.5 -49.5t66.5 -40.5t90.5 -37.5t99 -47t90.5 -61.5t66.5 -87.5t25.5 -120.5q0 -126 -87 -208t-242 -105l-33 -103q246 -30 246 -194z" />
    <glyph glyph-name="Scaron" unicode="&#x160;" horiz-adv-x="1126" 
d="M860 1919l96 -82q-104 -91 -249 -248l-240 -20q-123 146 -250 268l96 82q90 -31 273 -123q196 96 274 123zM1044 403q0 -205 -149.5 -314t-398.5 -109q-119 0 -239.5 22.5t-174.5 56.5l20 310q73 -44 192.5 -73.5t205.5 -29.5q155 0 155 111q0 30 -13 56.5t-28 44.5
t-51 41t-56 33.5t-70.5 34.5t-69.5 34q-62 32 -105.5 61.5t-87.5 75t-67 107.5t-23 139q0 137 74.5 235.5t202 146.5t294.5 48q94 0 187.5 -15t150.5 -37l-41 -317q-151 82 -303 82q-86 0 -131 -31.5t-45 -87.5q0 -27 12 -51.5t28 -41.5t48.5 -37.5t55.5 -32t68 -33
t69 -33.5q49 -25 85.5 -47.5t77.5 -58t67 -74.5t43 -95t17 -121z" />
    <glyph glyph-name="scaron" unicode="&#x161;" horiz-adv-x="925" 
d="M721 1606l117 -82q-110 -140 -236 -336l-240 -21q-121 202 -235 357l117 82q83 -52 239 -191q145 133 238 191zM840 993l-21 -270q-79 40 -163 63t-140 23q-49 0 -77.5 -17.5t-28.5 -46.5q0 -27 25.5 -49.5t66.5 -40.5t90.5 -37.5t99 -47t90.5 -61.5t66.5 -87.5
t25.5 -120.5q0 -150 -121 -235.5t-329 -85.5q-106 0 -209 21.5t-164 57.5l21 265q88 -50 187.5 -79.5t166.5 -29.5q100 0 100 61q0 27 -25.5 50.5t-66.5 42t-90.5 38.5t-99.5 47t-91 61t-66.5 86.5t-25.5 117.5q0 149 124.5 237t332.5 88q172 0 322 -51z" />
    <glyph glyph-name="Tcedilla" unicode="&#x162;" horiz-adv-x="1198" 
d="M788 0h-116l-37 -115q246 -30 246 -194q0 -69 -43.5 -118t-117.5 -74t-152 -35.5t-167 -10.5l11 123q101 6 158 35t57 76q0 73 -156 73l-39 62l51 178h-73v1135q-58 -2 -390 -17l21 295h1116l21 -295q-332 15 -390 17v-1135z" />
    <glyph glyph-name="tcedilla" unicode="&#x163;" horiz-adv-x="858" 
d="M729 -309q0 -56 -29.5 -99t-76.5 -68.5t-112 -42t-128 -22.5t-133 -6l10 123q101 6 158 35t57 76q0 73 -156 73l-38 62l57 192q-95 43 -145 138.5t-50 236.5v467l-133 4v123l144 41l92 268l225 17l45 -43l-4 -242h281l24 -41l-16 -143l-289 8v-457q0 -155 125 -155
q76 0 160 49l20 -222q-131 -83 -303 -83l-31 -95q246 -30 246 -194z" />
    <glyph glyph-name="Tcaron" unicode="&#x164;" horiz-adv-x="1198" 
d="M872 1919l97 -82q-109 -96 -250 -248l-240 -20q-123 146 -250 268l97 82q87 -30 272 -123q196 96 274 123zM788 0h-378v1135q-58 -2 -390 -17l21 295h1116l21 -295q-332 15 -390 17v-1135z" />
    <glyph glyph-name="tcaron" unicode="&#x165;" horiz-adv-x="858" 
d="M956 1610l21 -62q-78 -207 -225 -430h-121q35 352 45 492h280zM801 840l-289 8v-457q0 -155 125 -155q76 0 160 49l20 -222q-131 -83 -303 -83q-175 0 -273 105t-98 304v467l-133 4v123l144 41l92 268l225 17l45 -43l-4 -242h281l24 -41z" />
    <glyph glyph-name="Tbar" unicode="&#x166;" horiz-adv-x="1198" 
d="M788 0h-378v614h-205v185h205v336q-58 -2 -390 -17l21 295h1116l21 -295q-332 15 -390 17v-336h207v-185h-207v-614z" />
    <glyph glyph-name="tbar" unicode="&#x167;" horiz-adv-x="858" 
d="M809 508h-297v-117q0 -155 125 -155q76 0 160 49l20 -222q-131 -83 -303 -83q-175 0 -273 105t-98 304v119h-125v184h125v164l-133 4v123l144 41l92 268l225 17l45 -43l-4 -242h281l24 -41l-16 -143l-289 8v-156h297v-184z" />
    <glyph glyph-name="Utilde" unicode="&#x168;" horiz-adv-x="1392" 
d="M545 1911q46 0 92.5 -18.5t78.5 -40t72.5 -40t75.5 -18.5q39 0 63 20t54 68l90 -14q0 -59 -12.5 -112.5t-37.5 -98.5t-68.5 -71.5t-98.5 -26.5q-52 0 -115 29t-121 58t-96 29q-32 0 -58 -20.5t-54 -67.5l-91 15q0 59 11.5 111t36.5 98t70.5 73t107.5 27zM113 1030
q0 206 -21 383l359 21l41 -41v-869q0 -128 55.5 -194t161.5 -66q105 0 159 66t54 194v588q0 157 -21 301l379 17v-938q0 -100 -30.5 -184t-84.5 -144t-128.5 -102t-162.5 -62t-186 -20q-165 0 -293 56t-205 173.5t-77 282.5v538z" />
    <glyph glyph-name="utilde" unicode="&#x169;" horiz-adv-x="1187" 
d="M442 1561q46 0 94.5 -18.5t82.5 -40t75.5 -40t75.5 -18.5q37 0 58.5 20.5t48.5 67.5l100 -14q0 -91 -21 -168t-72 -130t-124 -53q-52 0 -118.5 29.5t-126 58.5t-95.5 29q-57 0 -103 -88l-98 14q0 67 11.5 126.5t36 111.5t69.5 82.5t106 30.5zM113 639q0 181 -29 365
l356 40l41 -40v-613q0 -72 27 -105.5t84 -33.5q52 0 104 27v745l369 20v-778q0 -123 33 -266l-303 -20q-38 68 -60 149h-12q-67 -72 -150.5 -110.5t-169.5 -38.5q-131 0 -210.5 80.5t-79.5 213.5v365z" />
    <glyph glyph-name="Umacron" unicode="&#x16a;" horiz-adv-x="1392" 
d="M391 1636v197h610v-197h-610zM113 1030q0 206 -21 383l359 21l41 -41v-869q0 -128 55.5 -194t161.5 -66q105 0 159 66t54 194v588q0 157 -21 301l379 17v-938q0 -100 -30.5 -184t-84.5 -144t-128.5 -102t-162.5 -62t-186 -20q-165 0 -293 56t-205 173.5t-77 282.5v538z
" />
    <glyph glyph-name="umacron" unicode="&#x16b;" horiz-adv-x="1187" 
d="M293 1266v196h610v-196h-610zM113 639q0 181 -29 365l356 40l41 -40v-613q0 -72 27 -105.5t84 -33.5q52 0 104 27v745l369 20v-778q0 -123 33 -266l-303 -20q-38 68 -60 149h-12q-67 -72 -150.5 -110.5t-169.5 -38.5q-131 0 -210.5 80.5t-79.5 213.5v365z" />
    <glyph glyph-name="Ubreve" unicode="&#x16c;" horiz-adv-x="1392" 
d="M877 1890l141 19q-8 -151 -97.5 -246.5t-236.5 -95.5q-130 0 -217 83.5t-94 221.5l143 20q15 -46 64.5 -73t115.5 -27q68 0 117.5 28t63.5 70zM113 1030q0 206 -21 383l359 21l41 -41v-869q0 -128 55.5 -194t161.5 -66q105 0 159 66t54 194v588q0 157 -21 301l379 17
v-938q0 -100 -30.5 -184t-84.5 -144t-128.5 -102t-162.5 -62t-186 -20q-165 0 -293 56t-205 173.5t-77 282.5v538z" />
    <glyph glyph-name="ubreve" unicode="&#x16d;" horiz-adv-x="1187" 
d="M774 1567l141 18q-8 -178 -97 -290.5t-236 -112.5q-130 0 -217.5 100.5t-94.5 265.5l144 21q15 -74 64 -118t116 -44t116.5 45.5t63.5 114.5zM113 639q0 181 -29 365l356 40l41 -40v-613q0 -72 27 -105.5t84 -33.5q52 0 104 27v745l369 20v-778q0 -123 33 -266l-303 -20
q-38 68 -60 149h-12q-67 -72 -150.5 -110.5t-169.5 -38.5q-131 0 -210.5 80.5t-79.5 213.5v365z" />
    <glyph glyph-name="Uring" unicode="&#x16e;" horiz-adv-x="1392" 
d="M991 1804q0 -105 -81.5 -179.5t-198.5 -74.5q-106 0 -173 60t-67 147q0 103 87 178.5t204 75.5q100 0 164.5 -57.5t64.5 -149.5zM616 1769q0 -44 29.5 -74t75.5 -30q51 0 88 38t37 89q0 49 -26.5 76.5t-69.5 27.5q-54 0 -94 -38t-40 -89zM113 1030q0 206 -21 383l359 21
l41 -41v-869q0 -128 55.5 -194t161.5 -66q105 0 159 66t54 194v588q0 157 -21 301l379 17v-938q0 -100 -30.5 -184t-84.5 -144t-128.5 -102t-162.5 -62t-186 -20q-165 0 -293 56t-205 173.5t-77 282.5v538z" />
    <glyph glyph-name="uring" unicode="&#x16f;" horiz-adv-x="1187" 
d="M893 1415q0 -105 -82 -179.5t-199 -74.5q-106 0 -172.5 60t-66.5 147q0 103 87 178.5t204 75.5q100 0 164.5 -57.5t64.5 -149.5zM518 1380q0 -44 29.5 -74t75.5 -30q51 0 88 38t37 89q0 49 -26.5 76.5t-70.5 27.5q-54 0 -93.5 -38t-39.5 -89zM113 639q0 181 -29 365
l356 40l41 -40v-613q0 -72 27 -105.5t84 -33.5q52 0 104 27v745l369 20v-778q0 -123 33 -266l-303 -20q-38 68 -60 149h-12q-67 -72 -150.5 -110.5t-169.5 -38.5q-131 0 -210.5 80.5t-79.5 213.5v365z" />
    <glyph glyph-name="Uhungarumlaut" unicode="&#x170;" horiz-adv-x="1392" 
d="M696 1753l-20 -59q-206 -132 -490 -135l-24 83q200 135 366 291zM1229 1753l-21 -59q-206 -132 -489 -135l-25 83q203 138 367 291zM113 1030q0 206 -21 383l359 21l41 -41v-869q0 -128 55.5 -194t161.5 -66q105 0 159 66t54 194v588q0 157 -21 301l379 17v-938
q0 -100 -30.5 -184t-84.5 -144t-128.5 -102t-162.5 -62t-186 -20q-165 0 -293 56t-205 173.5t-77 282.5v538z" />
    <glyph glyph-name="uhungarumlaut" unicode="&#x171;" horiz-adv-x="1187" 
d="M578 1569l20 -62q-99 -196 -254 -348l-143 21q76 215 114 405zM973 1569l20 -62q-99 -196 -254 -348l-143 21q78 222 115 405zM113 639q0 181 -29 365l356 40l41 -40v-613q0 -72 27 -105.5t84 -33.5q52 0 104 27v745l369 20v-778q0 -123 33 -266l-303 -20q-38 68 -60 149
h-12q-67 -72 -150.5 -110.5t-169.5 -38.5q-131 0 -210.5 80.5t-79.5 213.5v365z" />
    <glyph glyph-name="Uogonek" unicode="&#x172;" horiz-adv-x="1392" 
d="M113 1030q0 206 -21 383l359 21l41 -41v-869q0 -128 55.5 -194t161.5 -66q105 0 159 66t54 194v588q0 157 -21 301l379 17v-938q0 -150 -65.5 -259.5t-180.5 -173.5q-107 -66 -162 -147t-55 -150q0 -94 84 -94q54 0 115 27l51 -121q-61 -53 -139.5 -86t-157.5 -33
q-106 0 -176 60.5t-70 158.5q0 82 50.5 161.5t142.5 144.5h-29q-165 0 -293 56t-205 173.5t-77 282.5v538z" />
    <glyph glyph-name="uogonek" unicode="&#x173;" horiz-adv-x="1187" 
d="M113 639q0 181 -29 365l356 40l41 -40v-613q0 -72 27 -105.5t84 -33.5q52 0 104 27v745l369 20v-778q0 -123 33 -266q-110 -52 -173 -118.5t-63 -129.5q0 -39 22 -61.5t66 -22.5q50 0 111 27l51 -121q-60 -53 -138.5 -86t-158.5 -33q-106 0 -176 60.5t-70 158.5
q0 86 66 167t184 141l-24 -2q-38 68 -60 149h-12q-67 -72 -150.5 -110.5t-169.5 -38.5q-131 0 -210.5 80.5t-79.5 213.5v365z" />
    <glyph glyph-name="Wcircumflex" unicode="&#x174;" horiz-adv-x="1966" 
d="M709 1561l-97 81q109 96 250 248l240 21q127 -151 250 -269l-97 -81q-93 33 -272 122q-189 -92 -274 -122zM356 0l-350 1395l406 39l143 -713q11 -54 22 -119t22 -134t15 -93q12 64 74 342l152 696l364 21l150 -713q25 -110 71 -346q36 221 64 350l147 709l303 -21
l21 -39l-350 -1374h-420l-109 457q-19 79 -48 229t-44 215h-6q-67 -325 -98 -450l-109 -451h-420z" />
    <glyph glyph-name="wcircumflex" unicode="&#x175;" horiz-adv-x="1671" 
d="M639 1130l-117 82q110 140 236 336l239 21q116 -194 236 -357l-117 -82q-83 52 -239 191q-145 -133 -238 -191zM248 0l-238 1014l379 30l90 -518q4 -24 13.5 -74.5t16 -92t9.5 -72.5h6q4 38 18.5 122.5t18.5 116.5l76 498h469l80 -498q4 -24 13.5 -74.5t16 -92t9.5 -72.5
h6q4 37 37 239l86 518l286 -20l21 -41l-238 -983h-471l-71 418q-41 243 -47 319h-7q-3 -38 -8.5 -83t-10.5 -75t-14.5 -84.5t-13.5 -78.5l-71 -416h-461z" />
    <glyph glyph-name="Ycircumflex" unicode="&#x176;" horiz-adv-x="1196" 
d="M371 1561l-97 81q109 96 250 248l240 21q127 -151 250 -269l-96 -81q-97 34 -273 122q-189 -92 -274 -122zM408 442l-402 953l406 39l125 -398q82 -255 96 -309h6q10 31 48 143t54 162l125 402l303 -21l21 -39l-404 -932v-442h-378v442z" />
    <glyph glyph-name="ycircumflex" unicode="&#x177;" horiz-adv-x="1038" 
d="M315 1130l-116 82q105 133 235 336l240 21q121 -202 235 -357l-116 -82q-86 54 -240 191q-145 -133 -238 -191zM1028 983l-256 -874q-23 -80 -44 -140.5t-53.5 -131t-68.5 -121t-87 -100t-111 -80t-140 -49.5t-174 -19l-51 307q339 0 434 225h-174l-293 1014l389 30
l113 -538q38 -180 45 -281h6q5 51 51 281l111 538l283 -20z" />
    <glyph glyph-name="Ydieresis" unicode="&#x178;" horiz-adv-x="1196" 
d="M1077 1757q0 -80 -58.5 -133t-146.5 -53q-72 0 -118.5 42t-46.5 103q0 77 61 132t147 55q68 0 115 -41t47 -105zM584 1757q0 -80 -58.5 -133t-146.5 -53q-72 0 -119 42t-47 103q0 77 61.5 132t147.5 55q68 0 115 -41t47 -105zM408 442l-402 953l406 39l125 -398
q82 -255 96 -309h6q10 31 48 143t54 162l125 402l303 -21l21 -39l-404 -932v-442h-378v442z" />
    <glyph glyph-name="Zacute" unicode="&#x179;" horiz-adv-x="1196" 
d="M924 1747l-21 -59q-260 -126 -606 -129l-25 83q239 137 433 291zM123 0l-62 246l637 858l-606 -19l21 328h915l96 -246l-628 -856l614 17l-20 -328h-967z" />
    <glyph glyph-name="zacute" unicode="&#x17a;" horiz-adv-x="942" 
d="M694 1569l21 -62q-127 -199 -320 -348l-143 21q78 222 115 405zM47 727l21 297h772l41 -236l-432 -501h124q179 0 328 20l-20 -307h-799l-41 236l451 499z" />
    <glyph glyph-name="Zdotaccent" unicode="&#x17b;" horiz-adv-x="1196" 
d="M809 1761q0 -92 -66 -152.5t-163 -60.5q-83 0 -138 48.5t-55 119.5q0 84 71.5 145.5t168.5 61.5q77 0 129.5 -45t52.5 -117zM123 0l-62 246l637 858l-606 -19l21 328h915l96 -246l-628 -856l614 17l-20 -328h-967z" />
    <glyph glyph-name="zdotaccent" unicode="&#x17c;" horiz-adv-x="942" 
d="M698 1382q0 -94 -68 -160.5t-165 -66.5q-87 0 -142 53.5t-55 130.5q0 92 72.5 159t169.5 67q83 0 135.5 -50.5t52.5 -132.5zM47 727l21 297h772l41 -236l-432 -501h124q179 0 328 20l-20 -307h-799l-41 236l451 499z" />
    <glyph glyph-name="Zcaron" unicode="&#x17d;" horiz-adv-x="1196" 
d="M870 1919l97 -82q-109 -96 -250 -248l-240 -20q-123 146 -250 268l97 82q87 -30 272 -123q196 96 274 123zM123 0l-62 246l637 858l-606 -19l21 328h915l96 -246l-628 -856l614 17l-20 -328h-967z" />
    <glyph glyph-name="zcaron" unicode="&#x17e;" horiz-adv-x="942" 
d="M735 1606l117 -82q-110 -140 -236 -336l-239 -21q-116 194 -236 357l117 82q86 -54 240 -191q147 135 237 191zM47 727l21 297h772l41 -236l-432 -501h124q179 0 328 20l-20 -307h-799l-41 236l451 499z" />
    <glyph glyph-name="Schwa" unicode="&#x18f;" horiz-adv-x="1349" 
d="M72 786l53 52h754q-70 317 -400 317q-177 0 -340 -92l-6 276q53 32 181 63.5t268 31.5q329 0 517.5 -187.5t188.5 -525.5t-183 -539.5t-493 -201.5q-257 0 -404 152t-147 464q0 50 0.5 69t1 26t3.5 31t6 64zM440 549q0 -153 49 -232t160 -79q250 0 250 401v8l-457 -35
q-2 -23 -2 -63z" />
    <glyph glyph-name="florin" unicode="&#x192;" horiz-adv-x="1214" 
d="M307 600l-237 10l26 123l219 41h9l8 86q24 273 159 423.5t390 150.5q97 0 176.5 -19.5t126.5 -50.5l-115 -279q-111 82 -199 82q-33 0 -59.5 -13t-44 -40t-29 -52.5t-19 -67t-11 -67t-7.5 -67.5l-8 -86h342l17 -37l-39 -137h-338l-53 -506q-4 -42 -7.5 -69t-13.5 -81
t-21.5 -92.5t-33.5 -91.5t-48.5 -90.5t-67 -78t-88.5 -65.5t-113.5 -41.5t-141.5 -16.5q-110 0 -221 32l47 281q109 -47 174 -47q147 0 166 221l57 645h-2z" />
    <glyph glyph-name="Nhookleft" unicode="&#x19d;" horiz-adv-x="1454" 
d="M90 -414l-104 127q147 214 147 574v760q0 207 -20 366l379 14q255 -458 294 -524q114 -193 197 -399h6q-26 213 -26 409q0 275 -21 500l338 17l41 -41v-1389h-358q-66 110 -162 281.5t-135 236.5q-122 205 -195 373h-6q27 -171 27 -393v-211q0 -140 -16.5 -237
t-61.5 -183t-123 -152.5t-201 -128.5z" />
    <glyph glyph-name="Acaron" unicode="&#x1cd;" horiz-adv-x="1331" 
d="M938 1939l96 -81q-109 -96 -250 -248l-239 -21q-127 151 -250 269l96 81q97 -34 273 -122q189 92 274 122zM369 0h-359l340 1188q41 139 56 225l458 19l62 -52l395 -1380h-379l-72 266h-430zM537 625l-25 -93h287l-25 91q-80 303 -112 487h-11q-48 -239 -114 -485z" />
    <glyph glyph-name="acaron" unicode="&#x1ce;" horiz-adv-x="1077" 
d="M782 1606l117 -82q-105 -133 -235 -336l-240 -21q-116 194 -236 357l117 82q86 -54 240 -191q147 135 237 191zM623 119q-43 -64 -122 -101.5t-175 -37.5q-123 0 -199 64t-76 187q0 112 70.5 187.5t189 110t283.5 38.5v58q0 153 -164 153q-155 0 -309 -82l-21 277
q84 29 201.5 50t224.5 21q217 0 327 -96.5t110 -285.5q0 -72 -5.5 -198t-5.5 -198q0 -143 43 -266l-303 -20q-33 53 -59 139h-10zM410 297q0 -51 28.5 -82t75.5 -31q44 0 80 25v252q-81 -10 -132.5 -52t-51.5 -112z" />
    <glyph glyph-name="Icaron" unicode="&#x1cf;" horiz-adv-x="645" 
d="M580 1939l96 -81q-109 -96 -250 -248l-240 -21q-131 156 -249 269l96 81q93 -33 272 -122q186 91 275 122zM512 0h-379v1030q0 224 -20 383l358 21l41 -41v-1393z" />
    <glyph glyph-name="icaron" unicode="&#x1d0;" horiz-adv-x="604" 
d="M459 1589l131 -49q-61 -154 -117 -360l-342 -21q-54 210 -117 381l131 49q81 -78 156 -205q80 130 158 205zM113 0v641q0 188 -31 365l358 38l41 -40v-1004h-368z" />
    <glyph glyph-name="Ocaron" unicode="&#x1d1;" horiz-adv-x="1464" 
d="M1010 1919l96 -82q-109 -96 -250 -248l-240 -20q-127 151 -249 268l96 82q87 -30 272 -123q194 95 275 123zM1403 711q0 -174 -53.5 -314t-147 -230.5t-218 -138.5t-269.5 -48q-144 0 -264.5 48.5t-207 137.5t-134.5 222t-48 296q0 339 193 544.5t498 205.5
q199 0 347 -90.5t226 -254t78 -378.5zM451 717q0 -130 27.5 -230.5t93.5 -165.5t163 -65q279 0 279 451q0 450 -277 450q-97 0 -162 -57.5t-94.5 -154t-29.5 -228.5z" />
    <glyph glyph-name="ocaron" unicode="&#x1d2;" horiz-adv-x="1163" 
d="M834 1606l116 -82q-105 -133 -235 -336l-240 -21q-121 202 -235 357l116 82q86 -54 240 -191q145 133 238 191zM1092 518q0 -130 -42.5 -234.5t-115.5 -169.5t-167 -99.5t-200 -34.5t-196 34t-157 97.5t-104.5 161t-37.5 219.5q0 252 149 402t377 150q223 0 358.5 -143
t135.5 -383zM451 522q0 -167 30.5 -252.5t104.5 -85.5q39 0 64.5 22.5t39 67t18.5 97.5t5 127q0 173 -29.5 257.5t-103.5 84.5q-70 0 -99.5 -76t-29.5 -242z" />
    <glyph glyph-name="Ucaron" unicode="&#x1d3;" horiz-adv-x="1392" 
d="M969 1919l96 -82q-109 -96 -250 -248l-240 -20q-127 151 -249 268l96 82q87 -30 272 -123q194 95 275 123zM113 1030q0 206 -21 383l359 21l41 -41v-869q0 -128 55.5 -194t161.5 -66q105 0 159 66t54 194v588q0 157 -21 301l379 17v-938q0 -100 -30.5 -184t-84.5 -144
t-128.5 -102t-162.5 -62t-186 -20q-165 0 -293 56t-205 173.5t-77 282.5v538z" />
    <glyph glyph-name="ucaron" unicode="&#x1d4;" horiz-adv-x="1187" 
d="M850 1606l117 -82q-110 -140 -236 -336l-239 -21q-116 194 -236 357l117 82q83 -52 239 -191q145 133 238 191zM113 639q0 181 -29 365l356 40l41 -40v-613q0 -72 27 -105.5t84 -33.5q52 0 104 27v745l369 20v-778q0 -123 33 -266l-303 -20q-38 68 -60 149h-12
q-67 -72 -150.5 -110.5t-169.5 -38.5q-131 0 -210.5 80.5t-79.5 213.5v365z" />
    <glyph glyph-name="Udieresismacron" unicode="&#x1d5;" horiz-adv-x="1392" 
d="M391 2126v196h610v-196h-610zM1128 1757q0 -80 -58 -133t-146 -53q-72 0 -119 42t-47 103q0 77 61.5 132t147.5 55q68 0 114.5 -41t46.5 -105zM635 1757q0 -80 -58.5 -133t-146.5 -53q-72 0 -119 42t-47 103q0 77 61.5 132t147.5 55q68 0 115 -41t47 -105zM113 1030
q0 206 -21 383l359 21l41 -41v-869q0 -128 55.5 -194t161.5 -66q105 0 159 66t54 194v588q0 157 -21 301l379 17v-938q0 -100 -30.5 -184t-84.5 -144t-128.5 -102t-162.5 -62t-186 -20q-165 0 -293 56t-205 173.5t-77 282.5v538z" />
    <glyph glyph-name="udieresismacron" unicode="&#x1d6;" horiz-adv-x="1187" 
d="M293 1796v197h610v-197h-610zM547 1384q0 -86 -61.5 -147t-149.5 -61q-80 0 -129 49.5t-49 120.5q0 84 65.5 146t153.5 62q74 0 122 -47t48 -123zM1036 1384q0 -86 -61.5 -147t-149.5 -61q-80 0 -129 49.5t-49 120.5q0 84 65.5 146t153.5 62q74 0 122 -47t48 -123z
M113 639q0 181 -29 365l356 40l41 -40v-613q0 -72 27 -105.5t84 -33.5q52 0 104 27v745l369 20v-778q0 -123 33 -266l-303 -20q-38 68 -60 149h-12q-67 -72 -150.5 -110.5t-169.5 -38.5q-131 0 -210.5 80.5t-79.5 213.5v365z" />
    <glyph glyph-name="Udieresisacute" unicode="&#x1d7;" horiz-adv-x="1392" 
d="M1022 2236l-21 -59q-260 -126 -606 -129l-24 84q236 135 432 291zM1128 1757q0 -80 -58 -133t-146 -53q-72 0 -119 42t-47 103q0 77 61.5 132t147.5 55q68 0 114.5 -41t46.5 -105zM635 1757q0 -80 -58.5 -133t-146.5 -53q-72 0 -119 42t-47 103q0 77 61.5 132t147.5 55
q68 0 115 -41t47 -105zM113 1030q0 206 -21 383l359 21l41 -41v-869q0 -128 55.5 -194t161.5 -66q105 0 159 66t54 194v588q0 157 -21 301l379 17v-938q0 -100 -30.5 -184t-84.5 -144t-128.5 -102t-162.5 -62t-186 -20q-165 0 -293 56t-205 173.5t-77 282.5v538z" />
    <glyph glyph-name="udieresisacute" unicode="&#x1d8;" horiz-adv-x="1187" 
d="M809 2099l20 -61q-128 -200 -319 -348l-143 20q76 214 114 406zM547 1384q0 -86 -61.5 -147t-149.5 -61q-80 0 -129 49.5t-49 120.5q0 84 65.5 146t153.5 62q74 0 122 -47t48 -123zM1036 1384q0 -86 -61.5 -147t-149.5 -61q-80 0 -129 49.5t-49 120.5q0 84 65.5 146
t153.5 62q74 0 122 -47t48 -123zM113 639q0 181 -29 365l356 40l41 -40v-613q0 -72 27 -105.5t84 -33.5q52 0 104 27v745l369 20v-778q0 -123 33 -266l-303 -20q-38 68 -60 149h-12q-67 -72 -150.5 -110.5t-169.5 -38.5q-131 0 -210.5 80.5t-79.5 213.5v365z" />
    <glyph glyph-name="Udieresiscaron" unicode="&#x1d9;" horiz-adv-x="1392" 
d="M969 2408l96 -81q-109 -96 -250 -248l-240 -21q-131 156 -249 269l96 81q93 -33 272 -122q186 91 275 122zM1128 1757q0 -80 -58 -133t-146 -53q-72 0 -119 42t-47 103q0 77 61.5 132t147.5 55q68 0 114.5 -41t46.5 -105zM635 1757q0 -80 -58.5 -133t-146.5 -53
q-72 0 -119 42t-47 103q0 77 61.5 132t147.5 55q68 0 115 -41t47 -105zM113 1030q0 206 -21 383l359 21l41 -41v-869q0 -128 55.5 -194t161.5 -66q105 0 159 66t54 194v588q0 157 -21 301l379 17v-938q0 -100 -30.5 -184t-84.5 -144t-128.5 -102t-162.5 -62t-186 -20
q-165 0 -293 56t-205 173.5t-77 282.5v538z" />
    <glyph glyph-name="udieresiscaron" unicode="&#x1da;" horiz-adv-x="1187" 
d="M850 2136l117 -82q-110 -140 -236 -336l-239 -20q-113 189 -236 356l117 82q87 -54 239 -190q141 130 238 190zM547 1384q0 -86 -61.5 -147t-149.5 -61q-80 0 -129 49.5t-49 120.5q0 84 65.5 146t153.5 62q74 0 122 -47t48 -123zM1036 1384q0 -86 -61.5 -147t-149.5 -61
q-80 0 -129 49.5t-49 120.5q0 84 65.5 146t153.5 62q74 0 122 -47t48 -123zM113 639q0 181 -29 365l356 40l41 -40v-613q0 -72 27 -105.5t84 -33.5q52 0 104 27v745l369 20v-778q0 -123 33 -266l-303 -20q-38 68 -60 149h-12q-67 -72 -150.5 -110.5t-169.5 -38.5
q-131 0 -210.5 80.5t-79.5 213.5v365z" />
    <glyph glyph-name="Udieresisgrave" unicode="&#x1db;" horiz-adv-x="1392" 
d="M997 2048q-346 3 -606 129l-20 59l219 187q196 -156 432 -291zM1128 1757q0 -80 -58 -133t-146 -53q-72 0 -119 42t-47 103q0 77 61.5 132t147.5 55q68 0 114.5 -41t46.5 -105zM635 1757q0 -80 -58.5 -133t-146.5 -53q-72 0 -119 42t-47 103q0 77 61.5 132t147.5 55
q68 0 115 -41t47 -105zM113 1030q0 206 -21 383l359 21l41 -41v-869q0 -128 55.5 -194t161.5 -66q105 0 159 66t54 194v588q0 157 -21 301l379 17v-938q0 -100 -30.5 -184t-84.5 -144t-128.5 -102t-162.5 -62t-186 -20q-165 0 -293 56t-205 173.5t-77 282.5v538z" />
    <glyph glyph-name="udieresisgrave" unicode="&#x1dc;" horiz-adv-x="1187" 
d="M686 1690q-191 148 -319 348l20 61l328 17q38 -192 114 -406zM547 1384q0 -86 -61.5 -147t-149.5 -61q-80 0 -129 49.5t-49 120.5q0 84 65.5 146t153.5 62q74 0 122 -47t48 -123zM1036 1384q0 -86 -61.5 -147t-149.5 -61q-80 0 -129 49.5t-49 120.5q0 84 65.5 146
t153.5 62q74 0 122 -47t48 -123zM113 639q0 181 -29 365l356 40l41 -40v-613q0 -72 27 -105.5t84 -33.5q52 0 104 27v745l369 20v-778q0 -123 33 -266l-303 -20q-38 68 -60 149h-12q-67 -72 -150.5 -110.5t-169.5 -38.5q-131 0 -210.5 80.5t-79.5 213.5v365z" />
    <glyph glyph-name="Gcaron" unicode="&#x1e6;" horiz-adv-x="1304" 
d="M983 1939l96 -81q-109 -96 -250 -248l-239 -21q-127 151 -250 269l96 81q97 -34 273 -122q189 92 274 122zM1192 682l41 -41l-6 -580q-212 -81 -449 -81q-344 0 -530.5 184t-186.5 502q0 225 91 398.5t262 271.5t397 98q110 0 215 -22.5t182 -59.5l-61 -318
q-155 103 -318 103q-172 0 -275 -115.5t-103 -331.5q0 -198 92.5 -311t271.5 -113q39 0 62 2q-2 184 -31 394z" />
    <glyph glyph-name="gcaron" unicode="&#x1e7;" horiz-adv-x="1103" 
d="M782 1606l117 -82q-105 -133 -235 -336l-240 -21q-116 194 -236 357l117 82q86 -54 240 -191q147 135 237 191zM190 102q0 118 136 199q-121 41 -192 128t-71 208q0 169 132.5 288t343.5 119q171 0 270 -71q32 79 101 119.5t151 40.5l43 -37l-10 -217h-209l-4 -9
q102 -78 102 -225q0 -162 -129 -268.5t-334 -106.5q-39 0 -59 2q-2 -8 -2 -24q0 -41 21.5 -55t68.5 -17l196 -12q156 -9 250.5 -82.5t94.5 -206.5q0 -181 -167.5 -294t-439.5 -113q-218 0 -350.5 71.5t-132.5 184.5q0 72 54 123t132 67l123 -51q-2 -8 -2 -25q0 -85 63 -146
t165 -61q80 0 133 39.5t53 106.5q0 114 -162 133l-178 20q-90 11 -140.5 55t-50.5 117zM635 659q0 106 -25 158.5t-82 52.5q-116 0 -116 -215q0 -211 114 -211q57 0 83 52.5t26 162.5z" />
    <glyph glyph-name="Oogonek" unicode="&#x1ea;" horiz-adv-x="1464" 
d="M1403 711q0 -228 -89 -392.5t-245 -252.5q-114 -78 -159.5 -143.5t-45.5 -135.5q0 -57 26 -88t73 -31q41 0 100 27l51 -121q-60 -53 -138.5 -86t-158.5 -33q-107 0 -176.5 60t-69.5 159q0 83 54 164t147 144q-20 -2 -57 -2q-144 0 -264.5 48.5t-207 137.5t-134.5 222
t-48 296q0 339 193 544.5t498 205.5q199 0 347 -90.5t226 -254t78 -378.5zM451 717q0 -130 27.5 -230.5t93.5 -165.5t163 -65q279 0 279 451q0 450 -277 450q-97 0 -162 -57.5t-94.5 -154t-29.5 -228.5z" />
    <glyph glyph-name="oogonek" unicode="&#x1eb;" horiz-adv-x="1163" 
d="M1092 518q0 -153 -56.5 -266t-156.5 -182q-203 -153 -203 -287q0 -102 88 -102q52 0 110 26l52 -121q-61 -53 -139 -85.5t-158 -32.5q-105 0 -175.5 57t-70.5 145q0 156 217 310h-33q-106 0 -196 34t-157 97.5t-104.5 161t-37.5 219.5q0 252 149 402t377 150
q223 0 358.5 -143t135.5 -383zM451 522q0 -167 30.5 -252.5t104.5 -85.5q39 0 64.5 22.5t39 67t18.5 97.5t5 127q0 173 -29.5 257.5t-103.5 84.5q-70 0 -99.5 -76t-29.5 -242z" />
    <glyph glyph-name="Gacute" unicode="&#x1f4;" horiz-adv-x="1304" 
d="M1036 1767l-20 -59q-260 -126 -606 -129l-25 84q236 135 432 291zM1192 682l41 -41l-6 -580q-212 -81 -449 -81q-344 0 -530.5 184t-186.5 502q0 225 91 398.5t262 271.5t397 98q110 0 215 -22.5t182 -59.5l-61 -318q-155 103 -318 103q-172 0 -275 -115.5t-103 -331.5
q0 -198 92.5 -311t271.5 -113q39 0 62 2q-2 184 -31 394z" />
    <glyph glyph-name="gacute" unicode="&#x1f5;" horiz-adv-x="1103" 
d="M741 1569l21 -62q-127 -199 -320 -348l-143 21q78 222 115 405zM190 102q0 118 136 199q-121 41 -192 128t-71 208q0 169 132.5 288t343.5 119q171 0 270 -71q32 79 101 119.5t151 40.5l43 -37l-10 -217h-209l-4 -9q102 -78 102 -225q0 -162 -129 -268.5t-334 -106.5
q-39 0 -59 2q-2 -8 -2 -24q0 -41 21.5 -55t68.5 -17l196 -12q156 -9 250.5 -82.5t94.5 -206.5q0 -181 -167.5 -294t-439.5 -113q-218 0 -350.5 71.5t-132.5 184.5q0 72 54 123t132 67l123 -51q-2 -8 -2 -25q0 -85 63 -146t165 -61q80 0 133 39.5t53 106.5q0 114 -162 133
l-178 20q-90 11 -140.5 55t-50.5 117zM635 659q0 106 -25 158.5t-82 52.5q-116 0 -116 -215q0 -211 114 -211q57 0 83 52.5t26 162.5z" />
    <glyph glyph-name="Aringacute" unicode="&#x1fa;" horiz-adv-x="1331" 
d="M991 2335l-20 -60q-260 -126 -606 -129l-25 84q236 135 432 291zM926 1794q0 -105 -82 -179.5t-199 -74.5q-106 0 -172.5 60t-66.5 147q0 103 86.5 178.5t203.5 75.5q100 0 165 -57.5t65 -149.5zM551 1759q0 -44 29 -74t75 -30q51 0 88 38t37 89q0 49 -26.5 76.5
t-69.5 27.5q-54 0 -93.5 -38t-39.5 -89zM369 0h-359l340 1188q41 139 56 225l458 19l62 -52l395 -1380h-379l-72 266h-430zM537 625l-25 -93h287l-25 91q-80 303 -112 487h-11q-48 -239 -114 -485z" />
    <glyph glyph-name="aringacute" unicode="&#x1fb;" horiz-adv-x="1077" 
d="M776 2167l21 -62q-127 -199 -320 -348l-143 21q78 222 115 405zM825 1415q0 -105 -81.5 -179.5t-198.5 -74.5q-106 0 -173 60t-67 147q0 103 87 178.5t204 75.5q100 0 164.5 -57.5t64.5 -149.5zM451 1380q0 -44 29 -74t75 -30q51 0 88 38t37 89q0 49 -26.5 76.5
t-69.5 27.5q-54 0 -93.5 -38t-39.5 -89zM623 119q-43 -64 -122 -101.5t-175 -37.5q-123 0 -199 64t-76 187q0 112 70.5 187.5t189 110t283.5 38.5v58q0 153 -164 153q-155 0 -309 -82l-21 277q84 29 201.5 50t224.5 21q217 0 327 -96.5t110 -285.5q0 -72 -5.5 -198
t-5.5 -198q0 -143 43 -266l-303 -20q-33 53 -59 139h-10zM410 297q0 -51 28.5 -82t75.5 -31q44 0 80 25v252q-81 -10 -132.5 -52t-51.5 -112z" />
    <glyph glyph-name="AEacute" unicode="&#x1fc;" horiz-adv-x="1861" 
d="M1409 1747l-20 -59q-260 -126 -607 -129l-24 83q236 135 432 291zM369 0h-359l496 1188q74 177 90 225h1046l41 -41l-8 -246l-538 17l39 -326l450 10l-10 -260l-414 13l37 -314l571 21v-287h-919l-27 266h-391zM614 625l-36 -93h260l-9 91q-20 198 -26 487h-10
q-113 -317 -179 -485z" />
    <glyph glyph-name="aeacute" unicode="&#x1fd;" horiz-adv-x="1617" 
d="M1042 1569l21 -62q-127 -199 -320 -348l-143 21q78 222 115 405zM1554 502l-30 -31h-545q40 -235 278 -235q129 0 240 59l21 -232q-56 -35 -150 -59t-209 -24q-156 0 -276.5 50t-192.5 146q-60 -91 -155 -143.5t-209 -52.5q-123 0 -199 64t-76 187q0 112 70.5 187.5
t189 110t283.5 38.5v58q0 19 -1 32.5t-10 38.5t-25.5 40.5t-51.5 28.5t-84 13q-69 0 -151 -23t-150 -59l-21 277q85 29 202 50t228 21q199 0 301 -77q129 77 285 77q202 0 321 -122t119 -316q0 -69 -2 -104zM1102 840q-64 0 -97.5 -71t-33.5 -181l223 12q4 40 4 66
q0 174 -96 174zM410 297q0 -51 28.5 -82t75.5 -31q69 0 127 70q-43 87 -49 207q-80 -9 -131 -52t-51 -112z" />
    <glyph glyph-name="Oslashacute" unicode="&#x1fe;" horiz-adv-x="1464" 
d="M1063 1747l-21 -59q-260 -126 -606 -129l-24 83q236 135 432 291zM1403 711q0 -174 -53.5 -314t-147 -230.5t-218 -138.5t-269.5 -48q-239 0 -406 129l-121 -140l-133 115l131 152q-125 180 -125 448q0 339 193 544.5t498 205.5q222 0 378 -113l107 123l135 -113
l-115 -133q146 -191 146 -487zM451 717q0 -93 14 -162l455 522q-67 80 -183 80q-97 0 -162 -57.5t-94.5 -154t-29.5 -228.5zM1014 707q0 111 -17 192l-465 -532q75 -111 203 -111q279 0 279 451z" />
    <glyph glyph-name="oslashacute" unicode="&#x1ff;" horiz-adv-x="1163" 
d="M793 1569l20 -62q-128 -200 -319 -348l-144 21q78 222 115 405zM1092 518q0 -130 -42.5 -234.5t-115.5 -169.5t-167 -99.5t-200 -34.5q-168 0 -293 81l-112 -120l-121 114l117 125q-86 125 -86 312q0 252 149 402t377 150q169 0 287 -83l114 122l123 -112l-118 -129
q88 -134 88 -324zM451 522v0v0v0v0v-1v0v0v-1v0v-1v-1v-1v-1v-1v-1v-1v-1v-1v-1v-1v-1v-1v-1v-1v-9l235 252q-31 92 -106 92q-70 0 -99.5 -76t-29.5 -242zM713 498v32l-236 -251q32 -95 109 -95q39 0 64.5 22.5t39 67t18.5 97.5t5 127z" />
    <glyph glyph-name="Scommaaccent" unicode="&#x218;" horiz-adv-x="1126" 
d="M1044 403q0 -205 -149.5 -314t-398.5 -109q-119 0 -239.5 22.5t-174.5 56.5l20 310q73 -44 192.5 -73.5t205.5 -29.5q155 0 155 111q0 30 -13 56.5t-28 44.5t-51 41t-56 33.5t-70.5 34.5t-69.5 34q-62 32 -105.5 61.5t-87.5 75t-67 107.5t-23 139q0 137 74.5 235.5
t202 146.5t294.5 48q94 0 187.5 -15t150.5 -37l-41 -317q-151 82 -303 82q-86 0 -131 -31.5t-45 -87.5q0 -27 12 -51.5t28 -41.5t48.5 -37.5t55.5 -32t68 -33t69 -33.5q49 -25 85.5 -47.5t77.5 -58t67 -74.5t43 -95t17 -121zM414 -666q90 93 125 195q-55 11 -91 53.5
t-36 102.5q0 72 53.5 125t130.5 53q73 0 123.5 -51t50.5 -144q0 -63 -24.5 -128t-66 -121t-79.5 -97.5t-82 -79.5z" />
    <glyph glyph-name="scommaaccent" unicode="&#x219;" horiz-adv-x="925" 
d="M840 993l-21 -270q-79 40 -163 63t-140 23q-49 0 -77.5 -17.5t-28.5 -46.5q0 -27 25.5 -49.5t66.5 -40.5t90.5 -37.5t99 -47t90.5 -61.5t66.5 -87.5t25.5 -120.5q0 -150 -121 -235.5t-329 -85.5q-106 0 -209 21.5t-164 57.5l21 265q88 -50 187.5 -79.5t166.5 -29.5
q100 0 100 61q0 27 -25.5 50.5t-66.5 42t-90.5 38.5t-99.5 47t-91 61t-66.5 86.5t-25.5 117.5q0 149 124.5 237t332.5 88q172 0 322 -51zM299 -666q90 93 125 195q-55 11 -91 53.5t-36 102.5q0 72 53.5 125t130.5 53q73 0 123.5 -51t50.5 -144q0 -63 -24.5 -128t-66 -121
t-79.5 -97.5t-82 -79.5z" />
    <glyph glyph-name="Tcommaaccent" unicode="&#x21a;" horiz-adv-x="1198" 
d="M788 0h-378v1135q-58 -2 -390 -17l21 295h1116l21 -295q-332 15 -390 17v-1135zM422 -666q90 93 125 195q-55 11 -91 53.5t-36 102.5q0 72 53.5 125t130.5 53q73 0 123.5 -51t50.5 -144q0 -63 -24.5 -128t-66 -121t-79.5 -97.5t-82 -79.5z" />
    <glyph glyph-name="tcommaaccent" unicode="&#x21b;" horiz-adv-x="858" 
d="M801 840l-289 8v-457q0 -155 125 -155q76 0 160 49l20 -222q-131 -83 -303 -83q-175 0 -273 105t-98 304v467l-133 4v123l144 41l92 268l225 17l45 -43l-4 -242h281l24 -41zM270 -666q90 93 125 195q-55 11 -91 53.5t-36 102.5q0 72 54 125t131 53q73 0 123.5 -51
t50.5 -144q0 -63 -24.5 -128t-66 -121t-79.5 -97.5t-82 -79.5z" />
    <glyph glyph-name="Ymacron" unicode="&#x232;" horiz-adv-x="1196" 
d="M340 1636v197h610v-197h-610zM408 442l-402 953l406 39l125 -398q82 -255 96 -309h6q10 31 48 143t54 162l125 402l303 -21l21 -39l-404 -932v-442h-378v442z" />
    <glyph glyph-name="ymacron" unicode="&#x233;" horiz-adv-x="1038" 
d="M236 1266v196h610v-196h-610zM1028 983l-256 -874q-23 -80 -44 -140.5t-53.5 -131t-68.5 -121t-87 -100t-111 -80t-140 -49.5t-174 -19l-51 307q339 0 434 225h-174l-293 1014l389 30l113 -538q38 -180 45 -281h6q5 51 51 281l111 538l283 -20z" />
    <glyph glyph-name="dotlessj" unicode="&#x237;" horiz-adv-x="610" 
d="M143 -532l-143 122q119 195 119 502v549q0 188 -31 365l358 38l41 -40v-902q0 -239 -72.5 -379t-271.5 -255z" />
    <glyph glyph-name="schwa" unicode="&#x259;" horiz-adv-x="1097" 
d="M63 522l31 31h549q-11 128 -64 176.5t-149 48.5q-155 0 -309 -82l-21 258q72 40 189 65t231 25q237 0 371.5 -120t134.5 -369q0 -267 -146.5 -421t-375.5 -154q-204 0 -323.5 122t-119.5 316q0 69 2 104zM420 358q0 -174 98 -174q119 0 129 252l-223 -12q-4 -28 -4 -66z
" />
    <glyph glyph-name="nhookleft" unicode="&#x272;" horiz-adv-x="1204" 
d="M143 -532l-143 122q119 195 119 502v549q0 154 -41 344l348 59q28 -72 45 -143q149 143 324 143q133 0 209.5 -87.5t76.5 -239.5v-717h-368v649q0 77 -28.5 113.5t-88.5 36.5q-53 0 -109 -33v-664q0 -239 -72.5 -379t-271.5 -255z" />
    <glyph glyph-name="circumflex" unicode="&#x2c6;" horiz-adv-x="894" 
d="M209 1133l-117 81q110 140 236 336l239 21q116 -194 236 -357l-117 -81q-90 56 -240 190q-144 -132 -237 -190z" />
    <glyph glyph-name="caron" unicode="&#x2c7;" horiz-adv-x="894" 
d="M686 1595l117 -82q-114 -145 -236 -335l-239 -21q-113 189 -236 356l117 82q90 -56 240 -190q144 132 237 190z" />
    <glyph glyph-name="breve" unicode="&#x2d8;" horiz-adv-x="829" 
d="M596 1567l141 18q-8 -178 -97.5 -290.5t-236.5 -112.5q-130 0 -217 100t-94 266l144 21q15 -74 64 -118t116 -44t116.5 45.5t63.5 114.5z" />
    <glyph glyph-name="dotaccent" unicode="&#x2d9;" horiz-adv-x="614" 
d="M522 1386q0 -94 -68 -160.5t-165 -66.5q-87 0 -142 53.5t-55 130.5q0 92 72.5 159t169.5 67q83 0 135.5 -50.5t52.5 -132.5z" />
    <glyph glyph-name="ring" unicode="&#x2da;" horiz-adv-x="704" 
d="M612 1389q0 -105 -81.5 -179.5t-198.5 -74.5q-106 0 -173 59.5t-67 146.5q0 103 87 178.5t204 75.5q100 0 164.5 -57t64.5 -149zM238 1354q0 -44 29 -74.5t75 -30.5q51 0 88 38t37 89q0 49 -26.5 77t-69.5 28q-54 0 -93.5 -38t-39.5 -89z" />
    <glyph glyph-name="ogonek" unicode="&#x2db;" horiz-adv-x="747" 
d="M631 0q-110 -52 -173 -118.5t-63 -129.5q0 -39 22 -61.5t66 -22.5q50 0 111 27l51 -121q-60 -53 -138.5 -86t-158.5 -33q-106 0 -176 60.5t-70 158.5q0 106 99 202t268 155z" />
    <glyph glyph-name="tilde" unicode="&#x2dc;" horiz-adv-x="874" 
d="M311 1561q46 0 94.5 -18.5t82.5 -40t75.5 -40t75.5 -18.5q37 0 58 20t48 68l101 -14q0 -91 -21 -168t-72 -130t-124 -53q-52 0 -118.5 29.5t-126 58.5t-95.5 29q-57 0 -103 -88l-98 14q0 67 11.5 126.5t36 111.5t69.5 82.5t106 30.5z" />
    <glyph glyph-name="hungarumlaut" unicode="&#x2dd;" horiz-adv-x="907" 
d="M467 1569l20 -62q-99 -196 -254 -348l-143 21q78 222 115 405zM862 1569l21 -62q-99 -196 -254 -348l-144 21q78 222 115 405z" />
    <glyph glyph-name="Delta" unicode="&#x394;" horiz-adv-x="1331" 
d="M455 1413h430l436 -1372l-4 -41h-1303l-4 41zM418 274h424l-211 746z" />
    <glyph glyph-name="Omega" unicode="&#x3a9;" horiz-adv-x="1648" 
d="M700 0h-598l-51 256l41 41l430 -115q-156 84 -252 252t-96 352q0 173 85 321t239.5 237.5t345.5 89.5q143 0 263 -52.5t199.5 -140.5t124 -204t44.5 -244q0 -192 -98.5 -360.5t-256.5 -252.5l436 117l41 -41l-51 -256h-598l-41 158q178 246 178 575q0 85 -13 157
t-41.5 134t-80 97.5t-121.5 35.5q-89 0 -150 -58.5t-88.5 -152t-27.5 -215.5q0 -171 49 -306t129 -267z" />
    <glyph glyph-name="mu" unicode="&#x3bc;" horiz-adv-x="1187" 
d="M113 641q0 179 -29 363l356 40l41 -40v-613q0 -72 27 -105.5t84 -33.5q52 0 104 27v745l369 20v-778q0 -123 33 -266l-303 -20q-38 68 -60 149h-12q-63 -67 -140 -105.5t-157 -43.5h-27q36 -64 55.5 -143.5t33 -174.5t22.5 -135l-356 -39l-41 41v1112z" />
    <glyph glyph-name="pi" unicode="&#x3c0;" horiz-adv-x="1320" 
d="M164 0v760l-174 -2l47 266l1223 20l20 -40l-68 -226l-106 -2v-336q0 -81 14.5 -117t53.5 -36q33 0 75 20l-20 -307q-110 -20 -205 -20q-132 0 -209.5 85.5t-77.5 262.5v442l-205 -4v-766h-368z" />
    <glyph glyph-name="Ddotbelow" unicode="&#x1e0c;" horiz-adv-x="1417" 
d="M1356 719q0 -171 -58 -309t-158.5 -226.5t-234.5 -136t-289 -47.5h-483v1047q0 237 -20 366h544q328 0 513.5 -185.5t185.5 -508.5zM637 1147h-125v-881h137q318 0 318 434q0 73 -10.5 137t-35 122t-62 99t-94 65t-128.5 24zM954 -317q0 -94 -68 -161t-165 -67
q-87 0 -142 54t-55 131q0 92 72.5 158.5t169.5 66.5q83 0 135.5 -50t52.5 -132z" />
    <glyph glyph-name="ddotbelow" unicode="&#x1e0d;" horiz-adv-x="1202" 
d="M739 115q-106 -135 -276 -135q-177 0 -284 130t-107 357q0 273 154.5 425t410.5 152q26 0 72 -4v113q0 181 -29 365l356 38l41 -40v-1250q0 -139 43 -266l-311 -20q-24 37 -61 135h-9zM451 518q0 -151 46.5 -242.5t131.5 -91.5q42 0 80 23v653h-17q-241 0 -241 -342z
M817 -317q0 -94 -68 -161t-165 -67q-87 0 -142 54t-55 131q0 92 72.5 158.5t169.5 66.5q83 0 135.5 -50t52.5 -132z" />
    <glyph glyph-name="Hdotbelow" unicode="&#x1e24;" horiz-adv-x="1464" 
d="M512 0h-379v1030q0 224 -20 383l358 21l41 -41v-559h440v196q0 224 -20 383l358 21l41 -41v-1393h-379v567h-440v-567zM948 -317q0 -94 -68 -161t-165 -67q-87 0 -142 54t-55 131q0 92 72.5 158.5t169.5 66.5q83 0 135.5 -50t52.5 -132z" />
    <glyph glyph-name="hdotbelow" unicode="&#x1e25;" horiz-adv-x="1187" 
d="M471 0h-369v1153q0 194 -30 365l358 38l41 -40v-601q144 129 307 129q134 0 210.5 -87.5t76.5 -239.5v-717h-369v649q0 77 -28 113.5t-88 36.5q-53 0 -109 -33v-766zM809 -317q0 -94 -68.5 -161t-165.5 -67q-87 0 -141.5 54t-54.5 131q0 92 72.5 158.5t169.5 66.5
q83 0 135.5 -50t52.5 -132z" />
    <glyph glyph-name="Ndotaccent" unicode="&#x1e44;" horiz-adv-x="1454" 
d="M907 1782q0 -92 -66 -152.5t-163 -60.5q-83 0 -138 48.5t-55 119.5q0 84 71.5 145.5t168.5 61.5q77 0 129.5 -45t52.5 -117zM786 903q114 -193 197 -399h6q-26 213 -26 409q0 275 -21 500l338 17l41 -41v-1389h-358q-66 110 -162 281.5t-135 236.5q-122 205 -195 373h-6
q27 -171 27 -393v-498h-359v1047q0 207 -20 366l379 14q255 -458 294 -524z" />
    <glyph glyph-name="ndotaccent" unicode="&#x1e45;" horiz-adv-x="1198" 
d="M801 1382q0 -94 -68.5 -160.5t-165.5 -66.5q-87 0 -141.5 53.5t-54.5 130.5q0 92 72 159t169 67q83 0 136 -50.5t53 -132.5zM481 0h-368v641q0 154 -41 344l348 59q28 -72 45 -143q149 143 323 143q134 0 210.5 -87.5t76.5 -239.5v-717h-368v649q0 77 -28.5 113.5
t-88.5 36.5q-53 0 -109 -33v-766z" />
    <glyph glyph-name="Rdotbelow" unicode="&#x1e5a;" horiz-adv-x="1284" 
d="M512 0h-379v1047q0 237 -20 366h503q289 0 442.5 -120.5t153.5 -336.5q0 -141 -63.5 -240.5t-167.5 -152.5l303 -563l-440 -10q-108 235 -195 475h-137v-465zM590 1147h-78v-426h78q127 0 180 55.5t53 157.5q0 105 -54 159t-179 54zM870 -317q0 -94 -68 -161t-165 -67
q-87 0 -142 54t-55 131q0 92 72.5 158.5t169.5 66.5q83 0 135.5 -50t52.5 -132z" />
    <glyph glyph-name="rdotbelow" unicode="&#x1e5b;" horiz-adv-x="851" 
d="M481 0h-368v641q0 154 -41 344l348 59q49 -131 61 -245q44 118 101.5 181.5t146.5 63.5q64 0 102 -30l-24 -350q-72 16 -139 16q-115 0 -187 -41v-639zM516 -317q0 -94 -68 -161t-165 -67q-87 0 -142 54t-55 131q0 92 72.5 158.5t169.5 66.5q83 0 135.5 -50t52.5 -132z
" />
    <glyph glyph-name="Sdotbelow" unicode="&#x1e62;" horiz-adv-x="1126" 
d="M1044 403q0 -205 -149.5 -314t-398.5 -109q-119 0 -239.5 22.5t-174.5 56.5l20 310q73 -44 192.5 -73.5t205.5 -29.5q155 0 155 111q0 30 -13 56.5t-28 44.5t-51 41t-56 33.5t-70.5 34.5t-69.5 34q-62 32 -105.5 61.5t-87.5 75t-67 107.5t-23 139q0 137 74.5 235.5
t202 146.5t294.5 48q94 0 187.5 -15t150.5 -37l-41 -317q-151 82 -303 82q-86 0 -131 -31.5t-45 -87.5q0 -27 12 -51.5t28 -41.5t48.5 -37.5t55.5 -32t68 -33t69 -33.5q49 -25 85.5 -47.5t77.5 -58t67 -74.5t43 -95t17 -121zM807 -317q0 -94 -68.5 -161t-165.5 -67
q-87 0 -141.5 54t-54.5 131q0 92 72 158.5t169 66.5q83 0 136 -50t53 -132z" />
    <glyph glyph-name="sdotbelow" unicode="&#x1e63;" horiz-adv-x="925" 
d="M840 993l-21 -270q-79 40 -163 63t-140 23q-49 0 -77.5 -17.5t-28.5 -46.5q0 -27 25.5 -49.5t66.5 -40.5t90.5 -37.5t99 -47t90.5 -61.5t66.5 -87.5t25.5 -120.5q0 -150 -121 -235.5t-329 -85.5q-106 0 -209 21.5t-164 57.5l21 265q88 -50 187.5 -79.5t166.5 -29.5
q100 0 100 61q0 27 -25.5 50.5t-66.5 42t-90.5 38.5t-99.5 47t-91 61t-66.5 86.5t-25.5 117.5q0 149 124.5 237t332.5 88q172 0 322 -51zM692 -317q0 -94 -68 -161t-165 -67q-87 0 -142 54t-55 131q0 92 72.5 158.5t169.5 66.5q83 0 135.5 -50t52.5 -132z" />
    <glyph glyph-name="Tdotbelow" unicode="&#x1e6c;" horiz-adv-x="1198" 
d="M788 0h-378v1135q-58 -2 -390 -17l21 295h1116l21 -295q-332 15 -390 17v-1135zM815 -317q0 -94 -68 -161t-165 -67q-87 0 -142 54t-55 131q0 92 72.5 158.5t169.5 66.5q83 0 135.5 -50t52.5 -132z" />
    <glyph glyph-name="tdotbelow" unicode="&#x1e6d;" horiz-adv-x="858" 
d="M801 840l-289 8v-457q0 -155 125 -155q76 0 160 49l20 -222q-131 -83 -303 -83q-175 0 -273 105t-98 304v467l-133 4v123l144 41l92 268l225 17l45 -43l-4 -242h281l24 -41zM664 -317q0 -94 -68.5 -161t-165.5 -67q-87 0 -142 54t-55 131q0 92 72.5 158.5t169.5 66.5
q83 0 136 -50t53 -132z" />
    <glyph glyph-name="Wgrave" unicode="&#x1e80;" horiz-adv-x="1966" 
d="M1284 1559q-346 3 -606 129l-21 59l220 186q196 -156 432 -291zM356 0l-350 1395l406 39l143 -713q11 -54 22 -119t22 -134t15 -93q12 64 74 342l152 696l364 21l150 -713q25 -110 71 -346q36 221 64 350l147 709l303 -21l21 -39l-350 -1374h-420l-109 457
q-19 79 -48 229t-44 215h-6q-67 -325 -98 -450l-109 -451h-420z" />
    <glyph glyph-name="wgrave" unicode="&#x1e81;" horiz-adv-x="1671" 
d="M952 1159q-191 148 -319 348l20 62l328 16q37 -183 115 -405zM248 0l-238 1014l379 30l90 -518q4 -24 13.5 -74.5t16 -92t9.5 -72.5h6q4 38 18.5 122.5t18.5 116.5l76 498h469l80 -498q4 -24 13.5 -74.5t16 -92t9.5 -72.5h6q4 37 37 239l86 518l286 -20l21 -41l-238 -983
h-471l-71 418q-41 243 -47 319h-7q-3 -38 -8.5 -83t-10.5 -75t-14.5 -84.5t-13.5 -78.5l-71 -416h-461z" />
    <glyph glyph-name="Wacute" unicode="&#x1e82;" horiz-adv-x="1966" 
d="M1309 1747l-21 -59q-260 -126 -606 -129l-25 83q239 137 433 291zM356 0l-350 1395l406 39l143 -713q11 -54 22 -119t22 -134t15 -93q12 64 74 342l152 696l364 21l150 -713q25 -110 71 -346q36 221 64 350l147 709l303 -21l21 -39l-350 -1374h-420l-109 457
q-19 79 -48 229t-44 215h-6q-67 -325 -98 -450l-109 -451h-420z" />
    <glyph glyph-name="wacute" unicode="&#x1e83;" horiz-adv-x="1671" 
d="M1075 1569l21 -62q-127 -199 -320 -348l-143 21q78 222 115 405zM248 0l-238 1014l379 30l90 -518q4 -24 13.5 -74.5t16 -92t9.5 -72.5h6q4 38 18.5 122.5t18.5 116.5l76 498h469l80 -498q4 -24 13.5 -74.5t16 -92t9.5 -72.5h6q4 37 37 239l86 518l286 -20l21 -41
l-238 -983h-471l-71 418q-41 243 -47 319h-7q-3 -38 -8.5 -83t-10.5 -75t-14.5 -84.5t-13.5 -78.5l-71 -416h-461z" />
    <glyph glyph-name="Wdieresis" unicode="&#x1e84;" horiz-adv-x="1966" 
d="M1415 1757q0 -80 -58.5 -133t-146.5 -53q-72 0 -119 42t-47 103q0 77 61.5 132t147.5 55q68 0 115 -41t47 -105zM922 1757q0 -80 -58.5 -133t-146.5 -53q-72 0 -119 42t-47 103q0 77 61.5 132t147.5 55q68 0 115 -41t47 -105zM356 0l-350 1395l406 39l143 -713
q11 -54 22 -119t22 -134t15 -93q12 64 74 342l152 696l364 21l150 -713q25 -110 71 -346q36 221 64 350l147 709l303 -21l21 -39l-350 -1374h-420l-109 457q-19 79 -48 229t-44 215h-6q-67 -325 -98 -450l-109 -451h-420z" />
    <glyph glyph-name="wdieresis" unicode="&#x1e85;" horiz-adv-x="1671" 
d="M813 1384q0 -86 -61.5 -147t-149.5 -61q-80 0 -129 49.5t-49 120.5q0 84 65.5 146t153.5 62q74 0 122 -47t48 -123zM1303 1384q0 -86 -61.5 -147t-149.5 -61q-80 0 -129.5 49.5t-49.5 120.5q0 84 66 146t154 62q74 0 122 -47t48 -123zM248 0l-238 1014l379 30l90 -518
q4 -24 13.5 -74.5t16 -92t9.5 -72.5h6q4 38 18.5 122.5t18.5 116.5l76 498h469l80 -498q4 -24 13.5 -74.5t16 -92t9.5 -72.5h6q4 37 37 239l86 518l286 -20l21 -41l-238 -983h-471l-71 418q-41 243 -47 319h-7q-3 -38 -8.5 -83t-10.5 -75t-14.5 -84.5t-13.5 -78.5l-71 -416
h-461z" />
    <glyph glyph-name="Zdotbelow" unicode="&#x1e92;" horiz-adv-x="1196" 
d="M123 0l-62 246l637 858l-606 -19l21 328h915l96 -246l-628 -856l614 17l-20 -328h-967zM813 -317q0 -94 -68 -161t-165 -67q-87 0 -142 54t-55 131q0 92 72.5 158.5t169.5 66.5q83 0 135.5 -50t52.5 -132z" />
    <glyph glyph-name="zdotbelow" unicode="&#x1e93;" horiz-adv-x="942" 
d="M47 727l21 297h772l41 -236l-432 -501h124q179 0 328 20l-20 -307h-799l-41 236l451 499zM686 -317q0 -94 -68 -161t-165 -67q-87 0 -142 54t-55 131q0 92 72.5 158.5t169.5 66.5q83 0 135.5 -50t52.5 -132z" />
    <glyph glyph-name="Germandbls" unicode="&#x1e9e;" horiz-adv-x="1454" 
d="M137 383v539q0 240 157 376t419 136q218 0 367.5 -96.5t183.5 -276.5l-254 -281q172 -73 267 -173.5t95 -252.5q0 -181 -122.5 -277.5t-313.5 -96.5q-82 0 -166.5 16.5t-136.5 42.5v309q50 -35 112 -58.5t119 -23.5q119 0 119 96q0 42 -25 75.5t-99.5 82.5t-225.5 127v80
l239 313q-20 52 -65.5 80.5t-106.5 28.5q-85 0 -134.5 -67t-49.5 -193v-647q0 -78 -19.5 -155.5t-58.5 -106.5l-346 20q45 131 45 383z" />
    <glyph glyph-name="Adotbelow" unicode="&#x1ea0;" horiz-adv-x="1331" 
d="M369 0h-359l340 1188q41 139 56 225l458 19l62 -52l395 -1380h-379l-72 266h-430zM537 625l-25 -93h287l-25 91q-80 303 -112 487h-11q-48 -239 -114 -485zM881 -317q0 -94 -68.5 -161t-165.5 -67q-87 0 -141.5 54t-54.5 131q0 92 72 158.5t169 66.5q83 0 136 -50
t53 -132z" />
    <glyph glyph-name="adotbelow" unicode="&#x1ea1;" horiz-adv-x="1077" 
d="M623 119q-43 -64 -122 -101.5t-175 -37.5q-123 0 -199 64t-76 187q0 112 70.5 187.5t189 110t283.5 38.5v58q0 153 -164 153q-155 0 -309 -82l-21 277q84 29 201.5 50t224.5 21q217 0 327 -96.5t110 -285.5q0 -72 -5.5 -198t-5.5 -198q0 -143 43 -266l-303 -20
q-33 53 -59 139h-10zM410 297q0 -51 28.5 -82t75.5 -31q44 0 80 25v252q-81 -10 -132.5 -52t-51.5 -112zM752 -317q0 -94 -68.5 -161t-165.5 -67q-87 0 -141.5 54t-54.5 131q0 92 72 158.5t169 66.5q83 0 136 -50t53 -132z" />
    <glyph glyph-name="Edotbelow" unicode="&#x1eb8;" horiz-adv-x="1136" 
d="M1085 287v-287h-952v1047q0 237 -20 366h919l41 -41l-8 -246l-553 21v-330l451 10l-11 -260l-440 15v-316zM866 -317q0 -94 -68 -161t-165 -67q-87 0 -142 54t-55 131q0 92 72.5 158.5t169.5 66.5q83 0 135.5 -50t52.5 -132z" />
    <glyph glyph-name="edotbelow" unicode="&#x1eb9;" horiz-adv-x="1097" 
d="M1034 502l-30 -31h-545q40 -235 278 -235q129 0 240 59l20 -232q-134 -83 -362 -83q-257 0 -410 135t-153 381q0 243 148.5 395.5t375.5 152.5q202 0 321 -122t119 -316q0 -69 -2 -104zM582 840q-64 0 -97.5 -71t-33.5 -181l223 12q4 36 4 74q0 72 -23 119t-73 47z
M809 -317q0 -94 -68.5 -161t-165.5 -67q-87 0 -141.5 54t-54.5 131q0 92 72.5 158.5t169.5 66.5q83 0 135.5 -50t52.5 -132z" />
    <glyph glyph-name="Etilde" unicode="&#x1ebc;" horiz-adv-x="1136" 
d="M461 1931q46 0 92.5 -18t78.5 -40t72.5 -40t75.5 -18q39 0 63 20t54 68l90 -15q0 -59 -12.5 -112.5t-37.5 -98.5t-68.5 -71.5t-98.5 -26.5q-41 0 -90.5 18.5t-86.5 40t-80.5 40t-74.5 18.5q-32 0 -58 -20.5t-54 -67.5l-90 14q0 59 11.5 111t36 98t70 73t107.5 27z
M1085 287v-287h-952v1047q0 237 -20 366h919l41 -41l-8 -246l-553 21v-330l451 10l-11 -260l-440 15v-316z" />
    <glyph glyph-name="etilde" unicode="&#x1ebd;" horiz-adv-x="1097" 
d="M393 1561q46 0 94.5 -18.5t82.5 -40t75.5 -40t75.5 -18.5q37 0 58 20t48 68l101 -14q0 -91 -21 -168t-72 -130t-124 -53q-52 0 -118.5 29.5t-126 58.5t-95.5 29q-57 0 -103 -88l-98 14q0 67 11.5 126.5t36 111.5t69.5 82.5t106 30.5zM1034 502l-30 -31h-545
q40 -235 278 -235q129 0 240 59l20 -232q-134 -83 -362 -83q-257 0 -410 135t-153 381q0 243 148.5 395.5t375.5 152.5q202 0 321 -122t119 -316q0 -69 -2 -104zM582 840q-64 0 -97.5 -71t-33.5 -181l223 12q4 36 4 74q0 72 -23 119t-73 47z" />
    <glyph glyph-name="Idotbelow" unicode="&#x1eca;" horiz-adv-x="645" 
d="M512 0h-379v1030q0 224 -20 383l358 21l41 -41v-1393zM541 -317q0 -94 -68.5 -161t-165.5 -67q-87 0 -141.5 54t-54.5 131q0 92 72 158.5t169 66.5q83 0 136 -50t53 -132z" />
    <glyph glyph-name="idotbelow" unicode="&#x1ecb;" horiz-adv-x="604" 
d="M518 1382q0 -94 -68 -160.5t-165 -66.5q-87 0 -142 53.5t-55 130.5q0 92 72.5 159t169.5 67q83 0 135.5 -50.5t52.5 -132.5zM113 0v641q0 188 -31 365l358 38l41 -40v-1004h-368zM526 -317q0 -94 -68 -161t-165 -67q-87 0 -142 54t-55 131q0 92 72.5 158.5t169.5 66.5
q83 0 135.5 -50t52.5 -132z" />
    <glyph glyph-name="Odotbelow" unicode="&#x1ecc;" horiz-adv-x="1464" 
d="M1403 711q0 -174 -53.5 -314t-147 -230.5t-218 -138.5t-269.5 -48q-144 0 -264.5 48.5t-207 137.5t-134.5 222t-48 296q0 339 193 544.5t498 205.5q199 0 347 -90.5t226 -254t78 -378.5zM451 717q0 -130 27.5 -230.5t93.5 -165.5t163 -65q279 0 279 451q0 450 -277 450
q-97 0 -162 -57.5t-94.5 -154t-29.5 -228.5zM969 -317q0 -94 -68.5 -161t-165.5 -67q-87 0 -141.5 54t-54.5 131q0 92 72 158.5t169 66.5q83 0 136 -50t53 -132z" />
    <glyph glyph-name="odotbelow" unicode="&#x1ecd;" horiz-adv-x="1163" 
d="M1092 518q0 -130 -42.5 -234.5t-115.5 -169.5t-167 -99.5t-200 -34.5t-196 34t-157 97.5t-104.5 161t-37.5 219.5q0 252 149 402t377 150q223 0 358.5 -143t135.5 -383zM451 522q0 -167 30.5 -252.5t104.5 -85.5q39 0 64.5 22.5t39 67t18.5 97.5t5 127q0 173 -29.5 257.5
t-103.5 84.5q-70 0 -99.5 -76t-29.5 -242zM797 -317q0 -94 -68.5 -161t-165.5 -67q-87 0 -141.5 54t-54.5 131q0 92 72 158.5t169 66.5q83 0 136 -50t53 -132z" />
    <glyph glyph-name="Udotbelow" unicode="&#x1ee4;" horiz-adv-x="1392" 
d="M113 1030q0 206 -21 383l359 21l41 -41v-869q0 -128 55.5 -194t161.5 -66q105 0 159 66t54 194v588q0 157 -21 301l379 17v-938q0 -100 -30.5 -184t-84.5 -144t-128.5 -102t-162.5 -62t-186 -20q-165 0 -293 56t-205 173.5t-77 282.5v538zM911 -317q0 -94 -68 -161
t-165 -67q-87 0 -142 54t-55 131q0 92 72.5 158.5t169.5 66.5q83 0 135.5 -50t52.5 -132z" />
    <glyph glyph-name="udotbelow" unicode="&#x1ee5;" horiz-adv-x="1187" 
d="M113 639q0 181 -29 365l356 40l41 -40v-613q0 -72 27 -105.5t84 -33.5q52 0 104 27v745l369 20v-778q0 -123 33 -266l-303 -20q-38 68 -60 149h-12q-67 -72 -150.5 -110.5t-169.5 -38.5q-131 0 -210.5 80.5t-79.5 213.5v365zM813 -317q0 -94 -68 -161t-165 -67
q-87 0 -142 54t-55 131q0 92 72.5 158.5t169.5 66.5q83 0 135.5 -50t52.5 -132z" />
    <glyph glyph-name="Ygrave" unicode="&#x1ef2;" horiz-adv-x="1196" 
d="M946 1559q-346 3 -606 129l-21 59l220 186q196 -156 432 -291zM408 442l-402 953l406 39l125 -398q82 -255 96 -309h6q10 31 48 143t54 162l125 402l303 -21l21 -39l-404 -932v-442h-378v442z" />
    <glyph glyph-name="ygrave" unicode="&#x1ef3;" horiz-adv-x="1038" 
d="M629 1159q-193 149 -320 348l21 62l327 16q37 -183 115 -405zM1028 983l-256 -874q-23 -80 -44 -140.5t-53.5 -131t-68.5 -121t-87 -100t-111 -80t-140 -49.5t-174 -19l-51 307q339 0 434 225h-174l-293 1014l389 30l113 -538q38 -180 45 -281h6q5 51 51 281l111 538
l283 -20z" />
    <glyph glyph-name="Ytilde" unicode="&#x1ef8;" horiz-adv-x="1196" 
d="M494 1911q46 0 92.5 -18.5t78.5 -40t72.5 -40t75.5 -18.5q39 0 63 20t54 68l90 -14q0 -59 -12.5 -112.5t-37.5 -98.5t-68.5 -71.5t-98.5 -26.5q-52 0 -115 29t-121 58t-96 29q-32 0 -58.5 -20.5t-54.5 -67.5l-90 15q0 59 11.5 111t36.5 98t70.5 73t107.5 27zM408 442
l-402 953l406 39l125 -398q82 -255 96 -309h6q10 31 48 143t54 162l125 402l303 -21l21 -39l-404 -932v-442h-378v442z" />
    <glyph glyph-name="ytilde" unicode="&#x1ef9;" horiz-adv-x="1038" 
d="M385 1561q46 0 94.5 -18.5t82.5 -40t75.5 -40t75.5 -18.5q37 0 58 20t48 68l101 -14q0 -91 -21.5 -168t-72.5 -130t-124 -53q-52 0 -118.5 29.5t-126 58.5t-95.5 29q-56 0 -102 -88l-98 14q0 67 11.5 126.5t36 111.5t69.5 82.5t106 30.5zM1028 983l-256 -874
q-23 -80 -44 -140.5t-53.5 -131t-68.5 -121t-87 -100t-111 -80t-140 -49.5t-174 -19l-51 307q339 0 434 225h-174l-293 1014l389 30l113 -538q38 -180 45 -281h6q5 51 51 281l111 538l283 -20z" />
    <glyph glyph-name="figurespace" unicode="&#x2007;" 
 />
    <glyph glyph-name="endash" unicode="&#x2013;" horiz-adv-x="1218" 
d="M61 514v102h1096v-102h-1096z" />
    <glyph glyph-name="emdash" unicode="&#x2014;" horiz-adv-x="1892" 
d="M61 514v102h1770v-102h-1770z" />
    <glyph glyph-name="quoteleft" unicode="&#x2018;" horiz-adv-x="610" 
d="M539 1497q-132 -144 -172 -287q65 -12 108 -64t43 -124q0 -90 -65 -156.5t-156 -66.5q-88 0 -146.5 57.5t-58.5 165.5q0 80 34.5 168.5t89.5 164.5t110 135.5t108 102.5z" />
    <glyph glyph-name="quoteright" unicode="&#x2019;" horiz-adv-x="610" 
d="M72 858q132 144 172 287q-65 12 -108.5 64t-43.5 124q0 90 65 156.5t156 66.5q88 0 146.5 -57.5t58.5 -165.5q0 -80 -34.5 -168.5t-89.5 -164.5t-110 -135.5t-108 -102.5z" />
    <glyph glyph-name="quotesinglbase" unicode="&#x201a;" horiz-adv-x="610" 
d="M72 -303q132 144 172 287q-65 12 -108.5 64t-43.5 124q0 90 65 156.5t156 66.5q88 0 146.5 -57.5t58.5 -165.5q0 -80 -34.5 -168.5t-89.5 -164.5t-110 -135.5t-108 -102.5z" />
    <glyph glyph-name="quotedblleft" unicode="&#x201c;" horiz-adv-x="1163" 
d="M539 1497q-132 -144 -172 -287q65 -12 108 -64t43 -124q0 -90 -65 -156.5t-156 -66.5q-88 0 -146.5 57.5t-58.5 165.5q0 80 34.5 168.5t89.5 164.5t110 135.5t108 102.5zM1092 1497q-132 -144 -172 -287q65 -12 108 -64t43 -124q0 -90 -65 -156.5t-156 -66.5
q-88 0 -146.5 57.5t-58.5 165.5q0 80 34.5 168.5t89.5 164.5t110 135.5t108 102.5z" />
    <glyph glyph-name="quotedblright" unicode="&#x201d;" horiz-adv-x="1163" 
d="M625 858q132 144 172 287q-65 12 -108.5 64t-43.5 124q0 90 65 156.5t156 66.5q88 0 146.5 -57.5t58.5 -165.5q0 -80 -34.5 -168.5t-89.5 -164.5t-110 -135.5t-108 -102.5zM72 858q132 144 172 287q-65 12 -108.5 64t-43.5 124q0 90 65 156.5t156 66.5q88 0 146.5 -57.5
t58.5 -165.5q0 -80 -34.5 -168.5t-89.5 -164.5t-110 -135.5t-108 -102.5z" />
    <glyph glyph-name="quotedblbase" unicode="&#x201e;" horiz-adv-x="1150" 
d="M72 -303q132 144 172 287q-65 12 -108.5 64t-43.5 124q0 90 65 156.5t156 66.5q88 0 146.5 -57.5t58.5 -165.5q0 -80 -34.5 -168.5t-89.5 -164.5t-110 -135.5t-108 -102.5zM612 -303q132 144 172 287q-65 12 -108 64t-43 124q0 90 65 156.5t156 66.5q88 0 146.5 -57.5
t58.5 -165.5q0 -80 -34.5 -168.5t-89.5 -164.5t-110 -135.5t-108 -102.5z" />
    <glyph glyph-name="dagger" unicode="&#x2020;" horiz-adv-x="1036" 
d="M631 29l-17 -29h-192l-16 29l-89 274l113 602l-326 -45l-8 6q-14 110 -14 240l29 16l313 -45l-86 334l6 8q169 15 338 15l16 -17l-86 -340l320 45l8 -6q14 -147 14 -239l-28 -17l-320 45l113 -602z" />
    <glyph glyph-name="daggerdbl" unicode="&#x2021;" horiz-adv-x="1036" 
d="M342 -20l-16 16l104 346l-319 -72l-29 17q0 170 14 280l8 6l330 -71q-4 14 -13.5 53t-14 58t-9 46.5t-4.5 47.5q0 19 4.5 46.5t9 46.5t14.5 58t13 53l-330 -71l-8 6q-14 110 -14 280l29 17l319 -72l-104 340l6 8q180 15 362 15l17 -17l-105 -346l326 72l8 -6
q14 -147 14 -281l-28 -16l-324 71q3 -14 13 -53t14.5 -58t9 -46.5t4.5 -46.5t-4.5 -47t-8.5 -46t-14.5 -58.5t-13.5 -53.5l324 71l28 -16q0 -134 -14 -281l-8 -6l-326 72l105 -340l-6 -8q-168 -14 -363 -14z" />
    <glyph glyph-name="bullet" unicode="&#x2022;" horiz-adv-x="1073" 
d="M524 180q-136 0 -225 83t-94 204q-6 142 103 248t259 106q127 0 212 -79.5t89 -206.5q6 -148 -94 -251.5t-250 -103.5z" />
    <glyph glyph-name="ellipsis" unicode="&#x2026;" horiz-adv-x="1736" 
d="M520 190q0 -89 -62.5 -149.5t-154.5 -60.5t-150.5 58.5t-58.5 143.5q0 88 66.5 150.5t158.5 62.5q87 0 144 -57t57 -148zM1081 190q0 -89 -62.5 -149.5t-154.5 -60.5t-150.5 58.5t-58.5 143.5q0 88 67 150.5t159 62.5q87 0 143.5 -57t56.5 -148zM1642 190
q0 -89 -62.5 -149.5t-154.5 -60.5t-150 58.5t-58 143.5q0 88 66.5 150.5t158.5 62.5q87 0 143.5 -57t56.5 -148z" />
    <glyph glyph-name="perthousand" unicode="&#x2030;" horiz-adv-x="2949" 
d="M1511 1434l-870 -1454h-133l868 1454h135zM911 1022q0 -101 -35 -182.5t-95.5 -132.5t-137.5 -78t-164 -27q-179 0 -293 105.5t-114 293.5q0 197 122.5 315t311.5 118q183 0 294 -112t111 -300zM387 1026q0 -129 24.5 -194.5t84.5 -65.5q59 0 79.5 61t20.5 179
q0 134 -23.5 199t-83.5 65q-57 0 -79.5 -57.5t-22.5 -186.5zM1886 260q0 -101 -35 -182.5t-95.5 -132.5t-137.5 -78t-164 -27q-179 0 -293 106t-114 294q0 197 122.5 314.5t311.5 117.5q183 0 294 -112t111 -300zM2877 260q0 -101 -35 -182.5t-95.5 -132.5t-137.5 -78
t-164 -27q-179 0 -293 106t-114 294q0 197 122.5 314.5t311.5 117.5q183 0 294 -112t111 -300zM1362 264q0 -130 24 -195t84 -65q31 0 52 17.5t31 52t14 74t4 96.5q0 134 -23.5 199t-83.5 65q-57 0 -79.5 -57.5t-22.5 -186.5zM2353 264q0 -129 24.5 -194.5t84.5 -65.5
q59 0 79.5 61t20.5 179q0 135 -23 199.5t-83 64.5q-57 0 -80 -58t-23 -186z" />
    <glyph glyph-name="guilsinglleft" unicode="&#x2039;" horiz-adv-x="604" 
d="M76 551v98q178 142 354 375l94 -37q-44 -195 -176 -387q132 -192 176 -387l-94 -37q-176 233 -354 375z" />
    <glyph glyph-name="guilsinglright" unicode="&#x203a;" horiz-adv-x="604" 
d="M528 551q-178 -142 -354 -375l-94 37q44 195 176 387q-132 192 -176 387l94 37q176 -233 354 -375v-98z" />
    <glyph glyph-name="fraction" unicode="&#x2044;" horiz-adv-x="1290" 
d="M1147 1434l-871 -1454h-133l869 1454h135z" />
    <glyph glyph-name="zerosuperior" unicode="&#x2070;" horiz-adv-x="929" 
d="M858 1141q0 -105 -32.5 -189.5t-88.5 -137.5t-128 -81t-154 -28q-167 0 -275 110.5t-108 306.5q0 202 114.5 324.5t290.5 122.5q171 0 276 -117t105 -311zM354 1143q0 -147 24 -218t91 -71q25 0 43 8.5t29.5 28.5t18.5 41t10 57t4 64.5t1 76.5q0 74 -4 122.5t-16 88.5
t-35 58t-59 18q-63 0 -85 -62.5t-22 -211.5z" />
    <glyph glyph-name="foursuperior" unicode="&#x2074;" horiz-adv-x="894" 
d="M72 1049l309 507l303 13l31 -27v-469q39 2 108 10l-14 -190h-94v-172h-258v172h-357zM291 1073v-4q3 0 23 0.5t57.5 1t83.5 0.5v82q0 166 12 244h-4z" />
    <glyph glyph-name="fivesuperior" unicode="&#x2075;" horiz-adv-x="847" 
d="M123 733l22 172q35 -11 94.5 -19.5t98.5 -8.5q62 0 99.5 25t37.5 77q0 94 -119 94q-75 0 -176 -37l-37 21v495h363q125 0 213 13l-14 -207h-343v-123q52 10 105 10q128 0 208.5 -65.5t80.5 -182.5q0 -95 -56 -162.5t-147 -98.5t-207 -31q-125 0 -223 28z" />
    <glyph glyph-name="sixsuperior" unicode="&#x2076;" horiz-adv-x="858" 
d="M438 705q-75 0 -139.5 21.5t-116 65t-81 115t-29.5 164.5q0 102 36 192.5t102 158.5t166.5 107.5t221.5 39.5q72 0 115 -13l-23 -180q-59 13 -94 13q-77 0 -146.5 -46.5t-91.5 -132.5h4q88 15 142 15q125 0 198.5 -63t73.5 -177q0 -131 -96.5 -205.5t-241.5 -74.5z
M416 1075q-28 0 -64 -12q-2 -124 12 -166.5t56 -42.5q76 0 76 109q0 112 -80 112z" />
    <glyph glyph-name="sevensuperior" unicode="&#x2077;" horiz-adv-x="755" 
d="M61 1333l19 219h622l33 -28v-138q-164 -150 -235 -307.5t-74 -357.5h-283q12 188 105.5 356t240.5 277v4h-135q-176 0 -293 -25z" />
    <glyph glyph-name="eightsuperior" unicode="&#x2078;" horiz-adv-x="903" 
d="M438 705q-166 0 -261 62.5t-95 164.5q0 85 61 143.5t142 75.5v4q-34 19 -57 34.5t-49.5 40t-40 54.5t-13.5 66q0 94 92 156.5t244 62.5q82 0 145.5 -19.5t99.5 -51t54 -66.5t18 -70q0 -56 -42 -108t-111 -83v-4q196 -79 196 -213q0 -101 -100 -175t-283 -74zM453 1432
q-33 0 -55.5 -18t-22.5 -52q0 -69 100 -113q53 53 53 113q0 32 -21 51t-54 19zM430 1053q-42 -18 -66 -49t-24 -70q0 -41 29 -67.5t80 -26.5q48 0 81 23t33 65q0 79 -133 125z" />
    <glyph glyph-name="ninesuperior" unicode="&#x2079;" horiz-adv-x="858" 
d="M82 1280q0 135 98 212t246 77q74 0 138 -21t114 -64t79 -114t29 -164q0 -97 -32 -185.5t-93.5 -160t-161.5 -113.5t-225 -42q-63 0 -104 10l-4 176q70 -8 98 -8q105 0 161.5 38.5t76.5 122.5q-72 -16 -129 -16q-133 0 -212 65.5t-79 186.5zM362 1294q0 -118 91 -118
q22 0 49 6q-2 118 -16.5 169.5t-57.5 51.5q-66 0 -66 -109z" />
    <glyph glyph-name="zeroinferior" unicode="&#x2080;" horiz-adv-x="929" 
d="M858 272q0 -105 -32.5 -189.5t-88.5 -137.5t-128 -81t-154 -28q-167 0 -275 111t-108 307q0 202 114.5 324t290.5 122q171 0 276 -117t105 -311zM354 274q0 -147 24 -217.5t91 -70.5q25 0 43 8.5t29.5 28.5t18.5 41t10 57t4 64.5t1 76.5q0 74 -4 122.5t-16 88.5t-35 58
t-59 18q-63 0 -85 -63t-22 -212z" />
    <glyph glyph-name="oneinferior" unicode="&#x2081;" horiz-adv-x="626" 
d="M223 459h-4l-121 -8l-37 153l402 101l31 -29v-819h-275v440q0 115 4 162z" />
    <glyph glyph-name="twoinferior" unicode="&#x2082;" horiz-adv-x="796" 
d="M113 -143l-31 170q37 16 91 55t111.5 91t97.5 117t40 120q0 50 -27.5 82t-79.5 32q-87 0 -206 -84l-25 197q145 68 299 68q141 0 231.5 -66t90.5 -170q0 -78 -54.5 -161.5t-135 -148.5t-173.5 -110h127q110 0 215 12l-14 -204h-557z" />
    <glyph glyph-name="threeinferior" unicode="&#x2083;" horiz-adv-x="800" 
d="M88 635q55 27 137 46t156 19q127 0 209 -54t82 -136q0 -64 -48.5 -121.5t-125.5 -81.5q101 -19 161 -77t60 -138q0 -114 -112.5 -185t-289.5 -71q-131 0 -235 29l24 164q36 -12 96.5 -20.5t100.5 -8.5q59 0 97 21.5t38 62.5q0 82 -174 82q-33 0 -119 -8v164
q60 2 113.5 15t93 43t39.5 71q0 69 -94 69q-41 0 -97.5 -14t-101.5 -37z" />
    <glyph glyph-name="fourinferior" unicode="&#x2084;" horiz-adv-x="894" 
d="M72 184l309 508l303 13l31 -27v-469q39 2 108 10l-14 -190h-94v-172h-258v172h-357zM291 209v-4q3 0 23 0.5t57.5 1t83.5 0.5v82q0 165 12 243h-4z" />
    <glyph glyph-name="fiveinferior" unicode="&#x2085;" horiz-adv-x="847" 
d="M123 -135l22 172q36 -12 95.5 -20.5t97.5 -8.5q61 0 99 25t38 78q0 94 -119 94q-75 0 -176 -37l-37 20v496h363q131 0 213 12l-14 -207h-343v-122q52 10 105 10q128 0 208.5 -65.5t80.5 -182.5q0 -95 -56 -162.5t-147 -99t-207 -31.5q-122 0 -223 29z" />
    <glyph glyph-name="sixinferior" unicode="&#x2086;" horiz-adv-x="858" 
d="M438 -164q-75 0 -139.5 22t-116 65t-81 115t-29.5 165q0 102 36 192.5t102 158t166.5 107t221.5 39.5q75 0 115 -12l-23 -180q-54 12 -94 12q-77 0 -146.5 -46t-91.5 -132h4q82 14 142 14q125 0 198.5 -62.5t73.5 -176.5q0 -132 -97 -206.5t-241 -74.5zM416 207
q-28 0 -64 -12q-2 -124 12 -166.5t56 -42.5q76 0 76 108q0 113 -80 113z" />
    <glyph glyph-name="seveninferior" unicode="&#x2087;" horiz-adv-x="755" 
d="M61 469l19 219h622l33 -29v-137q-164 -150 -235 -307.5t-74 -357.5h-283q12 187 105.5 355t240.5 277v5h-135q-176 0 -293 -25z" />
    <glyph glyph-name="eightinferior" unicode="&#x2088;" horiz-adv-x="903" 
d="M438 -164q-166 0 -261 62.5t-95 164.5q0 85 61 144t142 76v4q-35 19 -57.5 34.5t-49 39.5t-40 54t-13.5 66q0 94 92 156.5t244 62.5q82 0 145.5 -19.5t99.5 -51t54 -66t18 -69.5q0 -56 -42 -108t-111 -83v-4q196 -79 196 -213q0 -101 -100 -175.5t-283 -74.5zM453 563
q-33 0 -55.5 -18t-22.5 -51q0 -69 100 -113q53 53 53 113q0 32 -21 50.5t-54 18.5zM430 184q-90 -38 -90 -118q0 -41 29 -68t80 -27q48 0 81 23t33 65q0 79 -133 125z" />
    <glyph glyph-name="nineinferior" unicode="&#x2089;" horiz-adv-x="858" 
d="M82 412q0 135 98 211.5t246 76.5q75 0 138.5 -21t114 -63.5t79 -113.5t28.5 -164q0 -97 -32 -185.5t-93.5 -160t-161.5 -114t-225 -42.5q-63 0 -104 10l-4 177q79 -9 98 -9q105 0 161.5 39t76.5 123q-72 -16 -129 -16q-133 0 -212 65.5t-79 186.5zM362 426
q0 -119 91 -119q22 0 49 6q-2 118 -16.5 170t-57.5 52q-66 0 -66 -109z" />
    <glyph glyph-name="euro" unicode="&#x20ac;" horiz-adv-x="1167" 
d="M20 506l11 123h112q-2 16 -2 49q0 32 4 94h-102l10 123h111q54 251 224.5 395t414.5 144q194 0 325 -82l-69 -318q-153 92 -256 92q-91 0 -155.5 -61t-94.5 -170h354l-10 -123h-365q-2 -23 -2 -70q0 -16 5 -73h350l-11 -123h-317q33 -107 103.5 -163t175.5 -56
q135 0 258 78l43 -304q-150 -81 -349 -81q-262 0 -426 138.5t-206 387.5h-136z" />
    <glyph glyph-name="trademark" unicode="&#x2122;" horiz-adv-x="1165" 
d="M1059 1417l20 -14l45 -461h-147l-16 160q-7 83 -9 180h-4q-5 -75 -30 -180l-37 -160h-166l-37 160q-25 119 -31 182h-2q-4 -126 -10 -182l-17 -160h-122l47 469l209 6l20 -86q24 -111 39 -252h2q14 162 37 252l20 80zM330 942h-152v358q-43 0 -137 -4l8 115h412l8 -115
q-98 4 -139 4v-358z" />
    <glyph glyph-name="partialdiff" unicode="&#x2202;" horiz-adv-x="1460" 
d="M696 1556q134 0 242.5 -40.5t182 -110.5t123 -166.5t71.5 -205t22 -230.5q0 -116 -19.5 -226t-69 -220.5t-124.5 -192.5t-195 -133t-272 -51q-249 0 -391.5 126t-142.5 336q0 110 41.5 207t118 170t194.5 115.5t262 42.5q106 0 199 -27q-26 161 -111.5 245.5t-222.5 84.5
q-94 0 -181 -36.5t-151 -92.5l-116 231q96 74 240 124t300 50zM512 453q0 -94 46.5 -144.5t125.5 -50.5q116 0 186.5 106.5t77.5 309.5q-81 24 -157 24q-139 0 -209 -67t-70 -178z" />
    <glyph glyph-name="product" unicode="&#x220f;" horiz-adv-x="1574" 
d="M1493 1372l-10 -233h-144v-1426h-368v1426h-367v-1426h-368v1426h-144l-10 274h1370z" />
    <glyph glyph-name="summation" unicode="&#x2211;" horiz-adv-x="1228" 
d="M72 -41l448 604l-448 604l61 246h1014l41 -41l-8 -246l-709 19l399 -537v-90l-397 -536l715 18v-287h-1055z" />
    <glyph glyph-name="minus" unicode="&#x2212;" 
d="M1085 621h-921v174q348 10 926 10l16 -17z" />
    <glyph glyph-name="radical" unicode="&#x221a;" horiz-adv-x="1343" 
d="M1303 1497l-426 -1497h-388l-258 750h-221v274h486l206 -760l277 1292l303 -20z" />
    <glyph glyph-name="infinity" unicode="&#x221e;" horiz-adv-x="1720" 
d="M1597 555q0 -174 -104.5 -287.5t-271.5 -113.5q-80 0 -148.5 29.5t-114 72t-92.5 106.5q-152 -208 -381 -208q-160 0 -261 111.5t-101 285.5t105 287.5t272 113.5q208 0 356 -204q153 204 379 204q160 0 261 -111.5t101 -285.5zM1202 768q-74 0 -142 -49.5t-110 -124.5
l4 -8q65 -122 127.5 -185t145.5 -63q78 0 127 59.5t49 159.5q0 95 -56.5 153t-144.5 58zM317 557q0 -99 55 -158t146 -59q71 0 142.5 52.5t109.5 119.5l-4 8q-33 54 -51.5 82.5t-47.5 66t-52 55.5t-54.5 31t-66.5 13q-78 0 -127.5 -56.5t-49.5 -154.5z" />
    <glyph glyph-name="integral" unicode="&#x222b;" horiz-adv-x="884" 
d="M305 -297q39 0 54.5 23.5t15.5 85.5q0 68 -99 671q-67 414 -78 531q-5 61 -5 108q0 218 110 326t305 108q150 0 281 -51l-21 -270q-67 39 -139.5 62.5t-116.5 23.5q-39 0 -55 -22t-16 -78q0 -45 100 -680q10 -62 26 -164t23.5 -150t16.5 -114t12.5 -112.5t3.5 -88.5
q0 -227 -109.5 -335.5t-306.5 -108.5q-149 0 -280 51l20 270q67 -39 140 -62.5t118 -23.5z" />
    <glyph glyph-name="approxequal" unicode="&#x2248;" 
d="M903 639q-51 0 -284.5 51t-264.5 51q-4 0 -8.5 -2t-10 -6t-10.5 -8.5t-12 -12t-13 -14t-14.5 -16.5t-14.5 -17.5t-16.5 -19.5t-16.5 -20l-105 69q21 38 36.5 64.5t41.5 63.5t48.5 60t51 39.5t56.5 16.5q51 0 285 -51t263 -51q21 0 101 97q11 13 16 19l105 -69
q-21 -38 -36.5 -64.5t-41.5 -63.5t-48.5 -60t-51 -39.5t-56.5 -16.5zM903 180q-51 0 -285 51.5t-264 51.5q-5 0 -11 -3t-13.5 -10t-14.5 -13.5t-17.5 -19t-18 -21.5t-20.5 -25t-21 -25l-105 70q27 49 47.5 82t52.5 75t66 64t68 22q51 0 285 -51t263 -51q4 0 8.5 2t10 6
t10.5 8.5t12.5 12.5t13 14t14.5 16.5t15 18t16.5 19.5t16.5 20l105 -70q-21 -38 -36.5 -64.5t-41.5 -63.5t-48.5 -60t-51 -39.5t-56.5 -16.5z" />
    <glyph glyph-name="notequal" unicode="&#x2260;" 
d="M301 256l76 160h-213v174q89 2 299 6l110 229h-409v174q149 5 495 9l109 225l23 6l149 -82l-72 -147h222l16 -17l-21 -168h-305l-108 -227q162 2 418 2l16 -16l-21 -168h-501l-113 -236l-20 -6z" />
    <glyph glyph-name="lessequal" unicode="&#x2264;" 
d="M457 883l639 -242v-184l-953 362v113l13 22q467 180 938 344v-184zM1075 154h-921v174q348 10 925 10l17 -16z" />
    <glyph glyph-name="greaterequal" unicode="&#x2265;" 
d="M174 457v184l639 242l-637 231v184q471 -164 938 -344l12 -22v-113zM1096 154h-922v174q348 10 926 10l16 -16z" />
    <glyph glyph-name="lozenge" unicode="&#x25ca;" horiz-adv-x="1316" 
d="M123 653v95l428 665l199 21l444 -689v-92l-436 -653l-197 -20zM655 127h2l357 573l-359 588h-2l-350 -590z" />
    <glyph glyph-name="fi" unicode="&#xfb01;" horiz-adv-x="1290" 
d="M543 0h-369v809l-143 10v123l143 41q-6 77 -6 129q0 215 127.5 329.5t349.5 114.5q140 0 258 -39.5t193 -103.5l-168 -217q-135 94 -260 94q-72 0 -105 -39.5t-33 -124.5q0 -68 7 -143h231l358 61l41 -40v-1004h-368v641q0 81 -6 158l-250 8v-807z" />
    <glyph glyph-name="fl" unicode="&#xfb02;" horiz-adv-x="1290" 
d="M543 0h-369v809l-143 10v123l143 41q-6 77 -6 137q0 210 129 323t358 113q115 0 213 -28l258 28l41 -40v-1516h-368v799l-256 8v-807zM530 1149q0 -23 7 -166h262v170q0 76 -2 113q-74 24 -131 24q-65 0 -100.5 -37t-35.5 -104z" />
    <glyph glyph-name="a.inferior" horiz-adv-x="901" 
d="M516 -51q-36 -50 -100.5 -79.5t-141.5 -29.5q-100 0 -162.5 50.5t-62.5 146.5q0 129 119 193t326 69v41q0 117 -134 117q-127 0 -254 -62l-16 221q174 56 350 56q361 0 361 -303q0 -56 -4 -152t-4 -154q0 -113 34 -206l-252 -17q-27 41 -49 109h-10zM348 90q0 -38 23 -62
t61 -24q33 0 62 16v195q-64 -6 -105 -39t-41 -86z" />
    <glyph glyph-name="b.inferior" horiz-adv-x="983" 
d="M918 264q0 -202 -103 -313t-293 -111q-99 0 -188 25l-244 -25v914q0 139 -24 286l296 31l35 -33v-432q90 66 201 66q150 0 235 -111t85 -297zM463 492q-33 0 -66 -13v-483q24 -8 56 -8q77 0 113 64t36 196q0 128 -33.5 186t-105.5 58z" />
    <glyph glyph-name="c.inferior" horiz-adv-x="843" 
d="M795 604l-66 -221q-106 74 -201 74q-67 0 -107 -50t-40 -135q0 -107 56 -166t157 -59q70 0 166 45l16 -186q-100 -66 -268 -66q-200 2 -321 113.5t-121 294.5q0 186 126 305t324 119q163 0 279 -68z" />
    <glyph glyph-name="d.inferior" horiz-adv-x="1003" 
d="M612 -55q-86 -105 -227 -105q-144 0 -231.5 101.5t-87.5 277.5q0 214 127 333.5t337 119.5q40 0 58 -2v84q0 130 -25 286l297 31l35 -33v-975q0 -106 35 -206l-260 -17q-28 44 -52 107h-6v-2zM381 262q0 -116 37 -187t106 -71q35 0 64 16v504h-10q-197 0 -197 -262z" />
    <glyph glyph-name="e.inferior" horiz-adv-x="917" 
d="M858 248l-24 -25h-445q35 -176 225 -176q109 0 197 45l16 -186q-106 -66 -297 -66q-213 0 -338.5 106t-125.5 298q0 189 122.5 308.5t309.5 119.5q166 0 264 -96t98 -248q0 -53 -2 -80zM485 508q-51 0 -77.5 -54.5t-26.5 -138.5l178 11q0 7 1 24.5t1 32.5q0 53 -18 89
t-58 36z" />
    <glyph glyph-name="f.inferior" horiz-adv-x="737" 
d="M457 -143h-307v626l-117 9v98l117 33q-5 98 -5 104q0 165 107 254.5t297 89.5q72 0 140.5 -15.5t107.5 -39.5l-60 -215q-98 55 -180 55q-53 0 -82 -26.5t-29 -77.5q0 -20 7 -129h204l21 -31l-8 -117l-213 6v-624z" />
    <glyph glyph-name="g.inferior" horiz-adv-x="923" 
d="M164 -66q0 94 112 158q-99 30 -158 98.5t-59 161.5q0 133 109 226.5t281 93.5q138 0 225 -56q27 62 83 94.5t124 32.5l37 -30l-9 -172h-170l-6 -9q84 -61 84 -167q0 -131 -105.5 -214t-273.5 -83q-35 0 -51 2v-19q0 -31 17.5 -41t56.5 -12l160 -10q129 -8 206.5 -63.5
t77.5 -155.5q0 -135 -136 -223.5t-366 -88.5q-178 0 -287.5 52t-109.5 135q0 53 45.5 92.5t110.5 52.5l102 -41q-2 -6 -2 -16q0 -59 52 -101.5t135 -42.5q64 0 106.5 27.5t42.5 75.5q0 80 -133 92l-146 16q-74 9 -114.5 43.5t-40.5 91.5zM528 371q0 82 -20 121.5t-66 39.5
q-94 0 -94 -165q0 -162 92 -162q46 0 67 40.5t21 125.5z" />
    <glyph glyph-name="h.inferior" horiz-adv-x="991" 
d="M397 -143h-307v897q0 147 -24 286l296 31l35 -33v-467q119 101 252 101q109 0 172.5 -69t63.5 -187v-559h-307v503q0 115 -95 115q-39 0 -86 -24v-594z" />
    <glyph glyph-name="i.inferior" horiz-adv-x="514" 
d="M436 940q0 -75 -56 -127.5t-138 -52.5q-72 0 -118 42t-46 103q0 73 60.5 126.5t142.5 53.5q68 0 111.5 -40t43.5 -105zM98 -143v497q0 148 -24 287l299 31l33 -33v-782h-308z" />
    <glyph glyph-name="j.inferior" horiz-adv-x="518" 
d="M434 940q0 -75 -56 -127.5t-138 -52.5q-72 0 -117 42t-45 103q0 73 59.5 126.5t141.5 53.5q68 0 111.5 -40t43.5 -105zM143 -547l-118 101q79 175 79 403v397q0 137 -26 287l299 31l35 -33v-682q0 -186 -56 -291.5t-213 -212.5z" />
    <glyph glyph-name="k.inferior" horiz-adv-x="958" 
d="M90 754q0 147 -24 286l296 31l35 -33v-729h47q95 175 177 363l258 -17l18 -32l-197 -287q65 -139 250 -479l-352 -17q-91 190 -143 322h-58v-305h-307v897z" />
    <glyph glyph-name="l.inferior" horiz-adv-x="514" 
d="M406 -143h-308v897q0 147 -24 286l299 31l33 -33v-1181z" />
    <glyph glyph-name="m.inferior" horiz-adv-x="1486" 
d="M406 -143h-308v497q0 114 -32 271l288 47q30 -80 37 -113q125 113 266 113q73 0 127 -32.5t82 -92.5q128 125 279 125q109 0 172 -69t63 -189v-557h-307v503q0 115 -94 115q-39 0 -88 -24q2 -12 2 -37v-557h-307v503q0 115 -94 115q-40 0 -86 -24v-594z" />
    <glyph glyph-name="n.inferior" horiz-adv-x="999" 
d="M406 -143h-308v497q0 114 -32 271l288 47q30 -80 37 -113q125 113 266 113q109 0 172.5 -69t63.5 -187v-559h-307v503q0 115 -94 115q-40 0 -86 -24v-594z" />
    <glyph glyph-name="o.inferior" horiz-adv-x="970" 
d="M905 260q0 -101 -35 -182.5t-95.5 -132.5t-137.5 -78t-164 -27q-179 0 -293 106t-114 294q0 197 122.5 314.5t311.5 117.5q183 0 294 -112t111 -300zM381 264q0 -130 24 -195t84 -65q31 0 52 17.5t31 52t14 74t4 96.5q0 134 -23.5 199t-83.5 65q-57 0 -79.5 -57.5
t-22.5 -186.5z" />
    <glyph glyph-name="p.inferior" horiz-adv-x="993" 
d="M98 -510v864q0 108 -32 271l288 47q21 -46 31 -84q94 84 227 84q147 0 231.5 -111.5t84.5 -296.5q0 -204 -103 -314t-297 -110q-54 0 -122 10v-75q0 -148 24 -287l-297 -31zM473 492q-37 0 -67 -15v-481q24 -8 55 -8q79 0 115 63.5t36 196.5q0 128 -33.5 186t-105.5 58z
" />
    <glyph glyph-name="q.inferior" horiz-adv-x="1001" 
d="M588 -510v430q-83 -80 -201 -80q-145 0 -233 108.5t-88 284.5q0 201 117 320t309 119q78 0 180 -23l223 23v-897q0 -137 23 -287l-297 -31zM381 256q0 -117 36.5 -184.5t104.5 -67.5q34 0 66 19v501h-13q-194 0 -194 -268z" />
    <glyph glyph-name="r.inferior" horiz-adv-x="716" 
d="M406 -143h-308v497q0 114 -32 271l288 47q42 -102 52 -193v-2q37 95 82.5 145t119.5 50q52 0 84 -25l-20 -282q-65 14 -115 14q-100 0 -151 -31v-491z" />
    <glyph glyph-name="s.inferior" horiz-adv-x="776" 
d="M698 633l-16 -217q-65 31 -135 49t-115 18q-40 0 -63 -13t-23 -36q0 -22 21 -40.5t54.5 -33t74.5 -29.5t81.5 -36t74 -47t54.5 -66.5t21 -91.5q0 -116 -99.5 -183t-271.5 -67q-87 0 -171.5 17.5t-135.5 46.5l17 211q75 -39 156.5 -62.5t135.5 -23.5q80 0 80 47
q0 22 -21 41t-54.5 34t-74.5 31t-81.5 37t-74 47t-54.5 65.5t-21 88.5q0 114 103 183t274 69q146 0 264 -39z" />
    <glyph glyph-name="t.inferior" horiz-adv-x="722" 
d="M668 508l-236 6v-350q0 -117 100 -117q63 0 132 37l18 -176q-111 -68 -252 -68q-144 0 -224.5 83.5t-80.5 240.5v358l-109 2v99l117 32l76 211l188 13l37 -35l-2 -189h230l20 -32z" />
    <glyph glyph-name="u.inferior" horiz-adv-x="991" 
d="M98 352q0 150 -22 287l297 33l33 -33v-473q0 -107 90 -107q39 0 82 19v577l307 17v-609q0 -96 26 -206l-252 -17q-36 66 -49 117h-12q-114 -117 -260 -117q-107 0 -173.5 64t-66.5 168v280z" />
    <glyph glyph-name="v.inferior" horiz-adv-x="870" 
d="M854 623l-240 -766h-360l-238 790l324 25l92 -422q28 -143 35 -213h4q6 60 41 213l90 422l236 -17z" />
    <glyph glyph-name="w.inferior" horiz-adv-x="1388" 
d="M209 -143l-193 790l316 25l71 -406q29 -154 31 -180h6q3 29 14.5 96t14.5 84l59 389h392l65 -389q3 -24 15.5 -88t15.5 -92h4q7 58 29 180l69 406l238 -17l18 -32l-192 -766h-396l-55 323q-34 194 -39 246h-4q-4 -54 -37 -248l-57 -321h-385z" />
    <glyph glyph-name="x.inferior" horiz-adv-x="860" 
d="M520 -143l-133 256l-117 -256h-237l-19 32l226 367l-226 391l318 25l135 -289l121 289l239 -17l17 -32l-228 -367l228 -399h-324z" />
    <glyph glyph-name="y.inferior" horiz-adv-x="870" 
d="M854 623l-207 -662q-17 -55 -32.5 -96.5t-37 -91.5t-46 -86.5t-56 -74.5t-70 -64.5t-85.5 -48t-106.5 -32t-127.5 -10.5l-43 248q281 -3 356 150h-145l-238 792l324 25l92 -422q28 -143 35 -213h4q6 60 41 213l90 422l236 -17z" />
    <glyph glyph-name="z.inferior" horiz-adv-x="790" 
d="M47 418l16 237h635l33 -188l-346 -379h94q156 0 271 16l-19 -247h-655l-35 190l365 377z" />
    <glyph glyph-name="a.superior" horiz-adv-x="901" 
d="M516 686q-36 -50 -100.5 -79t-141.5 -29q-100 0 -162.5 50t-62.5 146q0 129 119 193t326 69v41q0 117 -134 117q-129 0 -254 -61l-16 221q171 55 350 55q361 0 361 -303q0 -56 -4 -151.5t-4 -153.5q0 -114 34 -207l-252 -16q-28 42 -49 108h-10zM348 827q0 -38 23 -62
t61 -24q31 0 62 17v194q-64 -6 -105 -39t-41 -86z" />
    <glyph glyph-name="b.superior" horiz-adv-x="983" 
d="M918 1001q0 -202 -103 -312.5t-293 -110.5q-102 0 -188 24l-244 -24v913q0 140 -24 287l296 30l35 -32v-433q90 66 201 66q150 0 235 -111t85 -297zM463 1229q-36 0 -66 -12v-484q24 -8 56 -8q77 0 113 64t36 196q0 128 -33.5 186t-105.5 58z" />
    <glyph glyph-name="c.superior" horiz-adv-x="843" 
d="M795 1341l-66 -221q-106 74 -201 74q-68 0 -107.5 -49.5t-39.5 -134.5q0 -107 56 -166.5t157 -59.5q70 0 166 45l16 -186q-98 -65 -268 -65q-200 2 -321 113t-121 294q0 186 126 305t324 119q163 0 279 -68z" />
    <glyph glyph-name="d.superior" horiz-adv-x="1003" 
d="M612 682q-85 -104 -227 -104q-144 0 -231.5 101t-87.5 277q0 214 127 333.5t337 119.5q40 0 58 -2v84q0 131 -25 287l297 30l35 -32v-975q0 -107 35 -207l-260 -16q-29 46 -52 106h-6v-2zM381 999q0 -116 37 -187t106 -71q33 0 64 17v504h-10q-197 0 -197 -263z" />
    <glyph glyph-name="e.superior" horiz-adv-x="917" 
d="M858 985l-24 -24h-445q35 -177 225 -177q109 0 197 45l16 -186q-104 -65 -297 -65q-213 0 -338.5 105.5t-125.5 297.5q0 189 122.5 308.5t309.5 119.5q166 0 264 -96t98 -248q0 -53 -2 -80zM485 1245q-51 0 -77.5 -54t-26.5 -138l178 10q0 7 1 24.5t1 32.5q0 53 -18 89
t-58 36z" />
    <glyph glyph-name="f.superior" horiz-adv-x="737" 
d="M457 594h-307v627l-117 8v98l117 33q-5 97 -5 104q0 165 107 254.5t297 89.5q72 0 140.5 -15.5t107.5 -39.5l-60 -215q-98 55 -180 55q-53 0 -82 -26.5t-29 -77.5q0 -21 7 -129h204l21 -31l-8 -117l-213 7v-625z" />
    <glyph glyph-name="g.superior" horiz-adv-x="923" 
d="M164 672q0 93 112 157q-99 30 -158 99t-59 162q0 133 108.5 226t281.5 93q140 0 225 -55q27 62 83 94.5t124 32.5l37 -31l-9 -172h-170l-6 -8q84 -61 84 -168q0 -131 -105.5 -214t-273.5 -83q-35 0 -51 2v-19q0 -31 17.5 -41t56.5 -12l160 -10q129 -8 206.5 -63.5
t77.5 -155.5q0 -135 -136 -223t-366 -88q-178 0 -287.5 51.5t-109.5 134.5q0 53 45.5 92.5t110.5 52.5l102 -41q-2 -6 -2 -16q0 -59 51.5 -101t135.5 -42q64 0 106.5 27t42.5 75q0 80 -133 92l-146 17q-74 9 -114.5 43.5t-40.5 91.5zM528 1108q0 82 -20 122t-66 40
q-94 0 -94 -166q0 -162 92 -162q46 0 67 40.5t21 125.5z" />
    <glyph glyph-name="h.superior" horiz-adv-x="991" 
d="M397 594h-307v897q0 148 -24 287l296 30l35 -32v-467q118 100 252 100q109 0 172.5 -69t63.5 -187v-559h-307v504q0 114 -95 114q-39 0 -86 -24v-594z" />
    <glyph glyph-name="i.superior" horiz-adv-x="514" 
d="M436 1677q0 -75 -56 -127.5t-138 -52.5q-72 0 -118 42t-46 103q0 73 60.5 127t142.5 54q68 0 111.5 -40.5t43.5 -105.5zM98 594v498q0 147 -24 286l299 31l33 -33v-782h-308z" />
    <glyph glyph-name="j.superior" horiz-adv-x="518" 
d="M434 1677q0 -75 -56 -127.5t-138 -52.5q-72 0 -117 42t-45 103q0 74 59.5 127.5t141.5 53.5q68 0 111.5 -40.5t43.5 -105.5zM143 190l-118 101q79 175 79 403v398q0 136 -26 286l299 31l35 -33v-682q0 -186 -56 -291.5t-213 -212.5z" />
    <glyph glyph-name="k.superior" horiz-adv-x="958" 
d="M90 1491q0 148 -24 287l296 30l35 -32v-729h47q97 179 177 362l258 -16l18 -33l-197 -287q65 -139 250 -479l-352 -16q-93 195 -143 321h-58v-305h-307v897z" />
    <glyph glyph-name="l.superior" horiz-adv-x="514" 
d="M406 594h-308v897q0 148 -24 287l299 30l33 -32v-1182z" />
    <glyph glyph-name="m.superior" horiz-adv-x="1486" 
d="M406 594h-308v498q0 113 -32 270l288 47q30 -80 37 -113q125 113 266 113q73 0 127 -32.5t82 -92.5q128 125 279 125q109 0 172 -69t63 -189v-557h-307v504q0 114 -94 114q-39 0 -88 -24q2 -12 2 -37v-557h-307v504q0 114 -94 114q-40 0 -86 -24v-594z" />
    <glyph glyph-name="n.superior" horiz-adv-x="999" 
d="M406 594h-308v498q0 113 -32 270l288 47q30 -80 37 -113q125 113 266 113q109 0 172.5 -69t63.5 -187v-559h-307v504q0 114 -94 114q-40 0 -86 -24v-594z" />
    <glyph glyph-name="o.superior" horiz-adv-x="970" 
d="M905 997q0 -101 -35 -182.5t-95.5 -132t-137.5 -77.5t-164 -27q-179 0 -293 105.5t-114 293.5q0 197 122.5 314.5t311.5 117.5q183 0 294 -112t111 -300zM381 1001q0 -130 24 -195t84 -65q31 0 52 17.5t31 52t14 74t4 96.5q0 134 -23.5 199t-83.5 65q-57 0 -79.5 -57.5
t-22.5 -186.5z" />
    <glyph glyph-name="p.superior" horiz-adv-x="993" 
d="M98 227v865q0 107 -32 270l288 47q21 -46 31 -84q94 84 227 84q147 0 231.5 -111.5t84.5 -296.5q0 -203 -103 -313t-297 -110q-54 0 -122 10v-76q0 -148 24 -287l-297 -30zM473 1229q-37 0 -67 -15v-481q24 -8 55 -8q79 0 115 63.5t36 196.5q0 128 -33.5 186t-105.5 58z
" />
    <glyph glyph-name="q.superior" horiz-adv-x="1001" 
d="M588 227v430q-82 -79 -201 -79q-145 0 -233 108.5t-88 284.5q0 201 117 319.5t309 118.5q78 0 180 -23l223 23v-897q0 -138 23 -287l-297 -30zM381 993q0 -117 36.5 -184.5t104.5 -67.5q34 0 66 19v502h-13q-194 0 -194 -269z" />
    <glyph glyph-name="r.superior" horiz-adv-x="716" 
d="M406 594h-308v498q0 113 -32 270l288 47q42 -103 52 -192v-3q37 95 82.5 145t119.5 50q52 0 84 -25l-20 -282q-65 14 -115 14q-100 0 -151 -31v-491z" />
    <glyph glyph-name="s.superior" horiz-adv-x="776" 
d="M698 1370l-16 -217q-65 31 -135 49.5t-115 18.5q-40 0 -63 -13.5t-23 -36.5q0 -22 21 -40.5t54.5 -33t74.5 -29.5t81.5 -36t74 -47t54.5 -66.5t21 -91.5q0 -115 -99.5 -182t-271.5 -67q-88 0 -172.5 17t-134.5 46l17 211q75 -39 156.5 -62.5t135.5 -23.5q80 0 80 47
q0 22 -21 41t-54.5 34t-74.5 31t-81.5 37t-74 47t-54.5 65.5t-21 88.5q0 114 103 183t274 69q146 0 264 -39z" />
    <glyph glyph-name="t.superior" horiz-adv-x="722" 
d="M668 1245l-236 6v-350q0 -117 100 -117q63 0 132 37l18 -176q-109 -67 -252 -67q-144 0 -224.5 83.5t-80.5 239.5v359l-109 2v98l117 33l76 211l188 12l37 -35l-2 -188h230l20 -33z" />
    <glyph glyph-name="u.superior" horiz-adv-x="991" 
d="M98 1090q0 148 -22 286l297 33l33 -33v-473q0 -55 22 -80.5t68 -25.5q42 0 82 18v578l307 16v-608q0 -97 26 -207l-252 -16q-36 67 -49 116h-12q-113 -116 -260 -116q-108 0 -174 63.5t-66 167.5v281z" />
    <glyph glyph-name="v.superior" horiz-adv-x="870" 
d="M854 1360l-240 -766h-360l-238 790l324 25l92 -422q28 -143 35 -213h4q6 60 41 213l90 422l236 -16z" />
    <glyph glyph-name="w.superior" horiz-adv-x="1388" 
d="M209 594l-193 790l316 25l71 -405q29 -153 31 -181h6q3 29 15 97t14 84l59 389h392l65 -389q3 -24 15.5 -88.5t15.5 -92.5h4q7 61 29 181l69 405l238 -16l18 -33l-192 -766h-396l-55 324q-34 195 -39 245h-4q-4 -54 -37 -248l-57 -321h-385z" />
    <glyph glyph-name="x.superior" horiz-adv-x="860" 
d="M520 594l-133 256l-117 -256h-237l-19 33l226 366l-226 391l318 25l135 -289l121 289l239 -16l17 -33l-228 -367l228 -399h-324z" />
    <glyph glyph-name="y.superior" horiz-adv-x="870" 
d="M854 1360l-207 -662q-20 -64 -37.5 -110.5t-44.5 -102.5t-56 -95t-71.5 -78.5t-91.5 -63t-115.5 -38.5t-144.5 -15l-43 247q281 -3 356 150h-145l-238 792l324 25l92 -422q28 -143 35 -213h4q6 60 41 213l90 422l236 -16z" />
    <glyph glyph-name="z.superior" horiz-adv-x="790" 
d="M47 1155l16 238h635l33 -189l-346 -379h94q149 0 271 17l-19 -248h-655l-35 190l365 377z" />
    <glyph glyph-name="c_h" horiz-adv-x="2195" 
d="M1479 0h-369v1153q0 65 -2 98q-30 9 -59 9q-71 0 -118.5 -40.5t-47.5 -103.5q0 -79 73 -158l-77 -274q-129 94 -244 94q-85 0 -134.5 -66.5t-49.5 -179.5q0 -141 68.5 -218.5t191.5 -77.5q83 0 204 59l21 -232q-125 -83 -328 -83q-243 1 -389.5 144t-146.5 378
q0 238 153.5 390t392.5 152q30 0 84 -4q-49 85 -49 172q0 147 136.5 245.5t375.5 98.5q144 0 314 -40v-601q144 129 307 129q134 0 210.5 -87.5t76.5 -239.5v-717h-369v649q0 77 -28.5 113.5t-88.5 36.5q-52 0 -108 -33v-766z" />
    <glyph glyph-name="c_t" horiz-adv-x="1845" 
d="M1141 1024l4 16q4 16 7 31t6 39t3 45q0 72 -33 117t-90 45q-62 0 -103.5 -48.5t-41.5 -121.5q0 -97 63 -189l-77 -274q-129 94 -238 94q-90 0 -140 -67t-50 -183q0 -137 68 -214.5t188 -77.5q87 0 208 59l21 -232q-125 -83 -320 -83q-249 0 -396.5 142.5t-147.5 377.5
q0 241 154 392.5t403 151.5q54 0 116 -10q-26 73 -26 148q0 158 113.5 256t297.5 98q178 0 285 -94t107 -254q0 -74 -23 -164h281l24 -41l-16 -143l-289 8v-457q0 -155 125 -155q76 0 160 49l20 -222q-131 -83 -303 -83q-175 0 -273 105t-98 304v469l-112 2v123z" />
    <glyph glyph-name="s_h" horiz-adv-x="2113" 
d="M840 993l-21 -270q-79 40 -163 63t-140 23q-49 0 -77.5 -17.5t-28.5 -46.5q0 -27 25.5 -49.5t66.5 -40.5t90.5 -37.5t99 -47t90.5 -61.5t66.5 -87.5t25.5 -120.5q0 -150 -121 -235.5t-329 -85.5q-106 0 -209 21.5t-164 57.5l21 265q88 -50 187.5 -79.5t166.5 -29.5
q100 0 100 61q0 27 -25.5 50.5t-66.5 42t-90.5 38.5t-99.5 47t-91 61t-66.5 86.5t-25.5 117.5q0 149 124.5 237t332.5 88q46 0 105 -6q-52 88 -52 174q0 147 136.5 245.5t375.5 98.5q144 0 314 -40v-601q144 129 307 129q134 0 210.5 -87.5t76.5 -239.5v-717h-369v649
q0 77 -28.5 113.5t-88.5 36.5q-52 0 -108 -33v-766h-369v1153q0 65 -2 98q-30 9 -59 9q-71 0 -118.5 -40.5t-47.5 -103.5q0 -61 39 -123z" />
    <glyph glyph-name="s_t" horiz-adv-x="1753" 
d="M840 993l-21 -270q-79 40 -163 63t-140 23q-49 0 -77.5 -17.5t-28.5 -46.5q0 -27 25.5 -49.5t66.5 -40.5t90.5 -37.5t99 -47t90.5 -61.5t66.5 -87.5t25.5 -120.5q0 -150 -121 -235.5t-329 -85.5q-106 0 -209 21.5t-164 57.5l21 265q88 -50 187.5 -79.5t166.5 -29.5
q100 0 100 61q0 27 -25.5 50.5t-66.5 42t-90.5 38.5t-99.5 47t-91 61t-66.5 86.5t-25.5 117.5q0 149 124.5 237t332.5 88q69 0 137 -8q-28 67 -28 146q0 158 113.5 256t297.5 98q178 0 285 -94t107 -254q0 -74 -23 -164h281l24 -41l-16 -143l-289 8v-457q0 -155 125 -155
q76 0 160 49l20 -222q-131 -83 -303 -83q-175 0 -273 105t-98 304v469l-112 2v123l123 41l4 16q4 16 7 31t6 39t3 45q0 72 -33 117t-90 45q-62 0 -103.5 -48.5t-41.5 -121.5q0 -80 39 -154z" />
    <glyph glyph-name="a.sc" horiz-adv-x="1167" 
d="M358 0h-348l273 924q35 119 45 178l454 18l60 -49l315 -1071h-366l-46 170h-342zM475 434l-4 -18h207l-4 16q-60 221 -94 397h-11q-41 -206 -94 -395z" />
    <glyph glyph-name="aacute.sc" horiz-adv-x="1167" 
d="M797 1651l20 -62q-128 -200 -319 -348l-144 21q78 222 115 405zM358 0h-348l273 924q35 119 45 178l454 18l60 -49l315 -1071h-366l-46 170h-342zM475 434l-4 -18h207l-4 16q-60 221 -94 397h-11q-41 -206 -94 -395z" />
    <glyph glyph-name="abreve.sc" horiz-adv-x="1167" 
d="M762 1649l141 18q-8 -178 -97.5 -290.5t-236.5 -112.5q-130 0 -217 100t-94 266l143 21q15 -74 64.5 -118t116.5 -44t116.5 45.5t63.5 114.5zM358 0h-348l273 924q35 119 45 178l454 18l60 -49l315 -1071h-366l-46 170h-342zM475 434l-4 -18h207l-4 16q-60 221 -94 397
h-11q-41 -206 -94 -395z" />
    <glyph glyph-name="acaron.sc" horiz-adv-x="1167" 
d="M838 1688l116 -82q-105 -133 -235 -336l-240 -21q-121 202 -235 357l116 82q86 -54 240 -191q145 133 238 191zM358 0h-348l273 924q35 119 45 178l454 18l60 -49l315 -1071h-366l-46 170h-342zM475 434l-4 -18h207l-4 16q-60 221 -94 397h-11q-41 -206 -94 -395z" />
    <glyph glyph-name="acircumflex.sc" horiz-adv-x="1167" 
d="M360 1212l-116 82q105 133 235 336l240 21q121 -202 235 -357l-116 -82q-86 54 -240 191q-145 -133 -238 -191zM358 0h-348l273 924q35 119 45 178l454 18l60 -49l315 -1071h-366l-46 170h-342zM475 434l-4 -18h207l-4 16q-60 221 -94 397h-11q-41 -206 -94 -395z" />
    <glyph glyph-name="adieresis.sc" horiz-adv-x="1167" 
d="M535 1466q0 -86 -61.5 -147.5t-149.5 -61.5q-80 0 -129.5 49.5t-49.5 120.5q0 84 66 146.5t154 62.5q74 0 122 -47t48 -123zM1024 1466q0 -86 -61.5 -147.5t-149.5 -61.5q-80 0 -129 49.5t-49 120.5q0 85 65.5 147t153.5 62q74 0 122 -47t48 -123zM358 0h-348l273 924
q35 119 45 178l454 18l60 -49l315 -1071h-366l-46 170h-342zM475 434l-4 -18h207l-4 16q-60 221 -94 397h-11q-41 -206 -94 -395z" />
    <glyph glyph-name="adotbelow.sc" horiz-adv-x="1167" 
d="M358 0h-348l273 924q35 119 45 178l454 18l60 -49l315 -1071h-366l-46 170h-342zM475 434l-4 -18h207l-4 16q-60 221 -94 397h-11q-41 -206 -94 -395zM801 -326q0 -94 -68.5 -160.5t-165.5 -66.5q-87 0 -141.5 53.5t-54.5 130.5q0 92 72 159t169 67q83 0 136 -50.5
t53 -132.5z" />
    <glyph glyph-name="agrave.sc" horiz-adv-x="1167" 
d="M674 1241q-193 149 -320 348l21 62l327 16q37 -183 115 -405zM358 0h-348l273 924q35 119 45 178l454 18l60 -49l315 -1071h-366l-46 170h-342zM475 434l-4 -18h207l-4 16q-60 221 -94 397h-11q-41 -206 -94 -395z" />
    <glyph glyph-name="amacron.sc" horiz-adv-x="1167" 
d="M281 1348v196h610v-196h-610zM358 0h-348l273 924q35 119 45 178l454 18l60 -49l315 -1071h-366l-46 170h-342zM475 434l-4 -18h207l-4 16q-60 221 -94 397h-11q-41 -206 -94 -395z" />
    <glyph glyph-name="aogonek.sc" horiz-adv-x="1167" 
d="M358 0h-348l273 924q35 119 45 178l454 18l60 -49l315 -1071q-110 -52 -172.5 -118.5t-62.5 -129.5q0 -39 22 -61.5t66 -22.5q49 0 110 27l51 -121q-60 -53 -138.5 -86t-158.5 -33q-106 0 -175.5 60.5t-69.5 158.5q0 93 76.5 179.5t212.5 146.5h-127l-46 170h-342z
M475 434l-4 -18h207l-4 16q-60 221 -94 397h-11q-41 -206 -94 -395z" />
    <glyph glyph-name="aring.sc" horiz-adv-x="1167" 
d="M881 1497q0 -105 -82 -179.5t-199 -74.5q-106 0 -173 60t-67 147q0 103 87 178.5t204 75.5q100 0 165 -57.5t65 -149.5zM506 1462q0 -44 29 -74t75 -30q51 0 88 38t37 89q0 49 -26.5 76.5t-69.5 27.5q-54 0 -93.5 -38t-39.5 -89zM358 0h-348l273 924q35 119 45 178
l454 18l60 -49l315 -1071h-366l-46 170h-342zM475 434l-4 -18h207l-4 16q-60 221 -94 397h-11q-41 -206 -94 -395z" />
    <glyph glyph-name="aringacute.sc" horiz-adv-x="1167" 
d="M831 2249l21 -62q-127 -199 -320 -348l-143 21q78 222 115 405zM881 1497q0 -105 -82 -179.5t-199 -74.5q-106 0 -173 60t-67 147q0 103 87 178.5t204 75.5q100 0 165 -57.5t65 -149.5zM506 1462q0 -44 29 -74t75 -30q51 0 88 38t37 89q0 49 -26.5 76.5t-69.5 27.5
q-54 0 -93.5 -38t-39.5 -89zM358 0h-348l273 924q35 119 45 178l454 18l60 -49l315 -1071h-366l-46 170h-342zM475 434l-4 -18h207l-4 16q-60 221 -94 397h-11q-41 -206 -94 -395z" />
    <glyph glyph-name="atilde.sc" horiz-adv-x="1167" 
d="M430 1642q58 0 118.5 -29t114 -58t95.5 -29q37 0 58 20t48 68l101 -15q0 -91 -21 -167.5t-72 -129.5t-124 -53q-52 0 -118.5 29.5t-126 58.5t-95.5 29q-57 0 -103 -88l-98 14q0 67 11.5 126t36 111t69.5 82.5t106 30.5zM358 0h-348l273 924q35 119 45 178l454 18l60 -49
l315 -1071h-366l-46 170h-342zM475 434l-4 -18h207l-4 16q-60 221 -94 397h-11q-41 -206 -94 -395z" />
    <glyph glyph-name="ae.sc" horiz-adv-x="1482" 
d="M358 0h-348l324 922q34 96 45 184h938l41 -39l-8 -225l-398 14l29 -201l346 9l-10 -238l-305 10l24 -186l410 14v-264h-741q-1 13 -5 76t-6 94h-278q-3 -9 -24.5 -71.5t-33.5 -98.5zM621 829q-30 -127 -123 -413h184q-15 290 -20 413h-41z" />
    <glyph glyph-name="aeacute.sc" horiz-adv-x="1482" 
d="M1061 1651l20 -62q-128 -200 -319 -348l-144 21q78 222 115 405zM358 0h-348l324 922q34 96 45 184h938l41 -39l-8 -225l-398 14l29 -201l346 9l-10 -238l-305 10l24 -186l410 14v-264h-741q-1 13 -5 76t-6 94h-278q-3 -9 -24.5 -71.5t-33.5 -98.5zM621 829
q-30 -127 -123 -413h184q-15 290 -20 413h-41z" />
    <glyph glyph-name="b.sc" horiz-adv-x="1148" 
d="M641 0h-539v807q0 193 -18 299h567q189 0 301.5 -85.5t112.5 -215.5q0 -152 -178 -227q221 -73 221 -273q0 -137 -134 -221t-333 -84zM586 860h-115v-196h117q54 0 82 28.5t28 69.5q0 46 -28.5 72t-83.5 26zM604 438h-133v-192h133q58 0 92.5 26t34.5 66q0 44 -33.5 72
t-93.5 28z" />
    <glyph glyph-name="c.sc" horiz-adv-x="987" 
d="M936 322l41 -281q-140 -57 -338 -57q-286 0 -446 148t-160 409q0 254 172.5 417.5t445.5 163.5q194 0 320 -63l-70 -293q-144 72 -246 72q-113 0 -178 -80.5t-65 -210.5q0 -134 73 -206.5t203 -72.5q125 0 248 54z" />
    <glyph glyph-name="cacute.sc" horiz-adv-x="987" 
d="M786 1651l21 -62q-127 -199 -320 -348l-143 21q78 222 115 405zM936 322l41 -281q-140 -57 -338 -57q-286 0 -446 148t-160 409q0 254 172.5 417.5t445.5 163.5q194 0 320 -63l-70 -293q-144 72 -246 72q-113 0 -178 -80.5t-65 -210.5q0 -134 73 -206.5t203 -72.5
q125 0 248 54z" />
    <glyph glyph-name="ccaron.sc" horiz-adv-x="987" 
d="M827 1688l117 -82q-105 -133 -235 -336l-240 -21q-116 194 -236 357l117 82q86 -54 240 -191q147 135 237 191zM936 322l41 -281q-140 -57 -338 -57q-286 0 -446 148t-160 409q0 254 172.5 417.5t445.5 163.5q194 0 320 -63l-70 -293q-144 72 -246 72q-113 0 -178 -80.5
t-65 -210.5q0 -134 73 -206.5t203 -72.5q125 0 248 54z" />
    <glyph glyph-name="ccedilla.sc" horiz-adv-x="987" 
d="M868 -317q0 -56 -29.5 -99t-76.5 -68.5t-112 -42t-128 -22.5t-133 -6l10 123q101 6 158 34.5t57 75.5q0 74 -155 74l-39 62l53 184q-211 40 -325.5 181.5t-114.5 361.5q0 254 172.5 417.5t445.5 163.5q194 0 320 -63l-70 -293q-144 72 -246 72q-113 0 -178 -80.5
t-65 -210.5q0 -134 73 -206.5t203 -72.5q125 0 248 54l41 -281q-134 -54 -320 -57l-34 -107q245 -30 245 -194z" />
    <glyph glyph-name="ccircumflex.sc" horiz-adv-x="987" 
d="M350 1212l-117 82q110 140 236 336l240 21q121 -202 235 -357l-117 -82q-83 52 -239 191q-145 -133 -238 -191zM936 322l41 -281q-140 -57 -338 -57q-286 0 -446 148t-160 409q0 254 172.5 417.5t445.5 163.5q194 0 320 -63l-70 -293q-144 72 -246 72q-113 0 -178 -80.5
t-65 -210.5q0 -134 73 -206.5t203 -72.5q125 0 248 54z" />
    <glyph glyph-name="cdotaccent.sc" horiz-adv-x="987" 
d="M791 1464q0 -94 -68.5 -160.5t-165.5 -66.5q-87 0 -142 53.5t-55 130.5q0 92 72.5 159t169.5 67q83 0 136 -50.5t53 -132.5zM936 322l41 -281q-140 -57 -338 -57q-286 0 -446 148t-160 409q0 254 172.5 417.5t445.5 163.5q194 0 320 -63l-70 -293q-144 72 -246 72
q-113 0 -178 -80.5t-65 -210.5q0 -134 73 -206.5t203 -72.5q125 0 248 54z" />
    <glyph glyph-name="d.sc" horiz-adv-x="1208" 
d="M1176 565q0 -136 -50 -244.5t-137 -178t-202.5 -106t-249.5 -36.5h-435v807q0 193 -18 299h494q286 0 442 -144.5t156 -396.5zM559 860h-88v-614h98q68 0 114.5 23.5t70.5 67.5t33.5 94t9.5 116q0 63 -11 115t-36.5 98.5t-74 73t-116.5 26.5z" />
    <glyph glyph-name="eth.sc" horiz-adv-x="1208" 
d="M1176 565q0 -136 -50 -244.5t-137 -178t-202.5 -106t-249.5 -36.5h-435v457h-88v184h88v166q0 193 -18 299h494q286 0 442 -144.5t156 -396.5zM686 457h-215v-211h98q68 0 114.5 23.5t70.5 67.5t33.5 94t9.5 116q0 63 -11 115t-36.5 98.5t-74 73t-116.5 26.5h-88v-219
h215v-184z" />
    <glyph glyph-name="dcaron.sc" horiz-adv-x="1208" 
d="M868 1688l117 -82q-105 -133 -235 -336l-240 -21q-116 194 -236 357l117 82q86 -54 240 -191q147 135 237 191zM1176 565q0 -136 -50 -244.5t-137 -178t-202.5 -106t-249.5 -36.5h-435v807q0 193 -18 299h494q286 0 442 -144.5t156 -396.5zM559 860h-88v-614h98
q68 0 114.5 23.5t70.5 67.5t33.5 94t9.5 116q0 63 -11 115t-36.5 98.5t-74 73t-116.5 26.5z" />
    <glyph glyph-name="dcroat.sc" horiz-adv-x="1208" 
d="M1176 565q0 -136 -50 -244.5t-137 -178t-202.5 -106t-249.5 -36.5h-435v457h-88v184h88v166q0 193 -18 299h494q286 0 442 -144.5t156 -396.5zM686 457h-215v-211h98q68 0 114.5 23.5t70.5 67.5t33.5 94t9.5 116q0 63 -11 115t-36.5 98.5t-74 73t-116.5 26.5h-88v-219
h215v-184z" />
    <glyph glyph-name="ddotbelow.sc" horiz-adv-x="1208" 
d="M1176 565q0 -136 -50 -244.5t-137 -178t-202.5 -106t-249.5 -36.5h-435v807q0 193 -18 299h494q286 0 442 -144.5t156 -396.5zM559 860h-88v-614h98q68 0 114.5 23.5t70.5 67.5t33.5 94t9.5 116q0 63 -11 115t-36.5 98.5t-74 73t-116.5 26.5zM831 -326q0 -94 -68 -160.5
t-165 -66.5q-87 0 -142 53.5t-55 130.5q0 92 72.5 159t169.5 67q83 0 135.5 -50.5t52.5 -132.5z" />
    <glyph glyph-name="e.sc" horiz-adv-x="985" 
d="M948 264v-264h-846v807q0 193 -18 299h815l41 -39l-8 -225l-461 18v-205l371 9l-11 -238l-360 12v-192z" />
    <glyph glyph-name="eacute.sc" horiz-adv-x="985" 
d="M733 1651l21 -62q-127 -199 -320 -348l-143 21q78 222 115 405zM948 264v-264h-846v807q0 193 -18 299h815l41 -39l-8 -225l-461 18v-205l371 9l-11 -238l-360 12v-192z" />
    <glyph glyph-name="ebreve.sc" horiz-adv-x="985" 
d="M698 1649l142 18q-8 -178 -97.5 -290.5t-236.5 -112.5q-130 0 -217 100t-94 266l143 21q15 -74 64 -118t116 -44t116.5 45.5t63.5 114.5zM948 264v-264h-846v807q0 193 -18 299h815l41 -39l-8 -225l-461 18v-205l371 9l-11 -238l-360 12v-192z" />
    <glyph glyph-name="ecaron.sc" horiz-adv-x="985" 
d="M774 1688l117 -82q-110 -140 -236 -336l-239 -21q-116 194 -236 357l117 82q86 -54 240 -191q147 135 237 191zM948 264v-264h-846v807q0 193 -18 299h815l41 -39l-8 -225l-461 18v-205l371 9l-11 -238l-360 12v-192z" />
    <glyph glyph-name="ecircumflex.sc" horiz-adv-x="985" 
d="M297 1212l-117 82q110 140 236 336l239 21q116 -194 236 -357l-117 -82q-83 52 -239 191q-145 -133 -238 -191zM948 264v-264h-846v807q0 193 -18 299h815l41 -39l-8 -225l-461 18v-205l371 9l-11 -238l-360 12v-192z" />
    <glyph glyph-name="edieresis.sc" horiz-adv-x="985" 
d="M471 1466q0 -86 -61.5 -147.5t-149.5 -61.5q-80 0 -129 49.5t-49 120.5q0 85 65.5 147t153.5 62q74 0 122 -47t48 -123zM961 1466q0 -86 -61.5 -147.5t-149.5 -61.5q-80 0 -129.5 49.5t-49.5 120.5q0 84 66 146.5t154 62.5q74 0 122 -47t48 -123zM948 264v-264h-846v807
q0 193 -18 299h815l41 -39l-8 -225l-461 18v-205l371 9l-11 -238l-360 12v-192z" />
    <glyph glyph-name="edotaccent.sc" horiz-adv-x="985" 
d="M737 1464q0 -94 -68 -160.5t-165 -66.5q-87 0 -142 53.5t-55 130.5q0 92 72.5 159t169.5 67q83 0 135.5 -50.5t52.5 -132.5zM948 264v-264h-846v807q0 193 -18 299h815l41 -39l-8 -225l-461 18v-205l371 9l-11 -238l-360 12v-192z" />
    <glyph glyph-name="edotbelow.sc" horiz-adv-x="985" 
d="M948 264v-264h-846v807q0 193 -18 299h815l41 -39l-8 -225l-461 18v-205l371 9l-11 -238l-360 12v-192zM754 -326q0 -94 -68.5 -160.5t-165.5 -66.5q-87 0 -141.5 53.5t-54.5 130.5q0 92 72 159t169 67q83 0 136 -50.5t53 -132.5z" />
    <glyph glyph-name="egrave.sc" horiz-adv-x="985" 
d="M610 1241q-191 148 -319 348l20 62l328 16q37 -183 115 -405zM948 264v-264h-846v807q0 193 -18 299h815l41 -39l-8 -225l-461 18v-205l371 9l-11 -238l-360 12v-192z" />
    <glyph glyph-name="emacron.sc" horiz-adv-x="985" 
d="M217 1348v196h610v-196h-610zM948 264v-264h-846v807q0 193 -18 299h815l41 -39l-8 -225l-461 18v-205l371 9l-11 -238l-360 12v-192z" />
    <glyph glyph-name="eogonek.sc" horiz-adv-x="985" 
d="M948 0q-110 -52 -172.5 -118.5t-62.5 -129.5q0 -39 22 -61.5t66 -22.5q49 0 110 27l52 -121q-60 -53 -138.5 -86t-158.5 -33q-106 0 -176 60.5t-70 158.5q0 93 76.5 179.5t212.5 146.5h-607v807q0 193 -18 299h815l41 -39l-8 -225l-461 18v-205l371 9l-11 -238l-360 12
v-192l477 18v-264z" />
    <glyph glyph-name="etilde.sc" horiz-adv-x="985" 
d="M367 1642q46 0 94.5 -18t82.5 -40t75 -40t75 -18q37 0 58.5 20.5t48.5 67.5l100 -15q0 -91 -21 -167.5t-72 -129.5t-124 -53q-52 0 -118.5 29.5t-126 58.5t-95.5 29q-56 0 -102 -88l-99 14q0 67 11.5 126t36 111t70 82.5t106.5 30.5zM948 264v-264h-846v807
q0 193 -18 299h815l41 -39l-8 -225l-461 18v-205l371 9l-11 -238l-360 12v-192z" />
    <glyph glyph-name="schwa.sc" horiz-adv-x="1091" 
d="M35 522l31 31h612q-25 315 -328 315q-137 0 -258 -59l-20 231q60 35 157.5 59.5t216.5 24.5q282 0 447.5 -145.5t165.5 -409.5q0 -261 -160.5 -425t-404.5 -164q-212 0 -336.5 122t-124.5 316q0 69 2 104zM391 360q0 -176 119 -176q75 0 117.5 69t50.5 185l-285 -14
q0 -8 -1 -30t-1 -34z" />
    <glyph glyph-name="f.sc" horiz-adv-x="909" 
d="M471 0h-369v807q0 193 -18 299h774l41 -39l-8 -225l-420 18v-242l330 11l-10 -240l-320 14v-403z" />
    </font>
</defs>
</svg>
