<svg xmlns="http://www.w3.org/2000/svg">
<defs>
<font id="HighVoltage" horiz-adv-x="918" >
  <font-face 
    font-family="HighVoltage"
    font-weight="400"
    font-stretch="normal"
    units-per-em="2048"
    panose-1="2 11 6 4 2 2 2 2 2 4"
    ascent="1638"
    descent="-410"
    x-height="1378"
    cap-height="1600"
    bbox="-760 -1129 2647 2348"
    underline-thickness="150"
    underline-position="-442"
    unicode-range="U+0020-FD3F"
  />
<missing-glyph horiz-adv-x="1725" 
d="M779 1621v-1l3 1h1q1 0 1 -1l2 1h1q1 0 1 -1l2 1h1q2 0 2 -1l2 1h1q1 0 1 -1l2 1h1q1 0 1 -1q1 0 1 1l8 -1h9l5 1v-1l3 1h1q1 0 1 -1l2 1h1q1 0 1 -1l2 1h1q2 0 2 -1l2 1h1q1 0 1 -1l2 1h1q1 0 1 -1l3 1h1q1 0 1 -1l2 1h1q1 0 1 -1l2 1h1q2 0 2 -1l2 1h1q1 0 1 -1l2 1h1
q1 0 1 -1l3 1h1q1 0 1 -1l2 1h1q1 0 1 -1q1 0 1 1q13 -2 33 -2h11q1 0 1 -1l2 1q54 -5 54 -13q15 -5 62 -10q8 -3 20 -12q49 -6 49 -18q22 -5 33 -10q10 -14 30 -14q21 -17 24 -17q12 0 20 -16q17 -4 31 -21q22 -9 22 -19q3 -2 16 -7q5 -20 18 -20q6 -16 19 -21
q10 -30 21 -30q7 -22 12 -26q8 0 14 -32q2 -3 5 -3q12 -11 12 -40q2 -16 12 -29q5 -26 5 -93v-31q0 -5 -1 -13q1 -2 1 -3q0 -76 -13 -85q-7 -77 -12 -77q-7 -4 -12 -25q0 -22 -14 -30q-4 -7 -8 -24q-2 0 -4 -11q-10 0 -10 -58q-1 -7 -1 -24q0 -1 1 -3l-3 -42q5 -9 6 -9
q14 6 41 11q0 9 18 11q8 10 26 27q0 9 14 16q4 19 17 19q2 2 9 15q33 8 33 13q13 6 19 6h37q10 -3 14 -10q0 -2 13 -5q4 -5 9 -17q11 0 16 -46q0 -5 10 -19l9 -41q13 -14 13 -18q2 0 8 -30q2 -3 7 -6q7 -21 7 -39v-13q0 -37 -13 -37q-13 -29 -20 -29q-19 -6 -24 -13
q0 -4 -26 -5v1q-2 -1 -3 -1q-18 0 -32 12q-5 2 -29 4h-26q-36 -3 -36 -10q-9 -5 -53 -13q-7 -15 -27 -15q-11 0 -21 -13l-32 -12q-6 -13 -16 -13q-26 -3 -26 -12q0 -5 -31 -10q-7 -6 -7 -25v-6q0 -2 1 -4q-1 0 -2 -27q13 -26 37 -26q5 -3 10 -12q34 -7 34 -18q4 -3 25 -8
q5 -4 11 -13q19 -5 25 -9h9l14 1v-1q1 0 1 1q23 1 35 1h41q8 0 15 1q5 -1 14 -1h21l8 1v-1q5 2 14 2h1q13 -4 13 -13q20 -3 20 -12q0 -8 12 -12q4 -5 12 -29q9 -3 9 -26q-14 -15 -14 -28q0 -18 -12 -31q-5 -3 -11 -34q-6 -9 -12 -12q-10 -34 -19 -34l-10 -25q-11 0 -13 -14

<glyph glyph-name=".notdef" horiz-adv-x="1725" 
d="M779 1621v-1l3 1h1q1 0 1 -1l2 1h1q1 0 1 -1l2 1h1q2 0 2 -1l2 1h1q1 0 1 -1l2 1h1q1 0 1 -1q1 0 1 1l8 -1h9l5 1v-1l3 1h1q1 0 1 -1l2 1h1q1 0 1 -1l2 1h1q2 0 2 -1l2 1h1q1 0 1 -1l2 1h1q1 0 1 -1l3 1h1q1 0 1 -1l2 1h1q1 0 1 -1l2 1h1q2 0 2 -1l2 1h1q1 0 1 -1l2 1h1
q1 0 1 -1l3 1h1q1 0 1 -1l2 1h1q1 0 1 -1q1 0 1 1q13 -2 33 -2h11q1 0 1 -1l2 1q54 -5 54 -13q15 -5 62 -10q8 -3 20 -12q49 -6 49 -18q22 -5 33 -10q10 -14 30 -14q21 -17 24 -17q12 0 20 -16q17 -4 31 -21q22 -9 22 -19q3 -2 16 -7q5 -20 18 -20q6 -16 19 -21
q10 -30 21 -30q7 -22 12 -26q8 0 14 -32q2 -3 5 -3q12 -11 12 -40q2 -16 12 -29q5 -26 5 -93v-31q0 -5 -1 -13q1 -2 1 -3q0 -76 -13 -85q-7 -77 -12 -77q-7 -4 -12 -25q0 -22 -14 -30q-4 -7 -8 -24q-2 0 -4 -11q-10 0 -10 -58q-1 -7 -1 -24q0 -1 1 -3l-3 -42q5 -9 6 -9
q14 6 41 11q0 9 18 11q8 10 26 27q0 9 14 16q4 19 17 19q2 2 9 15q33 8 33 13q13 6 19 6h37q10 -3 14 -10q0 -2 13 -5q4 -5 9 -17q11 0 16 -46q0 -5 10 -19l9 -41q13 -14 13 -18q2 0 8 -30q2 -3 7 -6q7 -21 7 -39v-13q0 -37 -13 -37q-13 -29 -20 -29q-19 -6 -24 -13
q0 -4 -26 -5v1q-2 -1 -3 -1q-18 0 -32 12q-5 2 -29 4h-26q-36 -3 -36 -10q-9 -5 -53 -13q-7 -15 -27 -15q-11 0 -21 -13l-32 -12q-6 -13 -16 -13q-26 -3 -26 -12q0 -5 -31 -10q-7 -6 -7 -25v-6q0 -2 1 -4q-1 0 -2 -27q13 -26 37 -26q5 -3 10 -12q34 -7 34 -18q4 -3 25 -8
q5 -4 11 -13q19 -5 25 -9h9l14 1v-1q1 0 1 1q23 1 35 1h41q8 0 15 1q5 -1 14 -1h21l8 1v-1q5 2 14 2h1q13 -4 13 -13q20 -3 20 -12q0 -8 12 -12q4 -5 12 -29q9 -3 9 -26q-14 -15 -14 -28q0 -18 -12 -31q-5 -3 -11 -34q-6 -9 -12 -12q-10 -34 -19 -34l-10 -25q-11 0 -13 -14
q-6 -6 -15 -10q0 -11 -19 -20q0 -13 -27 -16q-7 -11 -10 -11q-18 5 -28 11q-33 4 -33 14q-6 7 -22 12q-3 4 -6 11q-12 7 -17 7q-7 17 -12 17q-8 0 -12 16q-17 10 -17 13q0 9 -20 12q-18 17 -29 17q-27 3 -28 11q0 4 -37 11q-7 13 -19 13q-3 2 -23 6q-3 2 -9 10q-24 6 -33 10
q-25 -5 -25 -10q0 -12 -15 -14q-5 -3 -11 -13q-24 -11 -24 -13q-5 -14 -22 -14q-6 -3 -11 -12q-31 -8 -34 -12q0 -9 -30 -13v1q-27 -4 -31 -10q-13 -7 -29 -7h-13q-17 0 -44 1v1l-3 -1q-23 5 -31 11q-13 4 -48 8q-5 5 -8 11q-36 9 -36 19q-20 5 -35 21l-17 7q-6 5 -7 11
q-6 4 -14 5q-5 5 -10 14q-7 4 -20 6q-24 -6 -24 -13q-6 -4 -21 -7q0 -1 -1 -1h-10q-14 -4 -16 -12q-4 -5 -45 -10q-8 -14 -19 -14q-33 -6 -33 -11q-4 -3 -4 -6q-1 0 -22 -7q-5 -4 -6 -7q-12 -6 -29 -20q0 -4 -14 -14q-8 -14 -20 -21q-8 -14 -29 -14q-11 -6 -12 -9
q-3 0 -17 -4v1q-1 0 -1 -1q-27 2 -27 8q0 4 -25 8q-4 4 -7 14q-13 0 -16 26q0 10 -9 15q-5 10 -13 42q-6 0 -18 36q-13 5 -13 15q-5 8 -16 14q0 3 -7 16q0 5 -13 18q-2 26 -2 48q0 10 8 23q5 0 11 20q0 3 33 12q8 12 19 12q15 0 39 1q24 0 41 -13q39 -6 52 -6q48 4 48 10
q4 7 26 11v-1q24 4 24 13q7 7 21 9q9 12 13 12q16 10 16 14q9 5 12 19q2 18 2 20q0 1 -1 1l1 5v9q0 7 1 18q-8 23 -10 23q-4 0 -4 1l-2 -1q-22 3 -33 9q-7 10 -11 10l-20 6q-5 0 -12 10q-8 4 -28 11q-6 13 -24 13q0 2 -14 6q-4 10 -8 10q-5 2 -36 9q-15 11 -22 11
q-7 2 -15 2h-8q-17 0 -25 -11q-2 0 -5 -3h-4q-27 -2 -30 -2h-14q-17 0 -24 12q-7 3 -23 7q-15 5 -15 13q-17 9 -17 11q-5 24 -17 31q-3 7 -3 12v21q0 16 12 26q11 48 20 48q2 6 10 35q3 3 10 5q8 33 18 33q3 3 9 19q15 1 15 15q6 8 16 8q6 11 9 14l28 5q53 -2 53 -11
q0 -7 14 -11l9 -16q11 0 15 -18q4 -4 15 -6q3 -18 17 -18q13 -2 28 -15q9 -2 21 -9q9 6 13 12q-5 17 -5 38v17q-3 16 -3 21q1 15 1 21q-5 25 -11 25q-4 0 -14 43q-13 11 -13 26q-4 25 -15 32q-4 10 -11 53q-14 4 -17 90q1 10 1 22l-1 2l1 2q0 5 -1 25q4 95 11 95q9 8 15 48
q16 11 16 27q5 18 13 18q2 2 9 21q19 17 20 31q17 10 17 21q3 3 13 8q7 16 16 17q4 0 8 12q3 4 18 10q0 11 19 17q6 5 6 7l28 18q1 7 14 11q19 5 19 11q11 8 30 12q20 15 42 18q4 0 23 9q24 9 38 9h9q2 2 14 4q17 11 46 11q0 1 15 3h2q1 0 1 -1l3 1l6 -1q2 1 5 1v-1z
M842 1520h-14q-3 0 -5 -1q-1 0 -1 1q-13 -1 -18 -1h-18q-6 0 -17 -2v1l-2 -1h-13l-8 -1v1l-2 -1h-1q-1 0 -1 1q-11 -3 -40 -6q0 1 -1 1q-18 -15 -44 -15q-22 -5 -22 -11q-13 -6 -41 -13q-13 -16 -27 -16q-7 -4 -13 -12q-27 -11 -27 -18q-4 -5 -19 -9q-5 -6 -5 -10
q-15 -8 -16 -10q-3 -1 -8 -12q-10 0 -17 -19q-10 -4 -14 -12q0 -12 -15 -16q-12 -33 -18 -33q-3 -8 -10 -34q-12 -8 -12 -23q-11 -80 -11 -89q0 -1 -1 -1l1 -3v-19q0 -34 15 -107q10 -19 17 -60q8 -6 13 -23q4 -17 8 -22q6 12 6 29q0 36 -15 68q-8 53 -17 70q-2 20 -2 26v33
q0 1 1 1q0 1 -1 1q2 12 2 37q7 10 11 25q3 1 14 3q12 0 14 -17q3 -41 11 -41q8 -19 14 -51q13 -2 19 -83q1 0 6 -11q1 -25 1 -40v-1q0 -6 -7 -23q-5 -91 -16 -91q-4 0 -13 -49q-13 -12 -13 -33q-2 -10 -2 -13l2 -37h-1q3 -28 10 -28q2 -2 7 -17q18 -12 18 -17q7 -4 20 -8
q5 -12 12 -12q40 -5 40 -16q3 -2 28 -8l12 -6q0 -6 23 -12l7 -13q12 0 19 -26q15 -8 15 -42q0 -13 16 -16q6 -13 8 -13l40 -11q0 -12 70 -12q0 -1 4 -1l2 1l6 -1l5 1v-1q1 0 1 1q13 -1 19 -1h20q2 0 4 1q2 -1 5 -1q1 0 3 1l5 -1q1 0 5 1l2 -1q9 2 21 2h14q27 3 28 9
q16 6 56 11l29 24q10 4 13 46q3 5 13 14q9 27 23 27q35 5 36 12q0 5 39 10q9 4 17 12q19 7 28 12q2 5 15 12q2 2 14 5q3 13 19 30q4 7 4 13v4q0 15 3 51q-3 37 -13 42q-8 0 -13 37q-15 10 -15 44q-5 32 -12 63v13q0 5 1 12q-2 4 -4 17q1 13 3 13l-2 2q3 4 3 7v9q0 10 6 29
q9 97 17 97q7 8 8 69q5 28 19 28q27 0 27 -25q4 -71 4 -82q0 -114 -15 -165q-6 0 -10 -40v-1q2 -17 5 -22h3q4 6 10 37q9 0 16 34q6 29 12 29q9 76 18 76q4 23 4 43q0 1 1 1q0 1 -1 1q0 1 1 7q0 71 -9 71q-4 0 -13 53q-2 4 -8 6q-2 4 -13 37q-12 4 -12 16q-2 0 -6 17
q-10 0 -16 15q0 6 -13 11q-9 16 -10 17q-14 2 -14 13q-6 6 -16 7q-7 17 -14 17q-4 0 -26 17q-6 4 -19 7q-7 12 -13 12q-31 9 -31 17q-15 5 -37 9l-11 10q-7 4 -48 9q-8 3 -20 11q-4 0 -4 1q-1 0 -1 -1q-11 3 -47 5v1q-1 0 -1 -1q-22 4 -33 4h-18q-1 0 -1 1l-2 -1h-1
q-1 0 -1 1l-2 -1h-2q-1 0 -1 1l-2 -1h-1q-1 0 -1 1l-2 -1h-1q-1 0 -1 1l-3 -1h-1q-1 0 -1 1zM1029 1028h18q38 -3 42 -9q4 0 9 -9q23 -5 23 -18l15 -7q3 -18 14 -18q5 0 9 -31q0 -5 9 -27q4 -16 4 -39q0 -1 -2 -1l2 -3q-3 -12 -11 -35q-5 -53 -18 -53q-10 -27 -18 -27
q-5 0 -15 -15q-23 -10 -42 -10q0 -1 -2 -1q-16 4 -53 5q-21 0 -30 14q-25 10 -25 11q-6 11 -8 11q-12 0 -15 19l-12 7q-3 6 -10 35q-8 0 -12 27l-1 38q0 36 14 47q8 33 17 33q2 1 10 20q18 17 32 19q6 14 15 14q0 1 1 1h1q36 2 39 2zM705 1023q7 -6 7 -8q4 -5 25 -10
q0 -3 8 -5q18 -25 23 -29q6 -4 11 -34q7 0 11 -31h-1l1 -2v-12q0 -63 -11 -63q-8 -33 -11 -41q-8 -3 -11 -10q0 -5 -9 -18q-8 -5 -18 -17q0 -9 -30 -17q0 -6 -9 -12l-34 -5v1l-2 -1h-5q-1 0 -1 1l-3 -1h-5q-1 0 -1 1l-2 -1h-6q-1 0 -1 1l-2 -1h-23q-1 0 -1 1l-3 -1
q-31 5 -31 18q-15 0 -21 20q-13 0 -17 35q-12 12 -12 22q-2 7 -3 71q1 14 2 14q0 2 -1 2q0 17 12 30q6 34 15 34q7 6 7 9q11 18 15 20q3 0 28 20q8 3 37 7q3 5 10 8q6 0 31 2v-1l2 1h6q1 0 1 -1l2 1h3q6 0 17 2zM853 789h3q35 -30 35 -45q0 -1 14 -8q4 -21 13 -26
q5 0 12 -34q2 -8 10 -12q4 -7 11 -38q12 -6 12 -35q0 -16 -20 -36q-7 -14 -24 -14h-8q-10 0 -22 13q-13 5 -26 28q0 11 -8 19q-12 -7 -22 -28q0 -15 -12 -19q-3 0 -11 -11q-4 -4 -16 -4h-8q-1 0 -1 1l-2 -1q-18 2 -18 14q-16 12 -16 15q-1 11 -1 17v16q0 5 1 11q-1 4 -1 9v7
q0 12 14 29q6 47 15 47q3 1 12 35q11 0 15 16q5 9 19 21q22 5 30 13zM1507 775q-9 -9 -16 -20q-7 0 -15 -25q-10 0 -12 -16q-5 -13 -21 -23q-6 -16 -17 -16q-6 -3 -20 -6q-4 -3 -7 -8q-3 0 -15 -4q-38 -7 -38 -15q-3 -4 -43 -11q-11 -15 -24 -15q-6 0 -10 -15l-15 -10
q0 -24 -18 -33q0 -5 -2 -5q2 -6 5 -10q31 8 31 12q0 10 44 15q12 15 29 15q15 0 27 14q4 0 11 5q31 4 31 9q0 10 39 13q5 3 5 6q0 8 28 11h2q17 -1 17 -14q3 -3 28 -7q10 -5 10 -13q4 -1 4 -2q3 0 12 9q8 0 13 13q0 6 -17 20q0 4 -17 9q-5 0 -8 28q2 11 6 57q0 27 -11 31
q-7 0 -16 1zM203 755q0 -2 -17 -14q-8 -19 -21 -28q-5 -23 -17 -33q-5 -9 -5 -15v-16q0 -2 5 -5q14 2 23 2q13 12 20 12q11 2 32 4q34 -5 41 -14l30 -8q6 -5 6 -12h4q44 -5 44 -16q6 -7 30 -10q11 -8 11 -11q30 -8 36 -20q5 -5 12 -5l5 5q-6 24 -13 24q-4 4 -12 24
q-7 0 -13 12q-6 4 -30 6l-12 14q-36 5 -36 17q-7 4 -18 5q-19 6 -19 14q-24 9 -24 16q0 4 -12 7q-5 0 -10 16q-12 0 -16 21q-11 3 -20 8h-4zM549 553q-3 -18 -4 -18q0 -5 11 -18q6 -47 9 -100q-1 -4 -1 -9l1 -2l-1 -2q2 -25 2 -33q0 -3 -1 -17q0 -34 13 -34q7 -20 10 -20
q13 0 16 -17q3 -3 12 -4q3 -4 7 -16q20 -4 20 -17q14 0 29 -19q27 -10 27 -20q18 -3 28 -17q0 -4 29 -10q7 -16 29 -16q11 -2 25 -14q10 -2 10 -3l2 1h2q2 0 2 -1l2 1h1q1 0 1 -1q1 0 1 1q3 0 21 -3h4l35 3v-1l3 1h1q1 0 1 -1q4 2 9 2h6q3 1 11 10q9 3 22 5v-1q16 0 31 17
q19 7 20 10q0 7 18 13q9 12 27 25q0 4 7 9q13 19 25 25q5 14 11 14q5 0 11 17q1 2 14 9q5 15 8 17q11 0 13 27v1q0 6 -1 12q0 1 1 14q0 4 -1 31q2 24 5 102v7q0 9 10 22l-1 2q2 13 2 15l-2 1v-11h-8q-1 0 -1 1q-19 -2 -19 -17q-12 -18 -12 -56l-1 -16q1 -1 1 -4l-1 -5
q0 -1 1 -5q0 -23 -10 -49q-12 -5 -12 -23q-7 -18 -14 -18q-2 -2 -10 -19q-16 -5 -16 -13q-4 -3 -15 -7q-19 -22 -36 -22q-2 -1 -12 -13q-21 -6 -36 -9q0 -13 -67 -17v1l-2 -1q-13 0 -32 -2q-12 2 -28 2q-1 0 -1 1l-2 -1h-10q-1 0 -1 1q-1 0 -1 -1q-32 3 -54 9q-5 3 -5 6
q-6 5 -29 8q-11 5 -14 12q-24 8 -25 15q0 7 -16 11q-6 5 -9 14q-11 0 -18 18q-17 6 -17 19q-15 9 -15 21q-3 0 -6 115l-15 38q-4 5 -18 7zM1066 461l-3 -4v-4q3 -6 4 -6q0 3 3 11zM1028 453q-7 -13 -7 -15q3 -23 8 -23q4 0 7 23q-6 15 -8 15zM979 418q0 -22 10 -22
q0 -1 1 -1q6 3 6 26v16l-6 6q-11 0 -11 -25zM719 440l-4 -20v-20q0 -2 6 -7h1q2 0 7 7v1q0 6 1 16l-6 23h-5zM932 430q-9 -9 -9 -14v-6q0 -2 1 -4q-1 -2 -1 -4q6 -18 10 -18q8 12 8 19v11q0 11 -9 16zM874 427l-7 -8v-39q3 -7 8 -10h1q2 0 10 11q-3 10 -3 25v4l1 7
q-3 6 -10 10zM817 426l-6 -7q0 -5 1 -25l-1 -13q8 -7 10 -7q0 2 17 5v6l-7 12v6q2 10 2 12v3q0 4 -16 8zM760 424l-4 -5q1 -25 6 -25h6q7 0 11 -4q4 14 4 29l-5 4h-5zM1028 375q-4 -6 -7 -14l8 -7q6 5 6 6q0 11 -7 15zM661 362v-1q0 -2 3 -3q3 0 12 3v1q-4 0 -10 6
q-3 -1 -5 -6zM982 342l6 -20h3q6 14 6 20q-2 23 -7 23q-6 0 -8 -23zM721 358q-8 -8 -11 -17q2 -23 11 -23q0 -1 1 -1q8 6 8 25q-5 15 -9 16zM925 337v-14q0 -25 7 -25q12 0 12 33v9l1 2l-12 7h-1q-7 -3 -7 -12zM758 345q-1 -6 -1 -7q1 -27 1 -34q5 -2 15 -2h3q1 0 1 -1
q6 1 6 3q-1 26 -1 38l-4 3h-20zM818 334q-6 -7 -7 -14q0 -22 9 -25l2 1h2q2 0 2 -1l2 1h1q1 0 1 -1l2 1h1l2 -1q7 7 7 8v21q-2 7 -16 7q-4 0 -8 3zM875 334q-7 -9 -7 -14q0 -20 7 -26q21 6 21 9q1 2 1 4v11q0 13 -22 16zM606 325h3v-2q0 -3 -2 -3l-1 3v2zM1175 246
q6 -10 17 -12q0 -9 29 -16q3 -1 13 -13q29 -5 29 -14q5 -6 26 -10q18 -15 24 -15l12 -7l6 -10q19 -4 24 -11q2 0 8 -9q23 -8 23 -17q4 -4 15 -9q3 -17 14 -17q7 0 11 -15q4 -3 13 -4l8 -5h1q11 8 11 27l10 15q7 41 15 41q6 0 12 19q7 6 12 6v3l3 17q-3 4 -23 6
q-37 -5 -37 -14q-4 0 -10 -4h-34q-15 0 -25 13q-34 8 -39 18q-1 0 -32 9q-5 4 -8 10q-10 5 -25 8q-10 3 -12 10q0 1 -9 5l-2 -1q-30 6 -30 15q-22 10 -23 11h-3q-23 -23 -24 -30zM377 230v1q-10 0 -26 -15q-33 -5 -33 -11q0 -7 -20 -10v1q-1 -1 -19 -2q-20 1 -25 1
q-11 7 -11 13q-27 9 -38 16q-9 -11 -20 -13l-1 -3q0 -2 10 -8q5 -9 10 -31q14 -5 14 -16q1 -7 13 -15q3 -2 12 -26q11 -4 16 -11q0 -11 14 -11q5 0 9 -2q4 3 11 18q11 0 15 20q14 9 18 18q1 0 17 17q21 9 21 11q0 7 18 10q27 4 27 13q10 7 42 12q8 11 9 11q6 4 34 8q3 1 3 4
q2 3 18 9l5 8q-7 8 -17 12q-5 12 -11 15q-36 -5 -36 -14q-9 -7 -41 -12q-7 -14 -25 -14q0 -1 -13 -4zM1353 171h3v-2h-3v2zM675 449q-7 -13 -7 -15q3 -23 8 -23q4 0 8 23q-7 15 -9 15z" />
    <glyph glyph-name=".null" horiz-adv-x="0" 
 />
    <glyph glyph-name="nonmarkingreturn" horiz-adv-x="600" 
 />
    <glyph glyph-name="space" unicode=" " horiz-adv-x="401" 
 />
    <glyph glyph-name="space" unicode="&#xa0;" horiz-adv-x="401" 
 />
    <glyph glyph-name="exclam" unicode="!" horiz-adv-x="463" 
d="M157 1600h159q34 0 53 -42q3 -13 3 -24v-644q0 -19 -39 -473q-1 -13 -21 -34q-17 -14 -47 -14h-62q-48 0 -64 46q-2 0 -39 470v650q0 44 40 62q10 3 17 3zM157 272q16 -1 25 -1h132q31 0 50 -33q8 -11 8 -43v-125q0 -49 -41 -66l-16 -4q-17 1 -25 1h-132q-35 0 -53 38
q-5 11 -5 32v135q0 48 47 64q10 1 10 2z" />
    <glyph glyph-name="quotedbl" unicode="&#x22;" horiz-adv-x="801" 
d="M187 1893h139q45 0 63 -42q3 -10 3 -21q0 -16 -25 -72q-126 -317 -133 -330q-19 -28 -62 -28h-59q-48 0 -64 45q-2 8 -2 14v6q0 6 76 385q17 43 64 43zM576 1893h139q45 0 63 -42q3 -10 3 -21q0 -14 -20 -60l-135 -337q-17 -33 -65 -33h-59q-48 0 -64 45q-2 8 -2 14v4
q0 11 73 372q0 17 19 41q19 17 48 17z" />
    <glyph glyph-name="numbersign" unicode="#" horiz-adv-x="1199" 
d="M303 1600h158q35 0 53 -38q4 -10 4 -18v-387h174v362q0 10 -1 24q0 23 24 45q17 12 32 12h157q37 0 55 -43q3 -10 3 -26v-374h89q40 0 57 -46q1 -5 1 -9v-160q0 -24 -28 -46q-15 -9 -35 -9h-84v-173h84q46 0 62 -46q1 -5 1 -9v-160q0 -30 -34 -49q-13 -6 -24 -6h-89v-380
q0 -46 -47 -62q-8 -2 -22 -2h-125q-49 0 -64 25q-12 15 -12 32v387h-174v-362q0 -10 1 -24q0 -24 -26 -47q-18 -11 -41 -11h-129q-50 0 -65 29q-10 12 -10 41v374h-89q-35 0 -54 38q-5 11 -5 28v138q0 46 42 63q11 3 23 3h83v173h-83q-47 0 -63 46q-2 10 -2 20v138
q0 55 56 66h92v380q0 46 47 62q4 1 8 1zM518 887v-173h174v173h-174z" />
    <glyph glyph-name="dollar" unicode="$" horiz-adv-x="917" 
d="M379 1746h156q38 0 56 -45q2 -16 2 -32v-97q126 -52 188 -178q33 -76 33 -137v-168q0 -38 -46 -55q-10 -2 -20 -2h-138q-52 0 -66 51q-1 10 -1 16v147q0 47 -49 74q-16 7 -31 7h-11q-36 0 -64 -35q-16 -22 -16 -46v-84q0 -89 121 -181q89 -70 146 -117q175 -155 175 -347
v-177q0 -87 -59 -183q-63 -92 -162 -132v-108q0 -47 -43 -64q-14 -2 -14 -3q-16 1 -24 1h-132q-37 0 -55 43q-3 12 -3 32v99q-124 51 -189 179q-33 70 -33 171v123q0 52 51 66q10 1 16 1h138q52 0 66 -51q1 -10 1 -16v-147q0 -47 49 -74q16 -7 31 -7h11q36 0 64 35
q16 22 16 46v163q0 102 -142 203l-114 87q-68 58 -98 100q-51 68 -66 123q-23 56 -23 171v18q0 110 33 176q16 35 51 79q55 60 93 79q32 18 45 22v108q0 45 40 63q9 3 17 3z" />
    <glyph glyph-name="percent" unicode="%" horiz-adv-x="1840" 
d="M391 1600h32q88 0 185 -61q25 -14 76 -69q80 -105 80 -226q0 -137 -98 -246q-112 -111 -259 -111q-125 0 -228 82q-129 115 -129 275q0 145 110 258q70 62 133 79q54 19 98 19zM1023 1600h166q28 0 49 -34q6 -13 6 -28q0 -10 -56 -242l-278 -1166q-19 -95 -31 -107
q-22 -22 -47 -22h-154q-42 0 -59 41q-4 10 -4 21q0 12 92 393l255 1075q8 41 25 54q18 15 36 15zM322 1250v-10q0 -47 50 -75q14 -6 32 -8l2 1h2q1 0 1 -1q41 0 70 40q14 20 14 43v10q0 41 -47 72q-21 7 -36 7h-6q-51 0 -77 -55q-5 -15 -5 -24zM1439 715l6 -1h6
q104 0 206 -72q53 -45 78 -82q62 -95 62 -204q0 -140 -105 -251q-110 -104 -253 -104q-140 0 -250 102q-106 111 -106 252v7q0 153 125 268q40 32 83 53q76 31 138 31h6q3 0 4 1zM1354 361v-4q0 -53 55 -80q19 -5 31 -5q52 0 78 51q8 17 8 36q0 52 -54 79q-15 6 -30 6h-5
q-52 0 -78 -56q-5 -18 -5 -27z" />
    <glyph glyph-name="ampersand" unicode="&#x26;" horiz-adv-x="1239" 
d="M516 1600h31q85 0 181 -58q99 -66 143 -188q18 -51 18 -138v-16q0 -123 -34 -191q-49 -110 -182 -203q26 -37 31 -41q20 24 54 24h212q47 0 64 -45q3 -11 3 -31v-120q0 -54 -34 -68q-11 -8 -33 -8h-7v-101q0 -4 28 -42q204 -276 211 -287q4 -12 4 -20v-10q0 -38 -46 -55
q-10 -2 -20 -2h-170q-48 0 -68 40l-48 62q-47 -44 -80 -59q-33 -18 -74 -30q-44 -13 -120 -13h-97q-118 0 -185 38q-130 66 -179 206q-19 50 -19 139v97q0 126 39 199q18 44 85 120q45 42 72 62q-49 63 -70 100q-24 44 -39 98q-13 50 -13 143v19q0 106 33 173q20 41 55 84
q53 55 84 71q90 51 170 51zM446 1248v-85q0 -57 52 -119q19 -26 20 -28q99 74 99 149v82q0 51 -55 77q-14 5 -28 5h-7q-44 0 -72 -46q-9 -18 -9 -35zM372 510v-157q0 -50 55 -76q14 -5 27 -5h154q53 0 79 58q-223 305 -237 322q-78 -65 -78 -142z" />
    <glyph glyph-name="quotesingle" unicode="'" horiz-adv-x="500" 
d="M207 1893h139q45 0 63 -42q3 -10 3 -21q0 -16 -25 -72q-126 -317 -133 -330q-19 -28 -62 -28h-59q-48 0 -64 45q-2 8 -2 14v6q0 6 76 385q17 43 64 43z" />
    <glyph glyph-name="parenleft" unicode="(" horiz-adv-x="579" 
d="M354 1824h85q38 0 55 -46q1 -6 1 -9v-11q0 -9 -30 -105q-117 -437 -117 -836v-36q0 -447 146 -927q1 -1 1 -8v-8q0 -39 -46 -56q-13 -2 -26 -2h-58q-52 0 -69 55q-216 484 -216 968q0 498 229 995q22 26 45 26z" />
    <glyph glyph-name="parenright" unicode=")" horiz-adv-x="599" 
d="M256 1798q229 -497 229 -995q0 -484 -216 -968q-17 -55 -69 -55h-58q-13 0 -26 2q-46 17 -46 56v8q0 7 1 8q146 480 146 927v36q0 399 -117 836q-30 96 -30 105v11q0 3 1 9q17 46 55 46h85q23 0 45 -26z" />
    <glyph glyph-name="asterisk" unicode="*" horiz-adv-x="973" 
d="M553 1600q30 0 49 -34q6 -11 6 -24v-161q157 52 166 52h4q38 0 56 -39q51 -148 51 -159v-10q0 -32 -40 -53q-3 0 -152 -49v-1q93 -127 99 -140q5 -12 5 -26q0 -36 -51 -65q-103 -78 -112 -78q-8 -3 -17 -3h-3q-34 0 -57 37q-81 111 -85 115h-1q-89 -126 -99 -135
q-18 -17 -43 -17q-24 0 -54 25q-95 69 -111 81q-15 20 -15 39v6q0 24 35 66l69 96q-157 50 -164 55q-29 21 -29 51q0 15 21 75q30 98 37 104q20 25 50 25q14 0 135 -42q3 0 34 -10v150q0 58 54 69h162z" />
    <glyph glyph-name="plus" unicode="+" horiz-adv-x="1076" 
d="M462 1232h138q52 0 66 -51q1 -11 1 -16v-230h237q37 0 56 -43q3 -12 3 -33v-127q0 -48 -44 -64l-14 -3q-16 1 -24 1h-214v-230q0 -52 -51 -66q-10 -1 -16 -1h-138q-52 0 -66 51q-1 10 -1 16v230h-237q-35 0 -54 40q-4 11 -4 34v129q0 48 43 64l14 3q16 -1 25 -1h213v230
q0 52 52 66q10 1 15 1z" />
    <glyph glyph-name="comma" unicode="," horiz-adv-x="444" 
d="M147 208h139q45 0 63 -42q3 -10 3 -21q0 -16 -25 -72q-126 -317 -133 -330q-19 -28 -62 -28h-59q-48 0 -64 45q-2 8 -2 14v6q0 6 76 385q17 43 64 43z" />
    <glyph glyph-name="hyphen" unicode="-" horiz-adv-x="748" 
d="M157 936q16 -1 25 -1h401q31 0 50 -32q8 -11 8 -43v-125q0 -50 -40 -66l-17 -4q-16 1 -25 1h-401q-36 0 -55 42q-3 14 -3 29v133q0 49 47 64q10 1 10 2z" />
    <glyph glyph-name="hyphen" unicode="&#xad;" horiz-adv-x="748" 
d="M157 936q16 -1 25 -1h401q31 0 50 -32q8 -11 8 -43v-125q0 -50 -40 -66l-17 -4q-16 1 -25 1h-401q-36 0 -55 42q-3 14 -3 29v133q0 49 47 64q10 1 10 2z" />
    <glyph glyph-name="period" unicode="." horiz-adv-x="420" 
d="M284 272q23 0 47 -27q11 -18 11 -40v-127q0 -50 -25 -64q-15 -13 -33 -13h-132q-10 0 -24 -1q-25 0 -47 28q-11 15 -11 38v130q0 52 31 66q11 9 27 9h132q10 0 24 1z" />
    <glyph glyph-name="slash" unicode="/" horiz-adv-x="801" 
d="M278 1596h225q44 0 60 -43q3 -8 3 -17v-1q0 -14 -37 -153l-129 -522h251q48 0 65 -40q3 -9 3 -15v-13q0 -12 -37 -98q-260 -654 -267 -666q-17 -28 -61 -28h-66q-45 0 -63 42q-3 10 -3 21q1 13 104 526h-185q-51 0 -67 36q-6 15 -6 27q148 895 151 905q20 39 59 39z" />
    <glyph glyph-name="zero" unicode="0" horiz-adv-x="917" 
d="M442 1600h31q80 0 172 -52q107 -68 150 -189q19 -57 19 -100v-917q0 -87 -60 -184q-19 -28 -59 -67q-107 -91 -238 -91q-139 0 -249 101q-51 54 -66 90q-19 33 -30 79q-8 21 -12 81v897q0 94 57 190q66 102 193 146q54 16 92 16zM371 1205v-809q0 -67 6 -67q9 -28 38 -47
q22 -10 39 -10h7q49 0 77 54q5 16 5 27v895q0 49 -54 76q-16 5 -28 5h-7q-48 0 -74 -49q-9 -8 -9 -75z" />
    <glyph glyph-name="one" unicode="1" horiz-adv-x="725" 
d="M314 1598h139q48 0 64 -45q2 -8 2 -14v-1268h81q55 0 66 -56v-156q0 -35 -38 -54q-11 -5 -28 -5h-433q-49 0 -64 46q-2 8 -2 14v151q0 39 43 57q10 3 26 3h78v919q-46 -11 -89 -11q-35 0 -56 43q-3 13 -3 24v138q0 52 51 66q39 0 60 15q37 26 37 83q15 50 66 50z" />
    <glyph glyph-name="two" unicode="2" horiz-adv-x="871" 
d="M422 1600h31q81 0 172 -52q107 -68 150 -189q19 -57 19 -100v-179q0 -114 -69 -232q-24 -45 -107 -133q-31 -29 -152 -142q-71 -74 -87 -108q-28 -46 -28 -132v-60q0 -2 2 -2h360q10 0 24 1q25 0 47 -28q10 -14 10 -29v-157q0 -37 -43 -55q-8 -2 -14 -2h-199
q-150 0 -399 -1q-34 0 -54 38q-5 12 -5 27q0 64 1 273q-1 21 -1 24q0 225 222 427l121 116q100 102 100 186v157q0 47 -49 73q-16 8 -31 8h-11q-36 0 -64 -35q-16 -22 -16 -46v-147q0 -52 -51 -66q-10 -1 -16 -1h-138q-52 0 -66 51q-1 10 -1 16v117q0 118 38 185
q16 36 55 80q46 47 78 66q92 51 171 51z" />
    <glyph glyph-name="three" unicode="3" horiz-adv-x="874" 
d="M413 1597h27q95 0 194 -66q148 -114 148 -294v-204q0 -140 -77 -238q77 -94 77 -236v-198q0 -167 -130 -280q-105 -81 -225 -81q-158 0 -273 127q-84 104 -84 228v152q0 38 43 56q10 3 21 3h142q46 0 62 -45q2 -9 2 -15v-152q0 -43 43 -72q21 -11 40 -11h7q49 0 76 54
q6 16 6 37v178q0 63 -11 75q-23 46 -88 46q-26 8 -41 30q-8 16 -8 32v146q0 45 49 62q76 0 95 63q4 9 4 58v184q0 62 -56 86q-13 5 -26 5h-7q-52 0 -78 -56q-5 -17 -5 -27v-152q0 -39 -43 -57q-10 -3 -26 -3h-132q-52 0 -67 45q-2 8 -2 14v152q0 161 134 277q105 77 209 77z
" />
    <glyph glyph-name="four" unicode="4" horiz-adv-x="963" 
d="M479 1598h278q49 0 66 -39q4 -12 4 -24v-966h2q50 0 66 -36q6 -11 6 -30v-142q0 -45 -47 -61l-15 -2q-7 1 -12 1v-236q0 -42 -41 -59q-9 -4 -25 -4h-138q-48 0 -64 45q-2 8 -2 14v238q0 2 -2 2h-448q-50 0 -65 44q-2 9 -2 16q6 36 49 162q2 8 320 1022q8 31 25 43
q18 12 45 12zM566 1132q0 -1 -176 -563h177v563h-1z" />
    <glyph glyph-name="five" unicode="5" horiz-adv-x="902" 
d="M161 1595q235 -1 387 -1h208q33 0 54 -39q3 -14 3 -27v-141q0 -45 -46 -61q-10 -2 -17 -2h-379v-179q47 11 86 11q154 0 267 -121q89 -101 89 -247v-420q0 -205 -172 -317q-90 -51 -183 -51q-159 0 -274 128q-56 65 -78 166q-4 28 -6 62l1 10v143q0 32 37 52q13 5 27 5
h140q49 0 65 -48q1 -10 1 -15v-148q0 -51 53 -78q16 -6 30 -6h6q52 0 78 57q3 9 5 26q0 2 -1 2l1 12v421q0 4 -1 9q1 2 1 3q0 48 -52 78q-18 5 -30 5h-7q-50 0 -77 -53q-7 -18 -7 -48q-7 -25 -28 -40q-16 -9 -45 -9h-132q-49 0 -63 50q-1 1 -1 7v747q0 30 35 51q12 5 25 6z
" />
    <glyph glyph-name="six" unicode="6" horiz-adv-x="900" 
d="M441 1597h29q102 0 204 -73q139 -115 139 -286q0 -33 -39 -55q-14 -4 -27 -4h-138q-49 0 -64 46q-1 6 -4 35q-8 31 -30 48q-23 19 -50 19h-7q-50 0 -77 -53q-6 -18 -6 -28v-175q47 11 86 11q135 0 243 -96q56 -58 64 -82q49 -77 49 -194v-338q0 -150 -85 -245
q-20 -26 -53 -52q-101 -75 -218 -75q-140 0 -251 103q-49 54 -70 97q-36 81 -36 154q1 13 1 19v332q0 14 -1 19q1 11 1 23v478q0 7 -1 18q0 110 72 212q72 94 184 128q51 14 85 14zM371 730v-378q0 -41 43 -70q21 -11 40 -11h6q49 0 76 52q6 16 6 30v367q0 4 1 9
q0 31 -29 61q-29 22 -54 22l-2 -1h-2q-1 0 -1 1q-38 0 -67 -36q-17 -24 -17 -46z" />
    <glyph glyph-name="seven" unicode="7" horiz-adv-x="778" 
d="M705 1598q26 0 48 -27q10 -16 10 -37v-141q0 -27 -21 -56q-142 -221 -187 -294q-45 -78 -74 -150q-24 -66 -43 -151q-44 -205 -44 -681q0 -42 -47 -59q-12 -2 -33 -2h-115q-52 0 -66 31q-9 13 -9 32q0 555 62 767q23 87 54 156q41 92 145 252q9 13 58 89h-327
q-50 0 -64 49q-2 9 -2 24v121q0 53 32 68q12 8 27 8h577q8 0 19 1z" />
    <glyph glyph-name="eight" unicode="8" horiz-adv-x="900" 
d="M441 1597h31q84 0 178 -56q33 -20 72 -62q57 -65 77 -138q14 -44 14 -122v-103q0 -113 -38 -181q0 -7 -38 -62q46 -62 61 -119q15 -43 15 -125v-250q0 -125 -48 -199q-12 -29 -62 -81q-109 -99 -246 -99q-144 0 -257 109q-50 55 -72 112q-28 59 -28 160v244q0 118 38 186
q15 30 39 61v2q-35 46 -49 83q-28 62 -28 161v97q0 119 39 187q67 128 203 176q56 19 99 19zM371 1244v-153q0 -50 53 -77q15 -6 30 -6h6q49 0 76 52q6 17 6 30v155q0 45 -46 73q-18 9 -35 9h-10q-42 0 -71 -46q-9 -19 -9 -37zM371 654v-300q0 -50 53 -77q15 -6 30 -6h6
q51 0 77 55q5 14 5 27v302q0 45 -46 73q-18 9 -35 9h-8q-49 0 -76 -53q-6 -15 -6 -30z" />
    <glyph glyph-name="nine" unicode="9" horiz-adv-x="900" 
d="M472 0h-29q-101 0 -203 73q-140 114 -140 286q0 33 39 55q15 4 28 4h137q49 0 64 -46q2 -6 4 -35q8 -31 31 -48q23 -19 50 -19h7q50 0 76 53q6 18 6 28v175q-46 -11 -85 -11q-136 0 -244 96q-55 58 -64 82q-49 77 -49 194v338q0 150 85 245q21 26 54 52q101 75 218 75
q139 0 250 -103q50 -54 70 -97q36 -81 36 -154q-1 -13 -1 -19v-332q0 -14 1 -19q-1 -11 -1 -23v-478q0 -7 1 -18q0 -110 -71 -213q-73 -93 -185 -127q-51 -14 -85 -14zM542 867v378q0 41 -43 70q-20 11 -39 11h-6q-50 0 -77 -52q-6 -17 -6 -30v-367q0 -4 -1 -9q0 -31 30 -61
q28 -22 54 -22l2 1h2q1 0 1 -1q37 0 67 36q16 24 16 46z" />
    <glyph glyph-name="colon" unicode=":" horiz-adv-x="460" 
d="M314 272q23 0 47 -27q11 -18 11 -40v-127q0 -50 -25 -64q-15 -13 -33 -13h-132q-10 0 -24 -1q-25 0 -47 28q-11 15 -11 38v130q0 52 31 66q11 9 27 9h132q10 0 24 1zM314 1126q23 0 47 -27q11 -18 11 -40v-127q0 -50 -25 -64q-15 -13 -33 -13h-132q-10 0 -24 -1
q-25 0 -47 28q-11 15 -11 38v130q0 52 31 66q11 9 27 9h132q10 0 24 1z" />
    <glyph glyph-name="semicolon" unicode=";" horiz-adv-x="500" 
d="M207 208h139q45 0 63 -42q3 -10 3 -21q0 -16 -25 -72q-126 -317 -133 -330q-19 -28 -62 -28h-59q-48 0 -64 45q-2 8 -2 14v6q0 6 76 385q17 43 64 43zM344 1126q23 0 47 -27q11 -18 11 -40v-127q0 -50 -25 -64q-15 -13 -33 -13h-132q-10 0 -24 -1q-25 0 -47 28
q-11 15 -11 38v130q0 52 31 66q11 9 27 9h132q10 0 24 1z" />
    <glyph glyph-name="semicolon" unicode="&#x37e;" horiz-adv-x="500" 
d="M207 208h139q45 0 63 -42q3 -10 3 -21q0 -16 -25 -72q-126 -317 -133 -330q-19 -28 -62 -28h-59q-48 0 -64 45q-2 8 -2 14v6q0 6 76 385q17 43 64 43zM344 1126q23 0 47 -27q11 -18 11 -40v-127q0 -50 -25 -64q-15 -13 -33 -13h-132q-10 0 -24 -1q-25 0 -47 28
q-11 15 -11 38v130q0 52 31 66q11 9 27 9h132q10 0 24 1z" />
    <glyph glyph-name="less" unicode="&#x3c;" horiz-adv-x="780" 
d="M541 1280q31 0 66 -42q93 -91 93 -98q5 -12 5 -21v-11q0 -27 -46 -66l-241 -242q278 -277 278 -279q9 -17 9 -28v-11q0 -28 -45 -66q-86 -88 -92 -88q-15 -7 -27 -7q-35 0 -65 39q-396 393 -406 406q-10 18 -10 33v3q0 32 48 72q397 397 400 398q17 8 33 8z" />
    <glyph glyph-name="equal" unicode="=" horiz-adv-x="1059" 
d="M157 1128q16 -1 25 -1h722q31 0 51 -33q8 -11 8 -43v-125q0 -49 -41 -66l-17 -4q-16 1 -24 1h-723q-35 0 -53 39q-5 10 -5 31v135q0 49 47 64q10 1 10 2zM157 675q16 -1 25 -1h722q31 0 51 -33q8 -11 8 -43v-125q0 -49 -41 -66l-17 -4q-16 1 -24 1h-723q-35 0 -53 38
q-5 11 -5 32v135q0 49 47 64q10 1 10 2z" />
    <glyph glyph-name="greater" unicode="&#x3e;" horiz-adv-x="780" 
d="M257 1272q4 -1 400 -398q48 -40 48 -72v-3q0 -15 -10 -33q-10 -13 -406 -406q-30 -39 -65 -39q-12 0 -27 7q-6 0 -92 88q-45 38 -45 66v11q0 11 9 28q0 2 278 279l-241 242q-46 39 -46 66v11q0 9 5 21q0 7 93 98q35 42 66 42q16 0 33 -8z" />
    <glyph glyph-name="question" unicode="?" horiz-adv-x="874" 
d="M402 1600h31q81 0 172 -52q107 -68 150 -189q19 -57 19 -100v-175q0 -129 -116 -275q-87 -112 -97 -168q-8 -28 -8 -67v-146q0 -35 -38 -54q-11 -5 -28 -5h-129q-50 0 -65 29q-10 14 -10 35v143q0 142 103 272q96 126 106 174q11 34 11 67v159q0 49 -54 76q-16 5 -28 5
h-7q-50 0 -77 -54q-5 -16 -5 -27v-147q0 -52 -51 -66q-10 -1 -16 -1h-138q-52 0 -66 51q-1 10 -1 16v117q0 118 38 185q16 36 55 80q46 47 78 66q92 51 171 51zM496 272q23 0 47 -26q10 -19 10 -33v-150q0 -45 -47 -61q-5 -1 -9 -1h-132q-9 0 -25 -1q-24 0 -48 28
q-9 17 -9 32v148q0 46 48 62q5 1 10 1h130q9 0 25 1z" />
    <glyph glyph-name="at" unicode="@" horiz-adv-x="1369" 
d="M662 1592h34q141 0 288 -86q173 -110 242 -304q32 -88 32 -197v-956q0 -30 -36 -51q-12 -5 -26 -5h-150q-21 0 -41 18q-51 -16 -103 -16q-156 0 -268 121q-90 101 -90 247v345q0 122 58 209q68 102 186 143q59 19 113 19q32 0 80 -9v1q0 24 -33 95q-18 32 -66 80
q-92 75 -198 75h-9q-130 0 -228 -105q-75 -90 -75 -198v-819q0 -133 105 -229q76 -62 154 -72q24 -3 71 -6h481q52 0 66 -31q9 -12 9 -27v-157q0 -38 -46 -55q-10 -1 -10 -2q-16 1 -25 1h-503l-79 8q-79 14 -117 29q-219 86 -323 297q-55 124 -55 241q1 18 1 27v770
q0 9 -1 26q0 162 96 313q21 37 91 108q76 65 126 87q36 22 104 42q80 23 145 23zM816 726v-372l-1 -5q0 -25 22 -54q29 -29 63 -29l2 1q1 0 1 -1q49 0 77 51q7 17 7 33v375q0 50 -53 76q-15 6 -30 6h-4q-51 0 -78 -52q-6 -16 -6 -29z" />
    <glyph glyph-name="A" unicode="A" horiz-adv-x="920" 
d="M372 1600h165q33 0 53 -42l159 -745q159 -736 159 -746v-11q0 -33 -40 -52q-10 -4 -29 -4h-138q-53 0 -67 49q0 4 -37 174h-285q-37 -173 -40 -186q-18 -37 -64 -37h-138q-49 0 -66 40q-4 15 -4 23q3 19 212 993q1 7 108 505q20 39 52 39zM454 886q0 -3 -84 -394h169
q-84 391 -84 394h-1z" />
    <glyph glyph-name="B" unicode="B" horiz-adv-x="900" 
d="M157 1600h386q85 0 169 -64q44 -40 57 -64q45 -74 45 -143v-393q0 -63 -40 -136v0q40 -71 40 -135v-393q0 -80 -58 -162q-44 -50 -69 -63q-74 -47 -152 -47q-20 1 -28 1q-88 0 -338 -1q-57 0 -68 54v425q0 206 -1 331q1 84 1 310v23q0 150 -1 399q0 35 42 56q10 2 15 2z
M371 1328v-391q0 -2 2 -2h132q36 0 36 5q3 3 3 35v316q0 36 -5 36q-2 3 -34 3h-132q-2 0 -2 -2zM371 664v-391q0 -2 2 -2h132q36 0 36 5q3 2 3 34v316q0 37 -5 37q-2 3 -34 3h-132q-2 -1 -2 -2z" />
    <glyph glyph-name="C" unicode="C" horiz-adv-x="888" 
d="M442 1600h31q81 0 172 -52q107 -68 150 -189q19 -57 19 -100v-168q0 -38 -46 -55q-10 -2 -20 -2h-138q-52 0 -66 51q-1 10 -1 16v148q0 36 -35 64q-22 16 -47 16h-7q-48 0 -74 -49q-9 -8 -9 -75v-809q0 -67 6 -67q9 -28 38 -47q22 -10 39 -10h7q50 0 77 54q5 16 5 27v147
q0 52 51 66q10 1 16 1h138q45 0 63 -40q3 -9 3 -17v-168q0 -88 -61 -185q-14 -25 -69 -76q-105 -81 -227 -81q-139 0 -249 101q-51 54 -66 90q-19 33 -30 79q-8 21 -12 81q1 24 1 36v828q0 13 -1 33q0 94 57 190q66 102 193 146q54 16 92 16z" />
    <glyph glyph-name="D" unicode="D" horiz-adv-x="900" 
d="M157 1600h316q81 0 172 -52q107 -68 150 -189q19 -57 19 -100v-917q0 -69 -41 -153q-20 -40 -75 -96q-72 -61 -150 -81q-52 -12 -86 -12q-3 0 -24 1q-201 -1 -270 -1q-49 0 -64 42q-3 8 -4 17q1 249 1 398v686q0 146 -1 400q0 25 28 47q14 10 29 10zM371 1328v-1055
q0 -2 2 -2h46q67 0 67 6q28 9 47 38q11 18 11 68v822q0 67 -6 67q-9 28 -38 47q-18 11 -68 11h-59q-2 0 -2 -2z" />
    <glyph glyph-name="E" unicode="E" horiz-adv-x="723" 
d="M157 1600h453q36 0 54 -43q2 -5 2 -13v-157q0 -36 -43 -55q-8 -2 -14 -2h-236q-2 0 -2 -2v-391q0 -2 2 -2h138q10 0 24 1q25 0 47 -27q11 -15 11 -40v-127q0 -46 -21 -61q-17 -15 -37 -15h-162q-2 -1 -2 -2v-391q0 -2 2 -2h212q10 0 24 1q25 0 47 -28q10 -14 10 -29v-157
q0 -37 -43 -55q-8 -2 -14 -2h-51q-141 0 -398 -1q-31 0 -52 32q-6 10 -8 26q1 248 1 393v692q0 146 -1 400q0 25 28 47q14 10 29 10z" />
    <glyph glyph-name="F" unicode="F" horiz-adv-x="688" 
d="M157 1600h453q36 0 54 -43q2 -5 2 -13v-157q0 -36 -43 -55q-8 -2 -14 -2h-236q-2 0 -2 -2v-391q0 -2 2 -2h138q10 0 24 1q25 0 47 -27q11 -15 11 -40v-127q0 -46 -21 -61q-17 -15 -37 -15h-162q-2 -1 -2 -2v-582q0 -10 1 -24q0 -25 -28 -47q-15 -11 -39 -11h-127
q-47 0 -62 22q-15 17 -15 36v1085q0 146 -1 400q0 25 28 47q14 10 29 10z" />
    <glyph glyph-name="G" unicode="G" horiz-adv-x="900" 
d="M442 1600h31q81 0 172 -52q107 -68 150 -189q19 -57 19 -100v-168q0 -38 -46 -55q-10 -2 -20 -2h-138q-52 0 -66 51q-1 10 -1 16v147q0 49 -54 76q-16 5 -28 5h-7q-48 0 -74 -49q-9 -8 -9 -75v-809q0 -67 6 -67q9 -28 38 -47q22 -10 39 -10h7q50 0 77 54q5 16 5 27v238
h-7q-52 0 -66 51q-1 10 -1 16v138q0 52 52 66q10 1 15 1h215q46 0 62 -48q1 -4 1 -8v-750q0 -38 -46 -55q-10 -2 -20 -2h-138q-30 0 -46 17q-55 -17 -107 -17q-139 0 -249 101q-51 54 -66 90q-19 33 -30 79q-8 21 -12 81q1 24 1 36v828q0 13 -1 33q0 94 57 190
q66 102 193 146q54 16 92 16z" />
    <glyph glyph-name="H" unicode="H" horiz-adv-x="900" 
d="M157 1598h156q37 0 55 -43q2 -8 2 -14v-605q1 -2 2 -2h170q2 0 2 2v581q0 10 -1 24q0 25 27 47q15 10 30 10h156q37 0 55 -43q2 -8 2 -14v-420v-640v-399q0 -10 1 -24q0 -25 -28 -47q-15 -11 -39 -11h-127q-47 0 -62 22q-14 17 -14 36v605q0 2 -2 2h-170q-2 -1 -2 -2
v-581q0 -10 1 -24q0 -25 -27 -47q-15 -11 -39 -11h-127q-47 0 -62 22q-15 17 -15 36v420v640v399q0 10 -1 24q0 25 28 47q14 10 29 10z" />
    <glyph glyph-name="I" unicode="I" horiz-adv-x="470" 
d="M157 1600h157q36 0 55 -43q2 -8 2 -14v-1461q0 -10 1 -24q0 -25 -28 -47q-15 -11 -39 -11h-127q-47 0 -62 22q-15 17 -15 36v1461q0 10 -1 24q0 25 28 47q14 10 29 10z" />
    <glyph glyph-name="J" unicode="J" horiz-adv-x="569" 
d="M231 1600h156q37 0 56 -43q2 -8 2 -14v-1237q0 -11 1 -28q0 -62 -36 -131q-11 -25 -55 -71q-86 -76 -195 -76q-38 0 -58 45q-2 15 -2 22v138q0 47 43 64q29 3 29 8q3 0 3 33v1209q0 10 -1 24q0 25 27 47q15 10 30 10z" />
    <glyph glyph-name="K" unicode="K" horiz-adv-x="940" 
d="M157 1600h157q36 0 55 -43q2 -8 2 -14v-466q3 3 125 270q98 213 106 226q20 27 44 27h182q31 0 51 -34q6 -13 6 -24v-6q0 -16 -35 -86l-292 -634q338 -730 340 -739q0 -2 2 -15q0 -41 -44 -59q-10 -3 -23 -3h-157q-49 0 -65 38q-49 105 -239 518h-1v-474q0 -10 1 -24
q0 -25 -28 -47q-15 -11 -39 -11h-127q-47 0 -62 22q-15 17 -15 36v1461q0 10 -1 24q0 25 28 47q14 10 29 10z" />
    <glyph glyph-name="L" unicode="L" horiz-adv-x="689" 
d="M157 1600h157q36 0 55 -43q2 -8 2 -14v-1270q0 -2 2 -2h212q10 0 24 1q25 0 47 -28q10 -14 10 -29v-157q0 -37 -43 -55q-8 -2 -14 -2h-51q-141 0 -398 -1q-36 0 -56 40l-4 17q1 235 1 394v1068q0 10 -1 24q0 25 28 47q14 10 29 10z" />
    <glyph glyph-name="M" unicode="M" horiz-adv-x="1373" 
d="M157 1600h159q31 0 51 -37q294 -994 311 -1053h2l310 1051q10 22 29 32q12 7 22 7h159q37 0 55 -43q2 -8 2 -14v-1461q0 -10 1 -24q0 -25 -28 -47q-15 -11 -39 -11h-127q-47 0 -62 22q-15 17 -15 36v588h-1q-174 -587 -184 -614q-19 -32 -62 -32h-122q-53 0 -67 45
q-8 25 -179 601h-1v-564q0 -10 1 -24q0 -25 -28 -47q-15 -11 -39 -11h-127q-47 0 -62 22q-15 17 -15 36v1461q0 10 -1 24q0 25 28 47q14 10 29 10z" />
    <glyph glyph-name="N" unicode="N" horiz-adv-x="970" 
d="M157 1600h171q34 0 54 -41l235 -681h1v641q0 10 -1 24q0 25 28 47q14 10 29 10h157q36 0 55 -43q2 -8 2 -14v-1461q0 -10 1 -24q0 -25 -28 -47q-15 -11 -39 -11h-135q-48 0 -65 38l-250 716h-1v-672q0 -10 1 -24q0 -25 -28 -47q-15 -11 -39 -11h-127q-47 0 -62 22
q-15 17 -15 36v1461q0 10 -1 24q0 25 28 47q14 10 29 10z" />
    <glyph glyph-name="O" unicode="O" horiz-adv-x="917" 
d="M442 1600h31q80 0 172 -52q107 -68 150 -189q19 -57 19 -100v-917q0 -87 -60 -184q-19 -28 -59 -67q-107 -91 -238 -91q-139 0 -249 101q-51 54 -66 90q-19 33 -30 79q-8 21 -12 81v897q0 94 57 190q66 102 193 146q54 16 92 16zM371 1205v-809q0 -67 6 -67q9 -28 38 -47
q22 -10 39 -10h7q49 0 77 54q5 16 5 27v895q0 49 -54 76q-16 5 -28 5h-7q-48 0 -74 -49q-9 -8 -9 -75z" />
    <glyph glyph-name="P" unicode="P" horiz-adv-x="859" 
d="M157 1600h316q81 0 175 -54q94 -59 142 -173q25 -67 25 -124q-1 -23 -1 -34v-311q0 -14 1 -36q0 -83 -47 -171q-16 -31 -67 -85q-66 -62 -170 -87q-45 -8 -70 -8q-19 1 -33 1h-55q-2 0 -2 -2v-434q0 -10 1 -24q0 -25 -28 -47q-15 -11 -39 -11h-127q-47 0 -62 22
q-15 17 -15 36v276q0 211 -1 311q1 128 1 330v168q0 150 -1 399q0 35 42 56q10 2 15 2zM371 1328v-538q0 -2 2 -2h46q67 0 67 6q28 9 47 38q11 18 11 68v305q0 67 -6 67q-9 28 -38 47q-18 11 -68 11h-59q-2 0 -2 -2z" />
    <glyph glyph-name="Q" unicode="Q" horiz-adv-x="897" 
d="M442 1596h31q81 0 172 -52q107 -68 150 -189q19 -57 19 -100v-918q0 -80 -53 -173q-61 -94 -162 -139q23 -54 92 -54q50 -15 50 -66v-138q0 -47 -43 -64q-9 -2 -17 -3q-157 0 -272 123q-59 67 -82 171q-3 29 -5 29q-11 0 -72 39q-80 62 -108 125q-19 32 -30 78
q-8 21 -12 81q1 25 1 37v828q0 13 -1 33q0 94 57 189q66 103 193 147q54 16 92 16zM371 1201v-810q0 -67 6 -67q9 -28 38 -47q22 -10 39 -10h7q50 0 77 54q5 16 5 28v894q0 49 -54 77q-16 5 -28 5h-7q-48 0 -74 -49q-9 -8 -9 -75z" />
    <glyph glyph-name="R" unicode="R" horiz-adv-x="900" 
d="M157 1600h316q81 0 175 -54q94 -59 142 -173q25 -67 25 -124q-1 -23 -1 -34v-311q0 -14 1 -36q0 -82 -46 -169q-9 -16 -31 -46q47 -70 47 -82q30 -58 30 -165v-339q0 -52 -51 -66q-10 -1 -16 -1h-138q-52 0 -66 51q-1 10 -1 16v368q0 47 -49 74q-8 9 -75 9h-46
q-2 0 -2 -2v-434q0 -10 1 -24q0 -25 -28 -47q-15 -11 -39 -11h-127q-47 0 -62 22q-15 17 -15 36v276q0 211 -1 311q1 128 1 330v168q0 150 -1 399q0 35 42 56q10 2 15 2zM371 1328v-538q0 -2 2 -2h46q67 0 67 6q28 9 47 38q11 18 11 68v305q0 67 -6 67q-9 28 -38 47
q-18 11 -68 11h-59q-2 0 -2 -2z" />
    <glyph glyph-name="S" unicode="S" horiz-adv-x="900" 
d="M442 1600h31q80 0 172 -52q107 -68 150 -189q19 -57 19 -100v-168q0 -38 -46 -55q-10 -2 -20 -2h-138q-52 0 -66 51q-1 10 -1 16v147q0 49 -54 76q-16 5 -28 5h-8q-49 0 -76 -54q-5 -16 -5 -27v-84q0 -89 121 -181q89 -70 146 -117q175 -155 175 -347v-177
q0 -87 -60 -184q-19 -28 -59 -67q-107 -91 -238 -91q-155 0 -270 124q-58 66 -81 169q-6 32 -6 90v117q0 52 51 66q10 1 16 1h138q52 0 66 -51q1 -10 1 -16v-147q0 -49 54 -76q16 -5 27 -5h8q49 0 77 54q5 16 5 27v163q0 102 -142 203l-114 87q-68 58 -98 100
q-51 68 -66 123q-23 56 -23 171v18q0 118 38 185q16 36 55 80q46 47 78 66q92 51 171 51z" />
    <glyph glyph-name="T" unicode="T" horiz-adv-x="741" 
d="M57 1600h599q37 0 55 -43q3 -12 3 -34v-127q0 -52 -51 -66q-9 -1 -15 -1h-156v-1271q0 -37 -43 -55q-10 -3 -20 -3h-148q-39 0 -57 43q-2 13 -3 13q1 18 1 27v1246h-149q-51 0 -67 37q-6 11 -6 39v129q0 45 40 63q10 3 17 3z" />
    <glyph glyph-name="U" unicode="U" horiz-adv-x="902" 
d="M164 1600h147q38 0 57 -41q1 -5 3 -16q-1 -15 -1 -22v-1127q0 -64 10 -76q28 -46 74 -46h6q50 0 77 53q6 14 6 29v1180q0 48 45 64q9 2 15 2h151q40 0 58 -46q2 -13 2 -21v-1149q0 -119 -39 -188q-67 -129 -205 -177q-59 -19 -113 -19q-150 0 -265 117q-63 72 -84 165
q-8 38 -8 98v1143q0 47 22 61q16 16 42 16z" />
    <glyph glyph-name="V" unicode="V" horiz-adv-x="859" 
d="M64 1596h153q41 0 58 -46q143 -749 143 -755h1q142 747 145 762q19 39 59 39h151q45 0 61 -46q2 -8 2 -16q-2 -17 -207 -1095l-75 -396q-10 -25 -30 -35q-13 -8 -37 -8h-139q-52 0 -66 45q-228 1194 -228 1200q-50 255 -55 289q0 44 49 61q10 1 15 1z" />
    <glyph glyph-name="W" unicode="W" horiz-adv-x="1457" 
d="M63 1600h153q36 0 55 -37q4 -9 40 -202l106 -563h1q141 740 146 763q20 39 55 39h156q45 0 60 -49q140 -734 143 -753h1q142 751 145 763q20 39 59 39h151q45 0 61 -46q2 -8 2 -16t-120 -638q-161 -848 -164 -860q-16 -40 -65 -40h-141q-56 0 -68 58l-140 745h-1
q-143 -753 -145 -764q-18 -39 -66 -39h-140q-46 0 -63 40q-4 12 -207 1088q-73 377 -77 408v6q0 41 49 57q8 1 14 1z" />
    <glyph glyph-name="X" unicode="X" horiz-adv-x="808" 
d="M103 1600h157q38 0 57 -43l76 -295q2 0 22 85q53 203 59 221q20 32 56 32h155q43 0 60 -45q2 -10 2 -17q0 -10 -25 -92q-186 -643 -186 -647q200 -690 210 -729q1 -5 1 -9q0 -42 -47 -59q-13 -2 -29 -2h-138q-45 0 -63 42l-76 296h-1q-74 -291 -81 -306q-17 -32 -65 -32
h-141q-48 0 -64 45q-2 8 -2 14v6q0 12 52 184q4 16 159 552q-209 719 -211 732v6q0 45 50 60q7 1 13 1z" />
    <glyph glyph-name="Y" unicode="Y" horiz-adv-x="861" 
d="M103 1600h157q40 0 57 -44q118 -417 118 -418v0q1 7 120 426q21 36 55 36h161q36 0 55 -39q4 -10 4 -20v-5q0 -9 -26 -94q-228 -744 -234 -768v-615q0 -35 -38 -54q-11 -5 -28 -5h-138q-55 0 -66 57v616q-6 22 -253 834q-7 18 -7 28v7q0 38 45 56q10 2 18 2z" />
    <glyph glyph-name="Z" unicode="Z" horiz-adv-x="823" 
d="M134 1596h589q45 0 62 -46q2 -10 2 -20v-144q0 -14 -35 -102q0 -1 -372 -1013h335q51 0 68 -39q4 -15 4 -28v-141q0 -45 -47 -61q-10 -1 -10 -2q-16 1 -25 1h-574q-34 0 -53 41q-3 11 -3 18v153q0 11 23 70q374 1016 382 1043h-343q-45 0 -61 48q-1 7 -1 11v153
q0 37 42 55q8 3 17 3z" />
    <glyph glyph-name="bracketleft" unicode="[" horiz-adv-x="579" 
d="M479 1819q40 -18 40 -63v-138q0 -6 -1 -16q-14 -51 -66 -51h-81v-1501h81q6 0 16 -1q51 -14 51 -66v-138q0 -6 -1 -16q-14 -51 -66 -51h-286q-10 0 -20 2q-46 17 -46 55v1931q0 8 2 13q18 43 54 43h306q7 0 17 -3z" />
    <glyph glyph-name="backslash" unicode="\" horiz-adv-x="640" 
d="M273 1563l255 -1071q101 -423 101 -429q-1 -10 -1 -12q-14 -51 -66 -51h-145q-38 0 -58 31q-6 11 -30 114q-240 1012 -272 1143q-57 239 -57 246v10q0 8 2 13q18 43 54 43h166q30 0 51 -37z" />
    <glyph glyph-name="bracketright" unicode="]" horiz-adv-x="569" 
d="M107 1822h306q36 0 54 -43q2 -5 2 -13v-1931q0 -38 -46 -55q-10 -2 -20 -2h-286q-52 0 -66 51q-1 10 -1 16v138q0 52 51 66q10 1 16 1h81v1501h-81q-52 0 -66 51q-1 10 -1 16v138q0 45 40 63q10 3 17 3z" />
    <glyph glyph-name="asciicircum" unicode="^" horiz-adv-x="740" 
d="M130 876h5q23 0 52 -24q32 -18 59 -18q22 0 135 30q50 11 96 11h6q66 0 126 -24q28 -22 28 -51v-157q0 -32 -36 -51q-7 -4 -25 -6q-18 0 -53 21q-26 11 -50 11h-5q-27 0 -136 -29q-52 -12 -99 -12q-71 0 -132 29q-30 19 -30 57v150q0 45 45 61q8 2 14 2z" />
    <glyph glyph-name="underscore" unicode="_" horiz-adv-x="1252" 
d="M140 -6h967q54 0 54 -55v-161q0 -35 -28 -47q-8 -3 -23 -3h-967q-54 0 -54 54v161q0 35 28 47q7 4 23 4z" />
    <glyph glyph-name="grave" unicode="`" horiz-adv-x="501" 
d="M206 1950q76 -379 76 -385v-6q0 -6 -2 -14q-16 -45 -64 -45h-59q-43 0 -62 28q-7 13 -133 330q-25 56 -25 72q0 11 3 21q18 42 63 42h139q46 0 64 -43z" />
    <glyph glyph-name="a" unicode="a" 
d="M457 1380q139 0 249 -102q54 -58 66 -89q19 -33 31 -80q11 -51 11 -79q-1 -25 -1 -37v-935q0 -38 -45 -56q-16 -2 -32 -2h-127q-29 0 -48 18q-55 -15 -99 -15h-10q-132 0 -242 98q-54 56 -75 105q-35 66 -35 179v173q0 122 45 194q14 31 58 79q111 106 254 106
q41 0 87 -11v60q0 67 -11 78q-18 29 -44 38q-11 5 -30 7l-2 -1q-1 0 -1 1q-48 0 -78 -50q-6 -12 -9 -52q-9 -28 -30 -38q-13 -8 -39 -8h-128q-54 0 -69 43q-3 15 -3 17q0 159 125 273q106 86 232 86zM371 584v-228q0 -51 56 -78q18 -5 26 -5h8q47 0 76 53q7 12 7 70v148
q0 66 -11 78q-29 45 -76 45q-52 0 -80 -53q-6 -17 -6 -30z" />
    <glyph glyph-name="b" unicode="b" 
d="M157 1600h156q37 0 55 -43q2 -8 2 -14v-174q48 11 87 11q156 0 270 -124q60 -68 81 -170q6 -30 6 -89v-614q0 -117 -40 -187q-17 -39 -73 -98q-67 -57 -132 -77q-56 -18 -107 -18h-10q-45 0 -99 15q-19 -18 -48 -18h-127q-47 0 -62 22q-15 17 -15 36v1461q0 10 -1 24
q0 25 28 47q14 10 29 10zM370 984v-588q0 -69 12 -78q27 -45 71 -45h8q47 0 76 53q6 16 6 30v671q0 48 -53 75q-13 5 -31 7l-2 -1q-1 0 -1 1q-48 0 -77 -49q-9 -10 -9 -76z" />
    <glyph glyph-name="c" unicode="c" horiz-adv-x="901" 
d="M457 1377q156 0 270 -124q60 -68 81 -170q6 -30 6 -89v-117q0 -52 -50 -65q-5 -2 -23 -2h-126q-50 0 -68 38q-4 15 -4 29v147q0 48 -53 75q-13 5 -31 7l-2 -1q-1 0 -1 1q-49 0 -79 -52q-6 -18 -6 -30v-671q0 -51 56 -78q18 -5 26 -5h8q47 0 76 53q6 16 6 30v144
q0 49 42 65q11 3 21 3h145q46 0 61 -48q2 -5 2 -20v-117q0 -117 -40 -187q-17 -39 -73 -98q-67 -57 -132 -77q-56 -18 -107 -18h-10q-132 0 -242 98q-54 56 -75 105q-35 66 -35 179v612q0 108 32 174q22 50 73 104q111 105 252 105z" />
    <glyph glyph-name="d" unicode="d" 
d="M786 1590q28 -22 28 -47q-1 -14 -1 -24v-1461q0 -19 -15 -36q-15 -22 -62 -22h-127q-29 0 -48 18q-54 -15 -99 -15h-10q-51 0 -107 18q-65 20 -132 77q-56 59 -73 98q-40 70 -40 187v614q0 59 6 89q21 102 81 170q114 124 270 124q39 0 87 -11v174q0 6 2 14q18 43 55 43
h156q15 0 29 -10zM535 1060q-29 49 -77 49q0 -1 -1 -1l-2 1q-18 -2 -31 -7q-53 -27 -53 -75v-671q0 -14 6 -30q29 -53 76 -53h8q44 0 71 45q12 9 12 78v588q0 66 -9 76z" />
    <glyph glyph-name="e" unicode="e" 
d="M457 1379q147 0 260 -112q43 -50 58 -83q17 -32 28 -70q12 -45 12 -118v-415q0 -47 -50 -63q-9 -1 -14 -1h-379v-164q0 -49 54 -76q15 -5 27 -5h8q49 0 77 54q5 14 7 48q17 45 65 45h138q47 0 64 -43q2 -9 3 -17q0 -158 -125 -273q-107 -86 -233 -86q-155 0 -270 124
q-58 66 -81 169q-6 32 -6 90v613q0 122 41 190q58 116 190 171q68 22 126 22zM372 1026v-237h171v237q0 49 -54 77q-16 5 -28 5h-8q-49 0 -76 -54q-5 -16 -5 -28z" />
    <glyph glyph-name="f" unicode="f" horiz-adv-x="645" 
d="M495 1600h21q36 0 54 -43q2 -5 2 -13v-158q0 -38 -46 -55q-40 -3 -53 -10q-48 -29 -48 -73v-90h81q46 0 63 -40q3 -10 3 -17v-158q0 -38 -46 -55q-10 -2 -20 -2h-81v-819q0 -52 -51 -66q-10 -1 -15 -1h-138q-52 0 -66 51q-1 10 -1 16v819h-7q-52 0 -66 51q-1 10 -1 16
v138q0 52 51 66q10 1 16 1h7v60q0 118 38 185q16 36 54 80q47 47 79 66q92 51 170 51z" />
    <glyph glyph-name="g" unicode="g" horiz-adv-x="913" 
d="M600 1379h157q37 0 55 -43q2 -8 2 -14v-1499q0 -87 -60 -184q-16 -26 -64 -72q-107 -86 -233 -86q-149 0 -262 115q-95 108 -95 245q0 29 31 51q14 9 39 9h132q71 0 71 -80q2 -20 28 -48q29 -21 54 -21l2 1h1q1 0 1 -1q44 0 74 45q11 14 11 73v139q-46 -11 -87 -11
q-150 0 -264 117q-47 56 -61 94q-32 62 -32 169v619q0 116 40 187q17 38 73 97q69 59 132 78q56 18 108 18h9q45 0 100 -15q19 17 38 17zM372 1023v-671q0 -49 52 -76q13 -5 32 -7l1 1q1 0 1 -1q49 0 77 49q9 10 9 76v589q0 70 -12 79q-13 26 -43 38q-15 6 -28 6h-7
q-48 0 -76 -52q-6 -17 -6 -31z" />
    <glyph glyph-name="h" unicode="h" horiz-adv-x="914" 
d="M157 1600h156q37 0 55 -43q2 -8 2 -14v-174q48 11 87 11q156 0 270 -124q60 -68 81 -170q6 -30 6 -89v-928q0 -48 -45 -64q-8 -2 -14 -2h-154q-35 0 -54 38q-5 11 -5 28v958q0 48 -52 75q-13 5 -31 7l-2 -1q-1 0 -1 1q-48 0 -77 -49q-9 -10 -9 -76v-902q0 -10 1 -24
q0 -25 -27 -47q-15 -11 -39 -11h-127q-47 0 -62 22q-15 17 -15 36v1461q0 10 -1 24q0 25 28 47q14 10 29 10z" />
    <glyph glyph-name="i" unicode="i" horiz-adv-x="474" 
d="M158 1743h156q36 0 54 -43q2 -5 2 -13v-156q0 -38 -45 -56q-16 -2 -32 -2h-126q-47 0 -64 43q-2 14 -3 14q1 16 1 24v132q0 37 43 55q8 2 14 2zM178 1376h126q45 0 63 -41q3 -9 3 -16v-1261q0 -38 -45 -56q-16 -2 -32 -2h-126q-47 0 -64 43q-2 14 -3 14q1 16 1 25v1236
q0 37 45 56q16 2 32 2z" />
    <glyph glyph-name="j" unicode="j" horiz-adv-x="513" 
d="M206 1746h157q29 0 49 -33q6 -11 6 -23v-156q0 -37 -43 -55q-12 -3 -34 -3h-126q-51 0 -66 49q-1 9 -1 14v141q0 48 44 64q8 2 14 2zM223 1379h130q44 0 62 -40q3 -9 3 -17v-1475q0 -168 -132 -281q-101 -79 -227 -79q-27 0 -48 27q-11 16 -11 40v137q0 47 43 64
q16 2 41 5q34 11 50 37q14 25 14 42q0 1 -1 1q1 10 1 15v1457q0 46 39 62q9 5 36 5z" />
    <glyph glyph-name="k" unicode="k" horiz-adv-x="947" 
d="M155 1597h160q30 0 50 -34q5 -11 5 -24v-549q0 -2 21 -36q9 12 204 334q36 60 42 68q19 21 50 21h170q50 0 65 -29q11 -15 11 -33q0 -23 -31 -66l-343 -568q12 -16 333 -536q40 -61 40 -76q1 -7 1 -8q0 -38 -40 -57q-10 -4 -20 -4h-199q-38 0 -62 50q-241 392 -241 393
h-1v-385q0 -38 -44 -56q-7 -2 -14 -2h-154q-35 0 -54 39q-4 10 -4 20v1479q0 41 46 58q6 1 9 1z" />
    <glyph glyph-name="l" unicode="l" horiz-adv-x="471" 
d="M158 1597h157q30 0 50 -34q5 -11 5 -24v-1479q0 -42 -48 -59q-8 -1 -14 -1h-150q-35 0 -54 39q-4 10 -4 20v1475q0 47 48 62q5 1 10 1z" />
    <glyph glyph-name="m" unicode="m" horiz-adv-x="1365" 
d="M176 1377h131q25 0 45 -16h1q55 16 104 16q119 0 221 -77q103 77 221 77q156 0 271 -124q59 -68 80 -170q6 -30 6 -89v-928q0 -48 -45 -64q-7 -2 -14 -2h-153q-35 0 -54 38q-5 11 -5 28v958q0 48 -52 75q-13 5 -32 7l-2 -1q-1 0 -1 1q-49 0 -78 -52q-6 -18 -6 -30v-958
q0 -48 -45 -64q-8 -2 -14 -2h-154q-35 0 -54 38q-4 11 -4 28v958q0 48 -53 75q-13 5 -31 7l-2 -1q-1 0 -1 1q-49 0 -79 -52q-6 -18 -6 -30v-964q0 -42 -48 -59q-8 -1 -14 -1h-150q-35 0 -54 39q-4 10 -4 20v1254q0 47 48 62q10 2 27 2z" />
    <glyph glyph-name="n" unicode="n" 
d="M176 1377h131q25 0 45 -16h1q55 16 104 16q160 0 275 -130q57 -70 76 -161q5 -37 5 -51v-980q0 -29 -35 -49q-10 -6 -23 -6h-154q-35 0 -54 38q-4 11 -4 28v958q0 48 -53 75q-13 5 -31 7l-2 -1q-1 0 -1 1q-49 0 -79 -52q-6 -18 -6 -30v-964q0 -42 -48 -59q-8 -1 -14 -1
h-150q-35 0 -54 39q-4 10 -4 20v1254q0 47 48 62q10 2 27 2z" />
    <glyph glyph-name="o" unicode="o" horiz-adv-x="910" 
d="M371 1027v-671q0 -48 50 -75q17 -8 34 -8h4q51 0 78 53q6 15 6 30v671q0 48 -53 75q-13 5 -31 7l-2 -1q-1 0 -1 1q-49 0 -79 -52q-6 -18 -6 -30zM457 1380q156 0 270 -124q60 -68 81 -170q6 -30 6 -89v-614q0 -117 -40 -187q-17 -39 -73 -98q-67 -57 -132 -77
q-55 -18 -107 -18h-10q-130 0 -238 95q-48 48 -65 81q-39 69 -46 139q-3 20 -3 67v612q0 108 32 174q21 50 77 108q110 101 248 101z" />
    <glyph glyph-name="p" unicode="p" horiz-adv-x="907" 
d="M158 1382h157q19 0 38 -17q55 15 100 15h9q115 0 216 -76q56 -48 76 -82q60 -95 60 -186v-693q0 -87 -61 -186q-64 -83 -123 -111q-81 -45 -173 -45q-39 0 -86 11v-470q0 -38 -45 -56q-16 -2 -32 -2h-127q-47 0 -64 43q-2 14 -3 14q1 16 1 25v1759q0 37 43 55q8 2 14 2z
M371 986v-589q0 -58 6 -70q4 -14 27 -36q27 -19 52 -19l1 1q1 0 1 -1q50 0 79 52q6 18 6 31v671q0 51 -55 78q-18 5 -27 5h-7q-48 0 -76 -52q-7 -12 -7 -71z" />
    <glyph glyph-name="q" unicode="q" 
d="M600 1378h157q37 0 55 -43q2 -8 2 -14v-1786q0 -29 -35 -49q-12 -6 -28 -6h-362q-53 0 -66 51q-1 10 -1 16v141q0 45 42 63q10 3 21 3h159v254q-46 -11 -87 -11q-150 0 -264 117q-47 56 -61 94q-32 62 -32 169v619q0 116 40 187q17 38 73 97q69 59 132 78q56 18 108 18h9
q45 0 100 -15q19 17 38 17zM372 1022v-671q0 -49 52 -76q13 -5 32 -7l1 1q1 0 1 -1q49 0 77 49q9 10 9 76v589q0 70 -12 79q-13 26 -43 38q-15 6 -28 6h-7q-48 0 -76 -52q-6 -17 -6 -31z" />
    <glyph glyph-name="r" unicode="r" horiz-adv-x="566" 
d="M176 1380h130q28 0 47 -18q54 15 99 15h10q32 0 53 -40q4 -13 4 -26v-136q0 -49 -42 -66q-13 -2 -42 -5q-36 -14 -47 -32q-18 -17 -18 -77v-937q0 -38 -45 -56q-16 -2 -31 -2h-127q-47 0 -64 43q-2 14 -3 14q1 16 1 25v900q0 21 -1 47q1 3 1 35v258q0 35 40 54q11 4 35 4
z" />
    <glyph glyph-name="s" unicode="s" horiz-adv-x="861" 
d="M421 1377h11q137 0 250 -106q3 -5 25 -30q76 -102 76 -216v-7q0 -39 -44 -57q-12 -2 -19 -2h-145q-48 0 -61 51q0 67 -58 91q-14 5 -27 5h-7q-42 0 -72 -45q-10 -21 -10 -43v-2q0 -124 99 -187q31 -22 149 -91q43 -30 80 -64q115 -115 115 -316v-4q0 -148 -115 -260
q-108 -94 -241 -94q-158 0 -273 127q-84 103 -84 234q0 28 30 49q14 9 40 9h131q50 0 66 -40q3 -7 5 -42q11 -35 36 -51t46 -16l2 1h2q1 0 1 -1q32 0 63 30q21 27 21 56v4q0 132 -100 194q-30 21 -140 85q-127 82 -173 198q-30 83 -30 172v8q0 180 150 295q97 65 201 65z
" />
    <glyph glyph-name="t" unicode="t" horiz-adv-x="599" 
d="M191 1597h157q38 0 55 -46q2 -10 2 -20v-154h82q49 0 64 -48q2 -8 2 -19v-138q0 -45 -40 -62q-9 -5 -32 -5h-76v-752q0 -49 51 -76q19 -8 49 -8q26 -8 39 -29q9 -13 9 -38v-136q0 -48 -46 -64q-7 -2 -13 -2h-8q-132 0 -242 98q-54 56 -75 105q-35 66 -35 179v723h-2
q-54 0 -69 44q-3 12 -3 23v138q0 52 51 66q9 1 15 1h8v154q0 45 40 63q9 3 17 3z" />
    <glyph glyph-name="u" unicode="u" horiz-adv-x="927" 
d="M608 1380h130q52 0 66 -31q9 -12 9 -27v-1265q0 -38 -46 -55q-10 -2 -20 -2h-127q-43 0 -57 17q-54 -17 -106 -17q-155 0 -270 124q-58 66 -81 168q-6 35 -6 91v928q0 53 53 66h161q33 0 53 -40q4 -13 4 -26v-958q0 -47 51 -75q14 -6 32 -8l2 1h2q1 0 1 -1q44 0 74 46
q11 13 11 72v910q0 10 -1 24q0 25 27 47q15 11 38 11z" />
    <glyph glyph-name="v" unicode="v" horiz-adv-x="852" 
d="M107 1379h134q48 0 63 -23q15 -19 15 -41q102 -555 112 -617h2v1q113 630 118 644q10 19 29 30q12 6 43 6h134q52 0 66 -51q1 -10 1 -12q-182 -1006 -233 -1276q-10 -24 -32 -34q-12 -6 -39 -6h-176q-53 0 -68 33q-5 0 -31 158q-1 2 -189 1039q-15 75 -16 88q0 42 47 59
q10 2 20 2z" />
    <glyph glyph-name="w" unicode="w" horiz-adv-x="1354" 
d="M87 1380h165q28 0 49 -33q8 -15 31 -160q5 -23 90 -489h1q113 630 117 645q21 37 51 37h168q30 0 51 -37q4 -15 117 -645h1q113 624 118 645q22 37 52 37h165q38 0 55 -46q1 -6 1 -9v-11q0 -6 -201 -1108q-27 -158 -33 -173q-13 -21 -40 -31q-15 -2 -29 -2h-176
q-55 0 -69 35q-4 0 -22 112q-1 0 -73 401h-2q-90 -500 -93 -509q-12 -24 -32 -33q-12 -6 -39 -6h-176q-51 0 -66 31q-7 0 -27 129q-1 1 -195 1070q-16 83 -16 90q0 42 47 59q5 1 10 1z" />
    <glyph glyph-name="x" unicode="x" horiz-adv-x="845" 
d="M116 1380h154q47 0 63 -42q82 -258 84 -267q3 5 24 76l63 198q18 35 64 35h151q48 0 64 -45q2 -10 2 -15v-4q0 -15 -41 -123q-3 -12 -180 -503q216 -602 221 -620v-10q0 -36 -38 -55q-11 -5 -28 -5h-154q-51 0 -65 48l-82 261h-1q-81 -261 -88 -276q-18 -33 -62 -33h-151
q-53 0 -66 53v13q0 12 28 85q192 537 192 539q-220 616 -220 619v14q0 33 39 53q14 4 27 4z" />
    <glyph glyph-name="y" unicode="y" 
d="M600 1378h157q37 0 55 -43q2 -8 2 -14v-1499q0 -87 -60 -184q-16 -26 -64 -72q-107 -86 -233 -86q-149 0 -262 115q-95 108 -95 245q0 29 31 51q14 9 39 9h132q71 0 71 -80q2 -20 28 -48q29 -21 54 -21l2 1h1q1 0 1 -1q44 0 74 45q11 14 11 73v139q-46 -11 -87 -11
q-150 0 -264 117q-47 56 -61 94q-32 62 -32 169v933q0 48 45 64q8 2 14 2h154q35 0 54 -38q5 -11 5 -28v-959q0 -49 52 -76q13 -5 32 -7l1 1q1 0 1 -1q49 0 77 49q9 10 9 76v904q0 10 -1 24q0 25 28 47q14 10 29 10z" />
    <glyph glyph-name="z" unicode="z" horiz-adv-x="845" 
d="M111 1379q18 -1 27 -1h575q33 0 53 -41q3 -10 3 -18v-154q0 -14 -32 -78l-365 -816h341q33 0 53 -42q3 -10 3 -17v-153q0 -38 -43 -56q-13 -2 -13 -3q-18 1 -27 1h-573q-39 0 -56 46q-2 8 -2 19v146q0 17 28 71q9 22 328 734q41 88 41 92h-339q-39 0 -56 46q-2 8 -2 19
v142q0 45 47 61q9 1 9 2z" />
    <glyph glyph-name="braceleft" unicode="{" horiz-adv-x="720" 
d="M559 1814h21q36 0 54 -43q2 -5 2 -13v-85q0 -31 -37 -51q-41 -9 -74 -39q-36 -42 -36 -118v-391q0 -115 -39 -185q-15 -37 -72 -97q31 -29 51 -60q60 -90 60 -213v-399q0 -119 87 -150q37 -9 46 -25q14 -17 14 -33v-85q0 -38 -46 -55l-12 -2q-170 0 -285 138
q-51 62 -70 162q-5 28 -5 83v388q0 116 -81 148q-42 11 -54 29q-13 17 -13 40v67q0 49 46 64q49 13 73 46q29 40 29 106v391q0 118 38 185q16 36 54 80q47 47 79 66q92 51 170 51z" />
    <glyph glyph-name="bar" unicode="|" horiz-adv-x="471" 
d="M158 1897h157q30 0 50 -34q5 -11 5 -24v-2079q0 -42 -48 -59q-8 -1 -14 -1h-150q-35 0 -54 39q-4 10 -4 20v2075q0 47 48 62q5 1 10 1z" />
    <glyph glyph-name="braceright" unicode="}" horiz-adv-x="720" 
d="M297 1763q32 -19 79 -66q38 -44 54 -80q38 -67 38 -185v-391q0 -66 29 -106q24 -33 73 -46q46 -15 46 -64v-67q0 -23 -13 -40q-12 -18 -54 -29q-81 -32 -81 -148v-388q0 -55 -5 -83q-19 -100 -70 -162q-115 -138 -285 -138l-12 2q-46 17 -46 55v85q0 16 14 33q9 16 46 25
q87 31 87 150v399q0 123 60 213q20 31 51 60q-57 60 -72 97q-39 70 -39 185v391q0 76 -36 118q-33 30 -74 39q-37 20 -37 51v85q0 8 2 13q18 43 54 43h21q78 0 170 -51z" />
    <glyph glyph-name="asciitilde" unicode="~" horiz-adv-x="771" 
d="M136 876h6q25 0 58 -24q35 -18 65 -18q24 0 150 30q55 11 105 11h7q73 0 140 -24q31 -22 31 -51v-157q0 -32 -40 -51q-7 -4 -27 -6q-21 0 -59 21q-29 11 -56 11h-5q-30 0 -151 -29q-57 -12 -109 -12q-79 0 -147 29q-33 19 -33 57v150q0 45 50 61q8 2 15 2z" />
    <glyph glyph-name="exclamdown" unicode="&#xa1;" horiz-adv-x="478" 
d="M304 -364h-159q-34 0 -53 42q-3 13 -3 24v644q0 19 39 473q1 13 21 34q17 14 47 14h62q48 0 64 -46q2 0 39 -470v-650q0 -44 -40 -62q-10 -3 -17 -3zM304 964q-16 1 -25 1h-132q-31 0 -50 33q-8 11 -8 43v125q0 49 41 66l16 4q17 -1 25 -1h132q35 0 53 -38q5 -11 5 -32
v-135q0 -48 -47 -64q-10 -1 -10 -2z" />
    <glyph glyph-name="cent" unicode="&#xa2;" horiz-adv-x="1000" 
d="M380 1588h156q38 0 55 -46q2 -10 2 -20v-108q126 -52 188 -178q33 -76 33 -136v-169q0 -38 -46 -55q-10 -2 -20 -2h-138q-52 0 -66 51q-1 10 -1 16v147q0 47 -49 74q-16 7 -31 7h-11q-36 0 -64 -35q-16 -22 -16 -46v-747q0 -49 54 -77q16 -4 28 -4h7q50 0 77 54
q5 15 5 27v147q0 52 51 66q10 1 16 1h138q45 0 63 -40q3 -10 3 -17v-169q0 -86 -59 -182q-63 -92 -162 -132v-108q0 -47 -43 -64q-14 -2 -14 -3q-16 1 -24 1h-132q-37 0 -55 43q-3 12 -3 32v99q-125 51 -189 179q-33 70 -33 171v693q0 110 33 176q16 36 51 79q55 60 93 79
q30 17 45 22v97q0 47 20 61q18 16 38 16z" />
    <glyph glyph-name="sterling" unicode="&#xa3;" horiz-adv-x="914" 
d="M455 1600h27q95 0 193 -65q79 -61 111 -129q39 -77 39 -164q0 -41 -47 -58q-8 -2 -21 -2h-136q-49 0 -64 45l-5 40q-12 36 -46 54q-19 8 -34 8h-7q-52 0 -78 -56q-5 -16 -5 -25v-977h385q39 0 56 -46q2 -12 2 -20v-141q0 -43 -41 -60q-4 -2 -16 -4q-16 1 -24 1h-576
q-31 0 -51 36q-5 12 -5 26v1185q0 153 125 267q68 57 153 77q39 8 65 8zM109 863q18 -1 27 -1h425q36 0 54 -41q4 -10 4 -28v-138q0 -43 -41 -60q-4 -2 -16 -4q-16 1 -25 1h-428q-33 0 -53 41q-3 11 -3 18v152q0 39 43 57q13 2 13 3z" />
    <glyph glyph-name="currency" unicode="&#xa4;" horiz-adv-x="1158" 
d="M267 1354q33 0 69 -44q3 -2 50 -50q95 46 193 46q99 0 194 -46q84 87 95 89q14 5 25 5q33 0 67 -42q93 -91 94 -98q4 -15 4 -21v-8q0 -30 -44 -67q-49 -50 -49 -51q45 -91 45 -193q0 -98 -45 -193v-1q85 -83 87 -90q6 -13 6 -25v-7q0 -29 -39 -61q-94 -97 -100 -97
q-15 -4 -24 -4h-5q-30 0 -67 44q-3 1 -50 50q-92 -46 -194 -46q-97 0 -193 45h-1q-83 -87 -90 -87q-13 -6 -26 -6h-5q-30 0 -64 41q-91 89 -92 95q-7 13 -8 30q0 32 44 69l50 51q-45 92 -45 190v5q0 97 45 192q-87 84 -87 91q-5 9 -7 28q0 32 41 66q91 93 98 93q13 7 28 7z
M420 875q0 -95 92 -146q38 -15 65 -15l2 1q1 0 3 -1q68 0 122 59q36 48 36 103q0 81 -75 135q-43 23 -79 23h-11q-78 0 -132 -75q-23 -41 -23 -84z" />
    <glyph glyph-name="yen" unicode="&#xa5;" horiz-adv-x="900" 
d="M108 1600h168q24 0 45 -28q7 -8 33 -111q10 -30 92 -323h1q2 11 120 427q21 35 52 35h167q36 0 54 -43q2 -5 2 -13v-10q0 -10 -26 -89l-200 -656h121q45 0 63 -43q3 -10 3 -20v-146q0 -42 -42 -59q-9 -4 -24 -4h-155v-98h155q45 0 63 -42q3 -11 3 -21v-145q0 -42 -42 -59
q-9 -4 -24 -4h-155v-88q0 -36 -38 -55q-11 -5 -28 -5h-139q-50 0 -65 49q-1 10 -1 15v84h-156q-53 0 -66 53v161q0 33 40 54q13 3 26 3h156v98h-156q-53 0 -66 53v162q0 33 40 53q13 4 26 4h122q-221 721 -226 741l-1 10q0 38 41 57q10 3 17 3z" />
    <glyph glyph-name="brokenbar" unicode="&#xa6;" horiz-adv-x="474" 
d="M178 1896h126q45 0 63 -41q3 -9 3 -16v-891q0 -38 -45 -56q-16 -2 -32 -2h-126q-47 0 -64 43q-2 14 -3 14q1 16 1 25v866q0 37 45 56q16 2 32 2zM178 700h127q45 0 62 -40q3 -9 3 -16v-891q0 -38 -45 -56q-16 -2 -31 -2h-127q-47 0 -64 43q-2 14 -3 14q1 16 1 24v867
q0 37 46 56q15 1 31 1z" />
    <glyph glyph-name="section" unicode="&#xa7;" horiz-adv-x="910" 
d="M442 1702h31q81 0 172 -52q107 -68 150 -189q19 -57 19 -100v-94q0 -38 -46 -55q-10 -2 -20 -2h-138q-52 0 -66 51q-1 10 -1 16v72q0 49 -54 77q-16 5 -28 5h-6q-51 0 -77 -53q-6 -15 -6 -30v-6q0 -91 117 -181q93 -72 138 -109q187 -159 187 -358v-27q0 -106 -57 -208
q57 -102 57 -208v-29q0 -87 -60 -184q-18 -28 -59 -67q-107 -91 -238 -91q-152 0 -265 119q-62 67 -85 172q-7 30 -7 93v39q0 49 38 65q13 5 29 5h138q52 0 66 -51q1 -8 1 -15v-72q0 -52 55 -78q15 -5 25 -5h9q50 0 77 54q5 16 5 28v12q0 98 -120 188q-32 26 -107 82
q-47 36 -99 89q-117 126 -117 297q0 122 59 223q-59 100 -59 220q0 146 110 259q58 53 130 79q61 19 102 19zM372 917v-19q0 -90 116 -179q11 -10 55 -43v14q0 99 -125 192q-11 10 -46 35z" />
    <glyph glyph-name="dieresis" unicode="&#xa8;" horiz-adv-x="700" 
d="M77 1785h167q41 0 50 -35q1 -2 1 -9v-178q0 -30 -34 -43q-10 -1 -17 -1h-167q-35 0 -47 35v189q0 27 32 40q5 2 15 2zM448 1785h167q41 0 50 -35q1 -2 1 -9v-178q0 -30 -34 -43q-10 -1 -17 -1h-167q-35 0 -47 35v189q0 27 32 40q5 2 15 2z" />
    <glyph glyph-name="copyright" unicode="&#xa9;" horiz-adv-x="1754" 
d="M863 1600h33q210 0 416 -126q50 -32 114 -89q69 -68 102 -117q151 -214 151 -468q0 -290 -195 -523q-48 -53 -89 -88q-231 -188 -516 -188q-294 0 -528 200q-62 57 -95 98q-176 226 -176 502q0 285 188 516q67 74 111 108q79 60 134 86q175 89 350 89zM351 801v-3
q0 -183 122 -336q43 -49 72 -71q151 -119 335 -119q161 0 301 94q35 23 88 77q139 156 139 360q0 189 -128 344q-54 57 -84 78q-146 104 -308 104h-17q-187 0 -345 -134q-68 -66 -90 -106q-85 -132 -85 -288zM879 1232q156 0 271 -124q61 -75 76 -153v-11q0 -33 -39 -53
q-13 -4 -31 -4h-145q-43 0 -63 40q-28 33 -66 33h-6q-47 0 -75 -49q-8 -20 -8 -33v-152q0 -53 56 -80q9 -3 31 -5q48 0 77 48q17 26 61 26h133q53 0 68 -32q7 -11 7 -27v-8q-5 -43 -43 -109q-64 -105 -193 -151q-55 -18 -111 -18q-154 0 -269 122q-87 106 -87 232v155
q0 146 115 259q108 94 241 94z" />
    <glyph glyph-name="ordfeminine" unicode="&#xaa;" horiz-adv-x="914" 
d="M458 1600q125 0 228 -82q54 -50 68 -75q34 -50 50 -112q12 -36 12 -109v-859q0 -51 -43 -66q-8 -4 -33 -4h-131q-28 0 -45 17q-54 -16 -106 -16q-150 0 -262 115q-27 31 -45 59q-40 72 -48 145q0 3 -3 41v128q0 210 170 320q88 54 188 54q41 0 87 -10v86q0 4 -1 11l1 2
q0 39 -40 70q-24 14 -48 14q-48 0 -77 -49q-9 -20 -9 -51q-10 -30 -31 -41q-13 -8 -40 -8h-127q-53 0 -69 41q-3 11 -3 16v14q0 126 97 237q112 112 260 112zM372 801v-145q0 -3 1 -4l-1 -2q0 -31 25 -59q27 -26 62 -26q53 0 80 54q6 16 6 30v123q0 60 -16 76q-15 24 -50 34
l-18 3q-2 -1 -3 -1t-1 1q-49 0 -78 -51q-7 -19 -7 -33z" />
    <glyph glyph-name="guillemotleft" unicode="&#xab;" horiz-adv-x="1401" 
d="M530 1280q31 0 66 -42q93 -91 93 -98q5 -12 5 -21v-11q0 -27 -46 -66l-241 -242q278 -277 278 -279q9 -17 9 -28v-11q0 -28 -45 -66q-86 -88 -92 -88q-15 -7 -27 -7q-35 0 -65 39q-396 393 -406 406q-10 18 -10 33v3q0 32 48 72q397 397 400 398q17 8 33 8zM1124 1280
q31 0 66 -42q93 -91 93 -98q5 -12 5 -21v-11q0 -27 -46 -66l-241 -242q278 -277 278 -279q9 -17 9 -28v-11q0 -28 -45 -66q-86 -88 -92 -88q-15 -7 -27 -7q-35 0 -65 39q-396 393 -406 406q-10 18 -10 33v3q0 32 48 72q397 397 400 398q17 8 33 8z" />
    <glyph glyph-name="logicalnot" unicode="&#xac;" horiz-adv-x="1152" 
d="M156 1010q16 -1 25 -1h796q39 0 56 -45q2 -12 2 -21v-365q0 -44 -50 -60q-11 -1 -19 -1h-135q-54 0 -66 53v167q0 2 -2 2h-607q-34 0 -54 44q-2 9 -2 15v154q0 36 42 55z" />
    <glyph glyph-name="registered" unicode="&#xae;" horiz-adv-x="1480" 
d="M707 1600h30q125 0 260 -60q89 -41 171 -117q56 -54 75 -83q131 -178 131 -391q0 -265 -195 -466q-199 -187 -458 -187q-199 0 -371 116q-40 26 -101 88q-71 78 -97 133q-82 147 -82 314v4q0 197 114 367q23 36 87 102q80 72 148 106q146 74 288 74zM341 952v-4
q0 -148 105 -263q119 -118 276 -118q158 0 279 121q102 115 102 262q0 164 -131 287q-114 92 -243 92h-14q-146 0 -265 -113q-109 -117 -109 -264zM804 1242q31 0 52 -33q7 -14 7 -27v-152q0 -42 -49 -59q-25 0 -25 -11v-225q0 -43 -50 -59q-8 -1 -15 -1h-142q-48 0 -62 49
q-1 6 -1 10v230q0 120 101 212q83 66 184 66z" />
    <glyph glyph-name="overscore" unicode="&#xaf;" horiz-adv-x="1346" 
d="M128 1500h1075q29 0 40 -35v-193q-8 -38 -50 -38h-1052q-36 0 -47 28q-4 8 -4 23v165q0 42 38 50z" />
    <glyph glyph-name="degree" unicode="&#xb0;" horiz-adv-x="1000" 
d="M478 1600h31q96 0 201 -64q34 -22 76 -66q68 -80 87 -157q14 -54 14 -91v-31q0 -103 -71 -211q-43 -59 -103 -101q-105 -67 -219 -67q-158 0 -280 116q-114 123 -114 271v15q0 142 106 263q62 59 97 74q90 49 175 49zM371 1212v-11q0 -56 55 -97q32 -20 61 -20h16
q36 0 76 34q37 38 37 84q1 0 1 1q-1 2 -1 4t1 2q0 44 -36 84q-40 36 -78 36h-16q-52 0 -94 -50q-22 -35 -22 -67z" />
    <glyph glyph-name="plusminus" unicode="&#xb1;" horiz-adv-x="1200" 
d="M411 1412h138q52 0 66 -51q1 -11 1 -16v-230h237q37 0 56 -43q3 -12 3 -33v-127q0 -48 -44 -64l-14 -3q-16 1 -24 1h-214v-230q0 -52 -51 -66q-10 -1 -16 -1h-138q-52 0 -66 51q-1 10 -1 16v230h-237q-35 0 -54 40q-4 11 -4 34v129q0 48 43 64l14 3q16 -1 25 -1h213v230
q0 52 52 66q10 1 15 1zM106 318q16 -1 25 -1h722q38 0 57 -45q2 -16 2 -31v-127q0 -48 -44 -64l-14 -3q-16 1 -24 1h-723q-35 0 -54 40q-4 11 -4 34v129q0 48 43 64z" />
    <glyph glyph-name="twosuperior" unicode="&#xb2;" horiz-adv-x="904" 
d="M439 1600q155 0 270 -124q36 -46 54 -85q33 -78 33 -147q-1 -8 -1 -14v-71q0 -245 -216 -350q-127 -60 -152 -78q-48 -31 -65 -80q-11 -38 -11 -67q1 -6 1 -16v-3h386q32 0 52 -36q6 -12 6 -24v-145q0 -46 -42 -62q-9 -4 -24 -4h-590q-39 0 -57 43q-3 10 -3 21v183
q0 131 23 190q38 117 137 191q56 43 160 96q51 25 90 62q34 33 34 89v76q0 46 -47 74q-22 10 -39 10q-49 0 -77 -47q-11 -21 -11 -56q-12 -30 -29 -37q-13 -9 -42 -9h-127q-51 0 -68 39q-4 16 -4 20q0 166 132 281q103 80 227 80z" />
    <glyph glyph-name="threesuperior" unicode="&#xb3;" horiz-adv-x="900" 
d="M457 1600q155 0 268 -121q60 -69 80 -153q10 -40 10 -103v-37q0 -124 -56 -209q-10 -15 -21 -30q38 -52 51 -89q26 -59 26 -152v-36q0 -124 -54 -206q-63 -106 -193 -152q-55 -18 -111 -18q-156 0 -270 123q-87 107 -87 226v14q0 32 39 53q14 4 38 4h118q54 0 68 -34
q8 -5 9 -46q9 -33 33 -51q25 -18 53 -18q49 0 77 49q8 16 8 33v83q0 52 -59 77q-18 5 -41 5q-48 18 -48 59v149q0 45 47 61q39 3 51 9q50 30 50 72v85q0 30 -25 56q-27 26 -62 26q-48 0 -77 -49q-9 -20 -9 -51q-10 -30 -31 -41q-13 -8 -40 -8h-127q-53 0 -69 41q-3 11 -3 16
v14q0 126 97 237q112 112 260 112z" />
    <glyph glyph-name="acute" unicode="&#xb4;" horiz-adv-x="499" 
d="M257 1993h139q45 0 63 -42q3 -10 3 -21q0 -16 -25 -72q-126 -317 -133 -330q-19 -28 -62 -28h-59q-48 0 -64 45q-2 8 -2 14v6q0 6 76 385q17 43 64 43z" />
    <glyph glyph-name="mu1" unicode="&#xb5;" horiz-adv-x="911" 
d="M158 1600h156q38 0 55 -46q1 -10 2 -10q-1 -16 -1 -25v-755q0 -58 6 -70q4 -14 28 -36q26 -19 51 -19l2 1q1 0 1 -1q49 0 79 52q6 18 6 31v810q0 48 45 64q7 2 14 2h153q39 0 57 -45l1 -10v-833q0 -87 -60 -184q-42 -60 -102 -100q-93 -57 -194 -57q-40 0 -87 11v-322
q0 -38 -45 -56q-16 -2 -31 -2h-127q-47 0 -64 43q-2 14 -3 14q1 16 1 25v598q0 31 -1 41q1 17 1 45v777q0 37 43 55q8 2 14 2z" />
    <glyph glyph-name="paragraph" unicode="&#xb6;" horiz-adv-x="1364" 
d="M504 1600h685q29 0 50 -36q5 -12 5 -23v-1481q0 -36 -39 -55q-11 -5 -27 -5h-128q-48 0 -62 23q-15 15 -15 40v1266h-172v-1268q0 -40 -43 -57q-8 -3 -17 -3h-147q-45 0 -62 45q-2 10 -2 15v604h-1q-200 0 -338 134q-141 144 -141 335q0 166 112 303q42 45 63 61
q42 33 91 57q99 45 188 45z" />
    <glyph glyph-name="periodcentered" unicode="&#xb7;" horiz-adv-x="462" 
d="M311 909q23 0 47 -27q11 -18 11 -40v-127q0 -50 -25 -64q-15 -13 -33 -13h-132q-10 0 -24 -1q-25 0 -47 28q-11 15 -11 38v130q0 52 31 66q11 9 27 9h132q10 0 24 1z" />
    <glyph glyph-name="periodcentered" unicode="&#x2219;" horiz-adv-x="462" 
d="M311 909q23 0 47 -27q11 -18 11 -40v-127q0 -50 -25 -64q-15 -13 -33 -13h-132q-10 0 -24 -1q-25 0 -47 28q-11 15 -11 38v130q0 52 31 66q11 9 27 9h132q10 0 24 1z" />
    <glyph glyph-name="cedilla" unicode="&#xb8;" horiz-adv-x="530" 
d="M57 221h54q43 0 58 -37q2 -10 2 -18v-238q148 0 235 -114q54 -77 54 -157v-16q0 -100 -81 -188q-60 -56 -117 -71q-38 -11 -100 -11h-105q-46 0 -57 46v75q0 33 39 49q11 2 18 2h128q39 0 63 40q9 17 9 34q0 45 -46 69q-14 6 -26 6h-128q-46 0 -57 46v432q0 33 39 49
q11 2 18 2z" />
    <glyph glyph-name="onesuperior" unicode="&#xb9;" horiz-adv-x="730" 
d="M304 1600h158q37 0 55 -42q3 -11 3 -21v-972h90q35 0 54 -40q4 -9 4 -19v-149q0 -45 -47 -61q-9 -2 -17 -2h-443q-42 0 -59 48q-1 8 -1 14v146q0 47 49 62q5 1 10 1h89v626h-1q-49 -11 -87 -11t-58 42q-3 15 -3 25v139q0 46 42 63q10 3 37 4q32 8 51 32q19 23 19 66
q9 29 28 40q15 9 27 9z" />
    <glyph glyph-name="ordmasculine" unicode="&#xba;" horiz-adv-x="911" 
d="M459 1600q156 0 272 -126q58 -68 79 -169q6 -29 6 -88v-541q0 -122 -42 -190q-58 -116 -188 -170q-67 -23 -128 -23q-156 0 -271 124q-37 46 -52 80q-34 72 -34 148h-1q1 18 1 26v553q0 8 -1 21q0 110 71 211q116 144 288 144zM372 1245v-597q0 -52 55 -78q15 -5 28 -5h9
q35 0 64 35q16 23 16 47v599q0 52 -60 79q-20 4 -27 4q-48 0 -77 -49q-8 -18 -8 -35z" />
    <glyph glyph-name="guillemotright" unicode="&#xbb;" horiz-adv-x="1401" 
d="M246 1272q4 -1 400 -398q48 -40 48 -72v-3q0 -15 -10 -33q-10 -13 -406 -406q-30 -39 -65 -39q-12 0 -27 7q-6 0 -92 88q-45 38 -45 66v11q0 11 9 28q0 2 278 279l-241 242q-46 39 -46 66v11q0 9 5 21q0 7 93 98q35 42 66 42q16 0 33 -8zM840 1272q4 -1 400 -398
q48 -40 48 -72v-3q0 -15 -10 -33q-10 -13 -406 -406q-30 -39 -65 -39q-12 0 -27 7q-6 0 -92 88q-45 38 -45 66v11q0 11 9 28q0 2 278 279l-241 242q-46 39 -46 66v11q0 9 5 21q0 7 93 98q35 42 66 42q16 0 33 -8z" />
    <glyph glyph-name="onequarter" unicode="&#xbc;" horiz-adv-x="2274" 
d="M293 1600h158q37 0 55 -42q3 -11 3 -21v-972h90q35 0 54 -40q4 -9 4 -19v-149q0 -45 -47 -61q-9 -2 -17 -2h-443q-42 0 -59 48q-1 8 -1 14v146q0 47 49 62q5 1 10 1h89v626h-1q-49 -11 -87 -11t-58 42q-3 15 -3 25v139q0 46 42 63q10 3 37 4q32 8 51 32q19 23 19 66
q9 29 28 40q15 9 27 9zM1177 1653h196q39 -10 39 -44l-211 -891l-214 -894q-15 -24 -46 -24h-171q-36 0 -49 28q-2 11 -2 16v2q0 6 263 1114l160 669q17 24 35 24zM1746 1305h305q38 0 55 -46q1 -10 2 -10q-1 -16 -1 -25v-730q0 -2 2 -2h7q2 0 4 1q42 0 60 -48q1 -5 1 -9
v-157q0 -39 -46 -56q-12 -2 -20 -2h-8v-164q0 -39 -46 -56q-8 -2 -19 -2h-143q-45 0 -61 47q-1 10 -2 10q1 15 1 22v143h-382q-44 0 -61 45q-2 7 -2 14v153q0 14 34 99q237 653 270 741q20 32 50 32zM1836 894l-146 -402h147v402h-1z" />
    <glyph glyph-name="onehalf" unicode="&#xbd;" horiz-adv-x="2356" 
d="M273 1600h158q37 0 55 -42q3 -11 3 -21v-972h90q35 0 54 -40q4 -9 4 -19v-149q0 -45 -47 -61q-9 -2 -17 -2h-443q-42 0 -59 48q-1 8 -1 14v146q0 47 49 62q5 1 10 1h89v626h-1q-49 -11 -87 -11t-58 42q-3 15 -3 25v139q0 46 42 63q10 3 37 4q32 8 51 32q19 23 19 66
q9 29 28 40q15 9 27 9zM1187 1653h196q39 -10 39 -44l-211 -891l-214 -894q-15 -24 -46 -24h-171q-36 0 -49 28q-2 11 -2 16v2q0 6 263 1114l160 669q17 24 35 24zM1887 1306q155 0 270 -124q36 -46 54 -85q33 -78 33 -147q-1 -8 -1 -14v-71q0 -245 -216 -350
q-127 -60 -152 -78q-48 -31 -65 -80q-11 -38 -11 -67q1 -6 1 -16v-3h386q32 0 52 -36q6 -12 6 -24v-145q0 -46 -42 -62q-9 -4 -24 -4h-590q-39 0 -57 43q-3 10 -3 21v183q0 131 23 190q38 117 137 191q56 43 160 96q51 25 90 62q34 33 34 89v76q0 46 -47 74q-22 10 -39 10
q-49 0 -77 -47q-11 -21 -11 -56q-12 -30 -29 -37q-13 -9 -42 -9h-127q-51 0 -68 39q-4 16 -4 20q0 166 132 281q103 80 227 80z" />
    <glyph glyph-name="threequarters" unicode="&#xbe;" horiz-adv-x="2383" 
d="M1257 1653h196q39 -10 39 -44l-211 -891l-214 -894q-15 -24 -46 -24h-171q-36 0 -49 28q-2 11 -2 16v2q0 6 263 1114l160 669q17 24 35 24zM1836 1305h305q38 0 55 -46q1 -10 2 -10q-1 -16 -1 -25v-730q0 -2 2 -2h7q2 0 4 1q42 0 60 -48q1 -5 1 -9v-157q0 -39 -46 -56
q-12 -2 -20 -2h-8v-164q0 -39 -46 -56q-8 -2 -19 -2h-143q-45 0 -61 47q-1 10 -2 10q1 15 1 22v143h-382q-44 0 -61 45q-2 7 -2 14v153q0 14 34 99q237 653 270 741q20 32 50 32zM1926 894l-146 -402h147v402h-1zM427 1600q155 0 268 -121q60 -69 80 -153q10 -40 10 -103
v-37q0 -124 -56 -209q-10 -15 -21 -30q38 -52 51 -89q26 -59 26 -152v-36q0 -124 -54 -206q-63 -106 -193 -152q-55 -18 -111 -18q-156 0 -270 123q-87 107 -87 226v14q0 32 39 53q14 4 38 4h118q54 0 68 -34q8 -5 9 -46q9 -33 33 -51q25 -18 53 -18q49 0 77 49q8 16 8 33
v83q0 52 -59 77q-18 5 -41 5q-48 18 -48 59v149q0 45 47 61q39 3 51 9q50 30 50 72v85q0 30 -25 56q-27 26 -62 26q-48 0 -77 -49q-9 -20 -9 -51q-10 -30 -31 -41q-13 -8 -40 -8h-127q-53 0 -69 41q-3 11 -3 16v14q0 126 97 237q112 112 260 112z" />
    <glyph glyph-name="questiondown" unicode="&#xbf;" horiz-adv-x="817" 
d="M421 -364h-31q-81 0 -172 52q-107 68 -150 189q-19 57 -19 100v175q0 129 116 275q87 112 97 168q8 28 8 67v146q0 35 38 54q11 5 28 5h129q50 0 65 -29q10 -14 10 -35v-143q0 -142 -103 -272q-96 -126 -106 -174q-11 -34 -11 -67v-159q0 -49 54 -76q16 -5 28 -5h7
q50 0 77 54q5 16 5 27v147q0 52 51 66q10 1 16 1h138q52 0 66 -51q1 -10 1 -16v-117q0 -118 -38 -185q-16 -36 -55 -80q-46 -47 -78 -66q-92 -51 -171 -51zM327 964q-23 0 -47 26q-10 19 -10 33v150q0 45 47 61q5 1 9 1h132q9 0 25 1q24 0 48 -28q9 -17 9 -32v-148
q0 -46 -48 -62q-5 -1 -10 -1h-130q-9 0 -25 -1z" />
    <glyph glyph-name="Agrave" unicode="&#xc0;" horiz-adv-x="937" 
d="M372 1600h165q33 0 53 -42l159 -745q159 -736 159 -746v-11q0 -33 -40 -52q-10 -4 -29 -4h-138q-53 0 -67 49q0 4 -37 174h-285q-37 -173 -40 -186q-18 -37 -64 -37h-138q-49 0 -66 40q-4 15 -4 23q3 19 212 993q1 7 108 505q20 39 52 39zM454 886q0 -3 -84 -394h169
q-84 391 -84 394h-1zM453 2168q76 -379 76 -385v-6q0 -6 -2 -14q-16 -45 -64 -45h-59q-43 0 -62 28q-7 13 -133 330q-25 56 -25 72q0 11 3 21q18 42 63 42h139q46 0 64 -43z" />
    <glyph glyph-name="Aacute" unicode="&#xc1;" horiz-adv-x="937" 
d="M372 1600h165q33 0 53 -42l159 -745q159 -736 159 -746v-11q0 -33 -40 -52q-10 -4 -29 -4h-138q-53 0 -67 49q0 4 -37 174h-285q-37 -173 -40 -186q-18 -37 -64 -37h-138q-49 0 -66 40q-4 15 -4 23q3 19 212 993q1 7 108 505q20 39 52 39zM454 886q0 -3 -84 -394h169
q-84 391 -84 394h-1zM479 2211h139q45 0 63 -42q3 -10 3 -21q0 -16 -25 -72q-126 -317 -133 -330q-19 -28 -62 -28h-59q-48 0 -64 45q-2 8 -2 14v6q0 6 76 385q17 43 64 43z" />
    <glyph glyph-name="Acircumflex" unicode="&#xc2;" horiz-adv-x="937" 
d="M372 1600h165q33 0 53 -42l159 -745q159 -736 159 -746v-11q0 -33 -40 -52q-10 -4 -29 -4h-138q-53 0 -67 49q0 4 -37 174h-285q-37 -173 -40 -186q-18 -37 -64 -37h-138q-49 0 -66 40q-4 15 -4 23q3 19 212 993q1 7 108 505q20 39 52 39zM454 886q0 -3 -84 -394h169
q-84 391 -84 394h-1zM451 2054h2q23 0 66 -29q214 -122 231 -135q21 -21 21 -45q0 -22 -29 -67q-23 -45 -39 -50q-13 -9 -28 -9h-2q-13 0 -76 19l-143 41q-202 -58 -216 -60h-5q-42 0 -65 54q-32 47 -32 72q0 42 51 64q235 138 246 142q11 3 18 3z" />
    <glyph glyph-name="Atilde" unicode="&#xc3;" horiz-adv-x="937" 
d="M372 1600h165q33 0 53 -42l159 -745q159 -736 159 -746v-11q0 -33 -40 -52q-10 -4 -29 -4h-138q-53 0 -67 49q0 4 -37 174h-285q-37 -173 -40 -186q-18 -37 -64 -37h-138q-49 0 -66 40q-4 15 -4 23q3 19 212 993q1 7 108 505q20 39 52 39zM454 886q0 -3 -84 -394h169
q-84 391 -84 394h-1zM190 2044q16 0 49 -25q42 -26 86 -26q31 0 173 38q56 11 103 11h6q74 0 138 -27q18 -15 18 -37v-177q0 -28 -26 -41q-10 -5 -19 -5q-12 0 -54 24q-35 15 -73 15q-39 0 -166 -35q-62 -14 -112 -14h-9q-69 0 -138 29q-21 15 -21 37v190q0 31 34 41
q4 2 11 2z" />
    <glyph glyph-name="Adieresis" unicode="&#xc4;" horiz-adv-x="937" 
d="M372 1600h165q33 0 53 -42l159 -745q159 -736 159 -746v-11q0 -33 -40 -52q-10 -4 -29 -4h-138q-53 0 -67 49q0 4 -37 174h-285q-37 -173 -40 -186q-18 -37 -64 -37h-138q-49 0 -66 40q-4 15 -4 23q3 19 212 993q1 7 108 505q20 39 52 39zM454 886q0 -3 -84 -394h169
q-84 391 -84 394h-1zM183 2003h167q41 0 50 -35q1 -2 1 -9v-178q0 -30 -34 -43q-10 -1 -17 -1h-167q-35 0 -47 35v189q0 27 32 40q5 2 15 2zM554 2003h167q41 0 50 -35q1 -2 1 -9v-178q0 -30 -34 -43q-10 -1 -17 -1h-167q-35 0 -47 35v189q0 27 32 40q5 2 15 2z" />
    <glyph glyph-name="Aring" unicode="&#xc5;" horiz-adv-x="1000" 
d="M422 1600h165q33 0 53 -42l159 -745q159 -736 159 -746v-11q0 -33 -40 -52q-10 -4 -29 -4h-138q-53 0 -67 49q0 4 -37 174h-285q-37 -173 -40 -186q-18 -37 -64 -37h-138q-49 0 -66 40q-4 15 -4 23q3 19 212 993q1 7 108 505q20 39 52 39zM504 886q0 -3 -84 -394h169
q-84 391 -84 394h-1zM505 2233q106 0 179 -93q41 -59 41 -127v-3q0 -114 -105 -187q-57 -33 -116 -33q-103 0 -176 87q-44 63 -44 130v9q0 107 100 181q60 36 121 36zM449 2010q0 -35 39 -51q5 -2 16 -2h1q41 0 54 45v13q0 38 -46 52h-9q-48 0 -55 -57z" />
    <glyph glyph-name="AE" unicode="&#xc6;" horiz-adv-x="1222" 
d="M372 1600h682q36 0 54 -43q2 -5 2 -13v-157q0 -36 -43 -55q-8 -2 -14 -2h-237q-1 0 -1 -2v-391q0 -2 1 -2h139q10 0 24 1q24 0 47 -26q11 -18 11 -41v-127q0 -49 -24 -63q-15 -13 -34 -13h-163q-1 -1 -1 -2v-391q0 -2 1 -2h213q10 0 24 1q25 0 47 -28q10 -14 10 -29v-157
q0 -37 -43 -55q-8 -2 -14 -2h-51q-149 0 -397 -1q-40 0 -58 43q-3 11 -3 21v85h-248q-20 -102 -26 -117q-20 -32 -62 -32h-138q-49 0 -66 40q-4 15 -4 23q3 19 215 1006l105 491q20 40 52 40zM543 1299q-1 -9 -188 -881h189v881h-1z" />
    <glyph glyph-name="Ccedilla" unicode="&#xc7;" horiz-adv-x="1000" 
d="M392 1600h31q81 0 172 -52q107 -68 150 -189q19 -57 19 -100v-168q0 -38 -46 -55q-10 -2 -20 -2h-138q-52 0 -66 51q-1 10 -1 16v148q0 36 -35 64q-22 16 -47 16h-7q-48 0 -74 -49q-9 -8 -9 -75v-809q0 -67 6 -67q9 -28 38 -47q22 -10 39 -10h7q50 0 77 54q5 16 5 27v147
q0 52 51 66q10 1 16 1h138q45 0 63 -40q3 -9 3 -17v-168q0 -88 -61 -185q-14 -25 -69 -76q-105 -81 -227 -81q-139 0 -249 101q-51 54 -66 90q-19 33 -30 79q-8 21 -12 81q1 24 1 36v828q0 13 -1 33q0 94 57 190q66 102 193 146q54 16 92 16zM317 221h54q43 0 58 -37
q2 -10 2 -18v-238q148 0 235 -114q54 -77 54 -157v-16q0 -100 -81 -188q-60 -56 -117 -71q-38 -11 -100 -11h-105q-46 0 -57 46v75q0 33 39 49q11 2 18 2h128q39 0 63 40q9 17 9 34q0 45 -46 69q-14 6 -26 6h-128q-46 0 -57 46v432q0 33 39 49q11 2 18 2z" />
    <glyph glyph-name="Egrave" unicode="&#xc8;" horiz-adv-x="723" 
d="M157 1600h453q36 0 54 -43q2 -5 2 -13v-157q0 -36 -43 -55q-8 -2 -14 -2h-236q-2 0 -2 -2v-391q0 -2 2 -2h138q10 0 24 1q25 0 47 -27q11 -15 11 -40v-127q0 -46 -21 -61q-17 -15 -37 -15h-162q-2 -1 -2 -2v-391q0 -2 2 -2h212q10 0 24 1q25 0 47 -28q10 -14 10 -29v-157
q0 -37 -43 -55q-8 -2 -14 -2h-51q-141 0 -398 -1q-31 0 -52 32q-6 10 -8 26q1 248 1 393v692q0 146 -1 400q0 25 28 47q14 10 29 10zM422 2168q76 -379 76 -385v-6q0 -6 -2 -14q-16 -45 -64 -45h-59q-43 0 -62 28q-7 13 -133 330q-25 56 -25 72q0 11 3 21q18 42 63 42h139
q46 0 64 -43z" />
    <glyph glyph-name="Eacute" unicode="&#xc9;" horiz-adv-x="723" 
d="M157 1600h453q36 0 54 -43q2 -5 2 -13v-157q0 -36 -43 -55q-8 -2 -14 -2h-236q-2 0 -2 -2v-391q0 -2 2 -2h138q10 0 24 1q25 0 47 -27q11 -15 11 -40v-127q0 -46 -21 -61q-17 -15 -37 -15h-162q-2 -1 -2 -2v-391q0 -2 2 -2h212q10 0 24 1q25 0 47 -28q10 -14 10 -29v-157
q0 -37 -43 -55q-8 -2 -14 -2h-51q-141 0 -398 -1q-31 0 -52 32q-6 10 -8 26q1 248 1 393v692q0 146 -1 400q0 25 28 47q14 10 29 10zM408 2211h139q45 0 63 -42q3 -10 3 -21q0 -16 -25 -72q-126 -317 -133 -330q-19 -28 -62 -28h-59q-48 0 -64 45q-2 8 -2 14v6q0 6 76 385
q17 43 64 43z" />
    <glyph glyph-name="Ecircumflex" unicode="&#xca;" horiz-adv-x="723" 
d="M157 1600h453q36 0 54 -43q2 -5 2 -13v-157q0 -36 -43 -55q-8 -2 -14 -2h-236q-2 0 -2 -2v-391q0 -2 2 -2h138q10 0 24 1q25 0 47 -27q11 -15 11 -40v-127q0 -46 -21 -61q-17 -15 -37 -15h-162q-2 -1 -2 -2v-391q0 -2 2 -2h212q10 0 24 1q25 0 47 -28q10 -14 10 -29v-157
q0 -37 -43 -55q-8 -2 -14 -2h-51q-141 0 -398 -1q-31 0 -52 32q-6 10 -8 26q1 248 1 393v692q0 146 -1 400q0 25 28 47q14 10 29 10zM380 2054h2q23 0 66 -29q214 -122 231 -135q21 -21 21 -45q0 -22 -29 -67q-23 -45 -39 -50q-13 -9 -28 -9h-2q-13 0 -76 19l-143 41
q-202 -58 -216 -60h-5q-42 0 -65 54q-32 47 -32 72q0 42 51 64q235 138 246 142q11 3 18 3z" />
    <glyph glyph-name="Edieresis" unicode="&#xcb;" horiz-adv-x="723" 
d="M157 1600h453q36 0 54 -43q2 -5 2 -13v-157q0 -36 -43 -55q-8 -2 -14 -2h-236q-2 0 -2 -2v-391q0 -2 2 -2h138q10 0 24 1q25 0 47 -27q11 -15 11 -40v-127q0 -46 -21 -61q-17 -15 -37 -15h-162q-2 -1 -2 -2v-391q0 -2 2 -2h212q10 0 24 1q25 0 47 -28q10 -14 10 -29v-157
q0 -37 -43 -55q-8 -2 -14 -2h-51q-141 0 -398 -1q-31 0 -52 32q-6 10 -8 26q1 248 1 393v692q0 146 -1 400q0 25 28 47q14 10 29 10zM112 2003h167q41 0 50 -35q1 -2 1 -9v-178q0 -30 -34 -43q-10 -1 -17 -1h-167q-35 0 -47 35v189q0 27 32 40q5 2 15 2zM483 2003h167
q41 0 50 -35q1 -2 1 -9v-178q0 -30 -34 -43q-10 -1 -17 -1h-167q-35 0 -47 35v189q0 27 32 40q5 2 15 2z" />
    <glyph glyph-name="Igrave" unicode="&#xcc;" horiz-adv-x="470" 
d="M157 1600h157q36 0 55 -43q2 -8 2 -14v-1461q0 -10 1 -24q0 -25 -28 -47q-15 -11 -39 -11h-127q-47 0 -62 22q-15 17 -15 36v1461q0 10 -1 24q0 25 28 47q14 10 29 10zM235 2168q76 -379 76 -385v-6q0 -6 -2 -14q-16 -45 -64 -45h-59q-43 0 -62 28q-7 13 -133 330
q-25 56 -25 72q0 11 3 21q18 42 63 42h139q46 0 64 -43z" />
    <glyph glyph-name="Iacute" unicode="&#xcd;" horiz-adv-x="470" 
d="M157 1600h157q36 0 55 -43q2 -8 2 -14v-1461q0 -10 1 -24q0 -25 -28 -47q-15 -11 -39 -11h-127q-47 0 -62 22q-15 17 -15 36v1461q0 10 -1 24q0 25 28 47q14 10 29 10zM261 2211h139q45 0 63 -42q3 -10 3 -21q0 -16 -25 -72q-126 -317 -133 -330q-19 -28 -62 -28h-59
q-48 0 -64 45q-2 8 -2 14v6q0 6 76 385q17 43 64 43z" />
    <glyph glyph-name="Icircumflex" unicode="&#xce;" horiz-adv-x="470" 
d="M157 1600h157q36 0 55 -43q2 -8 2 -14v-1461q0 -10 1 -24q0 -25 -28 -47q-15 -11 -39 -11h-127q-47 0 -62 22q-15 17 -15 36v1461q0 10 -1 24q0 25 28 47q14 10 29 10zM233 2054h2q23 0 66 -29q214 -122 231 -135q21 -21 21 -45q0 -22 -29 -67q-23 -45 -39 -50
q-13 -9 -28 -9h-2q-13 0 -76 19l-143 41q-202 -58 -216 -60h-5q-42 0 -65 54q-32 47 -32 72q0 42 51 64q235 138 246 142q11 3 18 3z" />
    <glyph glyph-name="Idieresis" unicode="&#xcf;" horiz-adv-x="470" 
d="M157 1600h157q36 0 55 -43q2 -8 2 -14v-1461q0 -10 1 -24q0 -25 -28 -47q-15 -11 -39 -11h-127q-47 0 -62 22q-15 17 -15 36v1461q0 10 -1 24q0 25 28 47q14 10 29 10zM-35 2003h167q41 0 50 -35q1 -2 1 -9v-178q0 -30 -34 -43q-10 -1 -17 -1h-167q-35 0 -47 35v189
q0 27 32 40q5 2 15 2zM336 2003h167q41 0 50 -35q1 -2 1 -9v-178q0 -30 -34 -43q-10 -1 -17 -1h-167q-35 0 -47 35v189q0 27 32 40q5 2 15 2z" />
    <glyph glyph-name="Eth" unicode="&#xd0;" horiz-adv-x="953" 
d="M207 1600h316q81 0 172 -52q107 -68 150 -189q19 -57 19 -100v-917q0 -69 -41 -153q-20 -40 -75 -96q-72 -61 -150 -81q-52 -12 -86 -12q-3 0 -24 1q-201 -1 -270 -1q-49 0 -64 42q-3 8 -4 17v1484q0 25 28 47q14 10 29 10zM421 1328v-1055q0 -2 2 -2h46q67 0 67 6
q28 9 47 38q11 18 11 68v822q0 67 -6 67q-9 28 -38 47q-18 11 -68 11h-59q-2 0 -2 -2zM84 933h375q29 0 40 -35v-193q-8 -38 -50 -38h-352q-36 0 -47 28q-4 8 -4 23v165q0 42 38 50z" />
    <glyph glyph-name="Ntilde" unicode="&#xd1;" horiz-adv-x="1100" 
d="M107 1600h171q34 0 54 -41l235 -681h1v641q0 10 -1 24q0 25 28 47q14 10 29 10h157q36 0 55 -43q2 -8 2 -14v-1461q0 -10 1 -24q0 -25 -28 -47q-15 -11 -39 -11h-135q-48 0 -65 38l-250 716h-1v-672q0 -10 1 -24q0 -25 -28 -47q-15 -11 -39 -11h-127q-47 0 -62 22
q-15 17 -15 36v1461q0 10 -1 24q0 25 28 47q14 10 29 10zM177 2090q16 0 49 -25q42 -26 86 -26q31 0 173 38q56 11 103 11h6q74 0 138 -27q18 -15 18 -37v-177q0 -28 -26 -41q-10 -5 -19 -5q-12 0 -54 24q-35 15 -73 15q-39 0 -166 -35q-62 -14 -112 -14h-9q-69 0 -138 29
q-21 15 -21 37v190q0 31 34 41q4 2 11 2z" />
    <glyph glyph-name="Ograve" unicode="&#xd2;" horiz-adv-x="930" 
d="M442 1600h31q80 0 172 -52q107 -68 150 -189q19 -57 19 -100v-917q0 -87 -60 -184q-19 -28 -59 -67q-107 -91 -238 -91q-139 0 -249 101q-51 54 -66 90q-19 33 -30 79q-8 21 -12 81v897q0 94 57 190q66 102 193 146q54 16 92 16zM371 1205v-809q0 -67 6 -67q9 -28 38 -47
q22 -10 39 -10h7q49 0 77 54q5 16 5 27v895q0 49 -54 76q-16 5 -28 5h-7q-48 0 -74 -49q-9 -8 -9 -75zM456 2168q76 -379 76 -385v-6q0 -6 -2 -14q-16 -45 -64 -45h-59q-43 0 -62 28q-7 13 -133 330q-25 56 -25 72q0 11 3 21q18 42 63 42h139q46 0 64 -43z" />
    <glyph glyph-name="Oacute" unicode="&#xd3;" horiz-adv-x="930" 
d="M442 1600h31q80 0 172 -52q107 -68 150 -189q19 -57 19 -100v-917q0 -87 -60 -184q-19 -28 -59 -67q-107 -91 -238 -91q-139 0 -249 101q-51 54 -66 90q-19 33 -30 79q-8 21 -12 81v897q0 94 57 190q66 102 193 146q54 16 92 16zM371 1205v-809q0 -67 6 -67q9 -28 38 -47
q22 -10 39 -10h7q49 0 77 54q5 16 5 27v895q0 49 -54 76q-16 5 -28 5h-7q-48 0 -74 -49q-9 -8 -9 -75zM512 2211h139q45 0 63 -42q3 -10 3 -21q0 -16 -25 -72q-126 -317 -133 -330q-19 -28 -62 -28h-59q-48 0 -64 45q-2 8 -2 14v6q0 6 76 385q17 43 64 43z" />
    <glyph glyph-name="Ocircumflex" unicode="&#xd4;" horiz-adv-x="930" 
d="M442 1600h31q80 0 172 -52q107 -68 150 -189q19 -57 19 -100v-917q0 -87 -60 -184q-19 -28 -59 -67q-107 -91 -238 -91q-139 0 -249 101q-51 54 -66 90q-19 33 -30 79q-8 21 -12 81v897q0 94 57 190q66 102 193 146q54 16 92 16zM371 1205v-809q0 -67 6 -67q9 -28 38 -47
q22 -10 39 -10h7q49 0 77 54q5 16 5 27v895q0 49 -54 76q-16 5 -28 5h-7q-48 0 -74 -49q-9 -8 -9 -75zM454 2054h2q23 0 66 -29q214 -122 231 -135q21 -21 21 -45q0 -22 -29 -67q-23 -45 -39 -50q-13 -9 -28 -9h-2q-13 0 -76 19l-143 41q-202 -58 -216 -60h-5q-42 0 -65 54
q-32 47 -32 72q0 42 51 64q235 138 246 142q11 3 18 3z" />
    <glyph glyph-name="Otilde" unicode="&#xd5;" horiz-adv-x="930" 
d="M442 1600h31q80 0 172 -52q107 -68 150 -189q19 -57 19 -100v-917q0 -87 -60 -184q-19 -28 -59 -67q-107 -91 -238 -91q-139 0 -249 101q-51 54 -66 90q-19 33 -30 79q-8 21 -12 81v897q0 94 57 190q66 102 193 146q54 16 92 16zM371 1205v-809q0 -67 6 -67q9 -28 38 -47
q22 -10 39 -10h7q49 0 77 54q5 16 5 27v895q0 49 -54 76q-16 5 -28 5h-7q-48 0 -74 -49q-9 -8 -9 -75zM193 2044q16 0 49 -25q42 -26 86 -26q31 0 173 38q56 11 103 11h6q74 0 138 -27q18 -15 18 -37v-177q0 -28 -26 -41q-10 -5 -19 -5q-12 0 -54 24q-35 15 -73 15
q-39 0 -166 -35q-62 -14 -112 -14h-9q-69 0 -138 29q-21 15 -21 37v190q0 31 34 41q4 2 11 2z" />
    <glyph glyph-name="Odieresis" unicode="&#xd6;" horiz-adv-x="930" 
d="M442 1600h31q80 0 172 -52q107 -68 150 -189q19 -57 19 -100v-917q0 -87 -60 -184q-19 -28 -59 -67q-107 -91 -238 -91q-139 0 -249 101q-51 54 -66 90q-19 33 -30 79q-8 21 -12 81v897q0 94 57 190q66 102 193 146q54 16 92 16zM371 1205v-809q0 -67 6 -67q9 -28 38 -47
q22 -10 39 -10h7q49 0 77 54q5 16 5 27v895q0 49 -54 76q-16 5 -28 5h-7q-48 0 -74 -49q-9 -8 -9 -75zM186 2003h167q41 0 50 -35q1 -2 1 -9v-178q0 -30 -34 -43q-10 -1 -17 -1h-167q-35 0 -47 35v189q0 27 32 40q5 2 15 2zM557 2003h167q41 0 50 -35q1 -2 1 -9v-178
q0 -30 -34 -43q-10 -1 -17 -1h-167q-35 0 -47 35v189q0 27 32 40q5 2 15 2z" />
    <glyph glyph-name="multiply" unicode="&#xd7;" horiz-adv-x="959" 
d="M267 1176q31 0 63 -40q142 -141 145 -144q173 174 175 174q17 10 35 10q32 0 68 -44q93 -89 93 -100q4 -12 4 -24q0 -31 -39 -63l-144 -145q173 -173 173 -175q10 -17 10 -32q0 -35 -42 -69q-91 -94 -100 -94q-13 -5 -25 -5q-31 0 -66 43l-142 140q-173 -173 -175 -173
q-17 -10 -35 -10q-31 0 -63 40q-95 93 -95 98q-7 16 -7 30q0 31 42 66l141 141q-173 174 -173 176q-10 18 -10 34q0 32 42 66q90 93 96 93q15 7 29 7z" />
    <glyph glyph-name="Oslash" unicode="&#xd8;" horiz-adv-x="927" 
d="M379 1746h156q38 0 56 -45q2 -16 2 -32v-97q126 -52 188 -178q33 -76 33 -137v-917q0 -87 -59 -183q-63 -92 -162 -132v-108q0 -47 -43 -64q-14 -2 -14 -3q-16 1 -24 1h-132q-37 0 -55 43q-3 12 -3 32v99q-11 0 -72 40q-80 62 -108 124q-19 32 -30 79q-8 21 -12 80
q1 25 1 37v828q0 13 -1 34q0 104 68 205q64 80 123 105q10 7 31 15v108q0 45 40 63q9 3 17 3zM371 394q0 -67 6 -67q10 -30 36 -46q21 -11 39 -11h11q36 0 64 35q16 22 16 46v895q0 47 -49 74q-16 7 -31 7h-11q-41 0 -70 -44q-11 -14 -11 -73v-816z" />
    <glyph glyph-name="Ugrave" unicode="&#xd9;" horiz-adv-x="902" 
d="M164 1600h147q38 0 57 -41q1 -5 3 -16q-1 -15 -1 -22v-1127q0 -64 10 -76q28 -46 74 -46h6q50 0 77 53q6 14 6 29v1180q0 48 45 64q9 2 15 2h151q40 0 58 -46q2 -13 2 -21v-1149q0 -119 -39 -188q-67 -129 -205 -177q-59 -19 -113 -19q-150 0 -265 117q-63 72 -84 165
q-8 38 -8 98v1143q0 47 22 61q16 16 42 16zM466 2168q76 -379 76 -385v-6q0 -6 -2 -14q-16 -45 -64 -45h-59q-43 0 -62 28q-7 13 -133 330q-25 56 -25 72q0 11 3 21q18 42 63 42h139q46 0 64 -43z" />
    <glyph glyph-name="Uacute" unicode="&#xda;" horiz-adv-x="902" 
d="M164 1600h147q38 0 57 -41q1 -5 3 -16q-1 -15 -1 -22v-1127q0 -64 10 -76q28 -46 74 -46h6q50 0 77 53q6 14 6 29v1180q0 48 45 64q9 2 15 2h151q40 0 58 -46q2 -13 2 -21v-1149q0 -119 -39 -188q-67 -129 -205 -177q-59 -19 -113 -19q-150 0 -265 117q-63 72 -84 165
q-8 38 -8 98v1143q0 47 22 61q16 16 42 16zM502 2211h139q45 0 63 -42q3 -10 3 -21q0 -16 -25 -72q-126 -317 -133 -330q-19 -28 -62 -28h-59q-48 0 -64 45q-2 8 -2 14v6q0 6 76 385q17 43 64 43z" />
    <glyph glyph-name="Ucircumflex" unicode="&#xdb;" horiz-adv-x="902" 
d="M164 1600h147q38 0 57 -41q1 -5 3 -16q-1 -15 -1 -22v-1127q0 -64 10 -76q28 -46 74 -46h6q50 0 77 53q6 14 6 29v1180q0 48 45 64q9 2 15 2h151q40 0 58 -46q2 -13 2 -21v-1149q0 -119 -39 -188q-67 -129 -205 -177q-59 -19 -113 -19q-150 0 -265 117q-63 72 -84 165
q-8 38 -8 98v1143q0 47 22 61q16 16 42 16zM454 2054h2q23 0 66 -29q214 -122 231 -135q21 -21 21 -45q0 -22 -29 -67q-23 -45 -39 -50q-13 -9 -28 -9h-2q-13 0 -76 19l-143 41q-202 -58 -216 -60h-5q-42 0 -65 54q-32 47 -32 72q0 42 51 64q235 138 246 142q11 3 18 3z" />
    <glyph glyph-name="Udieresis" unicode="&#xdc;" horiz-adv-x="902" 
d="M164 1600h147q38 0 57 -41q1 -5 3 -16q-1 -15 -1 -22v-1127q0 -64 10 -76q28 -46 74 -46h6q50 0 77 53q6 14 6 29v1180q0 48 45 64q9 2 15 2h151q40 0 58 -46q2 -13 2 -21v-1149q0 -119 -39 -188q-67 -129 -205 -177q-59 -19 -113 -19q-150 0 -265 117q-63 72 -84 165
q-8 38 -8 98v1143q0 47 22 61q16 16 42 16zM186 2003h167q41 0 50 -35q1 -2 1 -9v-178q0 -30 -34 -43q-10 -1 -17 -1h-167q-35 0 -47 35v189q0 27 32 40q5 2 15 2zM557 2003h167q41 0 50 -35q1 -2 1 -9v-178q0 -30 -34 -43q-10 -1 -17 -1h-167q-35 0 -47 35v189q0 27 32 40
q5 2 15 2z" />
    <glyph glyph-name="Yacute" unicode="&#xdd;" horiz-adv-x="861" 
d="M103 1600h157q40 0 57 -44q118 -417 118 -418v0q1 7 120 426q21 36 55 36h161q36 0 55 -39q4 -10 4 -20v-5q0 -9 -26 -94q-228 -744 -234 -768v-615q0 -35 -38 -54q-11 -5 -28 -5h-138q-55 0 -66 57v616q-6 22 -253 834q-7 18 -7 28v7q0 38 45 56q10 2 18 2zM460 2211
h139q45 0 63 -42q3 -10 3 -21q0 -16 -25 -72q-126 -317 -133 -330q-19 -28 -62 -28h-59q-48 0 -64 45q-2 8 -2 14v6q0 6 76 385q17 43 64 43z" />
    <glyph glyph-name="Thorn" unicode="&#xde;" horiz-adv-x="926" 
d="M157 1400h316q81 0 175 -54q94 -59 142 -173q25 -67 25 -124q-1 -23 -1 -34v-311q0 -14 1 -36q0 -83 -47 -171q-16 -31 -67 -85q-66 -62 -170 -87q-45 -8 -70 -8q-19 1 -33 1h-55q-2 0 -2 -2v-434q0 -10 1 -24q0 -25 -28 -47q-15 -11 -39 -11h-127q-47 0 -62 22
q-15 17 -15 36v276q0 211 -1 311q1 128 1 330v168q0 150 -1 399q0 35 42 56q10 2 15 2zM371 1128v-538q0 -2 2 -2h46q67 0 67 6q28 9 47 38q11 18 11 68v305q0 67 -6 67q-9 28 -38 47q-18 11 -68 11h-59q-2 0 -2 -2zM157 1600h157q36 0 55 -43q2 -8 2 -14v-1461q0 -10 1 -24
q0 -25 -28 -47q-15 -11 -39 -11h-127q-47 0 -62 22q-15 17 -15 36v1461q0 10 -1 24q0 25 28 47q14 10 29 10z" />
    <glyph glyph-name="germandbls" unicode="&#xdf;" horiz-adv-x="917" 
d="M441 1600h31q81 0 171 -52q40 -23 85 -73q28 -33 42 -62q21 -36 33 -84q11 -37 11 -107v-178q0 -112 -39 -182q-17 -34 -38 -62q46 -62 61 -119q16 -42 16 -124v-178q0 -103 -32 -168q-56 -120 -175 -178q-74 -33 -154 -33q-27 0 -49 30q-10 11 -10 48v116q0 47 22 62
q16 17 59 17q38 11 54 38q14 15 14 75v180q0 6 -1 14l1 2q0 33 -31 64q-24 20 -68 20q-26 7 -39 26q-11 15 -11 43v131q0 50 41 66q12 4 44 6q34 11 51 39q13 15 13 74v180q0 5 -1 14l1 2q0 31 -28 61q-26 21 -55 21h-7q-49 0 -76 -53q-6 -17 -6 -28v-1181q0 -47 -44 -64
q-13 -3 -32 -3h-129q-53 0 -66 53v1196q0 137 105 249q63 56 107 71q70 31 129 31z" />
    <glyph glyph-name="agrave" unicode="&#xe0;" 
d="M457 1380q139 0 249 -102q54 -58 66 -89q19 -33 31 -80q11 -51 11 -79q-1 -25 -1 -37v-935q0 -38 -45 -56q-16 -2 -32 -2h-127q-29 0 -48 18q-55 -15 -99 -15h-10q-132 0 -242 98q-54 56 -75 105q-35 66 -35 179v173q0 122 45 194q14 31 58 79q111 106 254 106
q41 0 87 -11v60q0 67 -11 78q-18 29 -44 38q-11 5 -30 7l-2 -1q-1 0 -1 1q-48 0 -78 -50q-6 -12 -9 -52q-9 -28 -30 -38q-13 -8 -39 -8h-128q-54 0 -69 43q-3 15 -3 17q0 159 125 273q106 86 232 86zM371 584v-228q0 -51 56 -78q18 -5 26 -5h8q47 0 76 53q7 12 7 70v148
q0 66 -11 78q-29 45 -76 45q-52 0 -80 -53q-6 -17 -6 -30zM496 1950q76 -379 76 -385v-6q0 -6 -2 -14q-16 -45 -64 -45h-59q-43 0 -62 28q-7 13 -133 330q-25 56 -25 72q0 11 3 21q18 42 63 42h139q46 0 64 -43z" />
    <glyph glyph-name="aacute" unicode="&#xe1;" 
d="M457 1380q139 0 249 -102q54 -58 66 -89q19 -33 31 -80q11 -51 11 -79q-1 -25 -1 -37v-935q0 -38 -45 -56q-16 -2 -32 -2h-127q-29 0 -48 18q-55 -15 -99 -15h-10q-132 0 -242 98q-54 56 -75 105q-35 66 -35 179v173q0 122 45 194q14 31 58 79q111 106 254 106
q41 0 87 -11v60q0 67 -11 78q-18 29 -44 38q-11 5 -30 7l-2 -1q-1 0 -1 1q-48 0 -78 -50q-6 -12 -9 -52q-9 -28 -30 -38q-13 -8 -39 -8h-128q-54 0 -69 43q-3 15 -3 17q0 159 125 273q106 86 232 86zM371 584v-228q0 -51 56 -78q18 -5 26 -5h8q47 0 76 53q7 12 7 70v148
q0 66 -11 78q-29 45 -76 45q-52 0 -80 -53q-6 -17 -6 -30zM482 1993h139q45 0 63 -42q3 -10 3 -21q0 -16 -25 -72q-126 -317 -133 -330q-19 -28 -62 -28h-59q-48 0 -64 45q-2 8 -2 14v6q0 6 76 385q17 43 64 43z" />
    <glyph glyph-name="acircumflex" unicode="&#xe2;" 
d="M457 1380q139 0 249 -102q54 -58 66 -89q19 -33 31 -80q11 -51 11 -79q-1 -25 -1 -37v-935q0 -38 -45 -56q-16 -2 -32 -2h-127q-29 0 -48 18q-55 -15 -99 -15h-10q-132 0 -242 98q-54 56 -75 105q-35 66 -35 179v173q0 122 45 194q14 31 58 79q111 106 254 106
q41 0 87 -11v60q0 67 -11 78q-18 29 -44 38q-11 5 -30 7l-2 -1q-1 0 -1 1q-48 0 -78 -50q-6 -12 -9 -52q-9 -28 -30 -38q-13 -8 -39 -8h-128q-54 0 -69 43q-3 15 -3 17q0 159 125 273q106 86 232 86zM371 584v-228q0 -51 56 -78q18 -5 26 -5h8q47 0 76 53q7 12 7 70v148
q0 66 -11 78q-29 45 -76 45q-52 0 -80 -53q-6 -17 -6 -30zM454 1836h2q23 0 66 -29q214 -122 231 -135q21 -21 21 -45q0 -22 -29 -67q-23 -45 -39 -50q-13 -9 -28 -9h-2q-13 0 -76 19l-143 41q-202 -58 -216 -60h-5q-42 0 -65 54q-32 47 -32 72q0 42 51 64q235 138 246 142
q11 3 18 3z" />
    <glyph glyph-name="atilde" unicode="&#xe3;" 
d="M457 1380q139 0 249 -102q54 -58 66 -89q19 -33 31 -80q11 -51 11 -79q-1 -25 -1 -37v-935q0 -38 -45 -56q-16 -2 -32 -2h-127q-29 0 -48 18q-55 -15 -99 -15h-10q-132 0 -242 98q-54 56 -75 105q-35 66 -35 179v173q0 122 45 194q14 31 58 79q111 106 254 106
q41 0 87 -11v60q0 67 -11 78q-18 29 -44 38q-11 5 -30 7l-2 -1q-1 0 -1 1q-48 0 -78 -50q-6 -12 -9 -52q-9 -28 -30 -38q-13 -8 -39 -8h-128q-54 0 -69 43q-3 15 -3 17q0 159 125 273q106 86 232 86zM371 584v-228q0 -51 56 -78q18 -5 26 -5h8q47 0 76 53q7 12 7 70v148
q0 66 -11 78q-29 45 -76 45q-52 0 -80 -53q-6 -17 -6 -30zM193 1826q16 0 49 -25q42 -26 86 -26q31 0 173 38q56 11 103 11h6q74 0 138 -27q18 -15 18 -37v-177q0 -28 -26 -41q-10 -5 -19 -5q-12 0 -54 24q-35 15 -73 15q-39 0 -166 -35q-62 -14 -112 -14h-9q-69 0 -138 29
q-21 15 -21 37v190q0 31 34 41q4 2 11 2z" />
    <glyph glyph-name="adieresis" unicode="&#xe4;" 
d="M457 1380q139 0 249 -102q54 -58 66 -89q19 -33 31 -80q11 -51 11 -79q-1 -25 -1 -37v-935q0 -38 -45 -56q-16 -2 -32 -2h-127q-29 0 -48 18q-55 -15 -99 -15h-10q-132 0 -242 98q-54 56 -75 105q-35 66 -35 179v173q0 122 45 194q14 31 58 79q111 106 254 106
q41 0 87 -11v60q0 67 -11 78q-18 29 -44 38q-11 5 -30 7l-2 -1q-1 0 -1 1q-48 0 -78 -50q-6 -12 -9 -52q-9 -28 -30 -38q-13 -8 -39 -8h-128q-54 0 -69 43q-3 15 -3 17q0 159 125 273q106 86 232 86zM371 584v-228q0 -51 56 -78q18 -5 26 -5h8q47 0 76 53q7 12 7 70v148
q0 66 -11 78q-29 45 -76 45q-52 0 -80 -53q-6 -17 -6 -30zM186 1785h167q41 0 50 -35q1 -2 1 -9v-178q0 -30 -34 -43q-10 -1 -17 -1h-167q-35 0 -47 35v189q0 27 32 40q5 2 15 2zM557 1785h167q41 0 50 -35q1 -2 1 -9v-178q0 -30 -34 -43q-10 -1 -17 -1h-167q-35 0 -47 35
v189q0 27 32 40q5 2 15 2z" />
    <glyph glyph-name="aring" unicode="&#xe5;" 
d="M457 1380q139 0 249 -102q54 -58 66 -89q19 -33 31 -80q11 -51 11 -79q-1 -25 -1 -37v-935q0 -38 -45 -56q-16 -2 -32 -2h-127q-29 0 -48 18q-55 -15 -99 -15h-10q-132 0 -242 98q-54 56 -75 105q-35 66 -35 179v173q0 122 45 194q14 31 58 79q111 106 254 106
q41 0 87 -11v60q0 67 -11 78q-18 29 -44 38q-11 5 -30 7l-2 -1q-1 0 -1 1q-48 0 -78 -50q-6 -12 -9 -52q-9 -28 -30 -38q-13 -8 -39 -8h-128q-54 0 -69 43q-3 15 -3 17q0 159 125 273q106 86 232 86zM371 584v-228q0 -51 56 -78q18 -5 26 -5h8q47 0 76 53q7 12 7 70v148
q0 66 -11 78q-29 45 -76 45q-52 0 -80 -53q-6 -17 -6 -30zM458 1969q106 0 179 -93q41 -59 41 -127v-3q0 -114 -105 -187q-57 -33 -116 -33q-103 0 -176 87q-44 63 -44 130v9q0 107 100 181q60 36 121 36zM402 1746q0 -35 39 -51q5 -2 16 -2h1q41 0 54 45v13q0 38 -46 52h-9
q-48 0 -55 -57z" />
    <glyph glyph-name="ae" unicode="&#xe6;" horiz-adv-x="1377" 
d="M457 1380q139 0 249 -102q54 -58 66 -89q19 -33 31 -80q11 -51 11 -79q-1 -25 -1 -37v-935q0 -38 -45 -56q-16 -2 -32 -2h-127q-29 0 -48 18q-55 -15 -99 -15h-10q-132 0 -242 98q-54 56 -75 105q-35 66 -35 179v173q0 122 45 194q14 31 58 79q111 106 254 106
q41 0 87 -11v60q0 67 -11 78q-18 29 -44 38q-11 5 -30 7l-2 -1q-1 0 -1 1q-48 0 -78 -50q-6 -12 -9 -52q-9 -28 -30 -38q-13 -8 -39 -8h-128q-54 0 -69 43q-3 15 -3 17q0 159 125 273q106 86 232 86zM371 584v-228q0 -51 56 -78q18 -5 26 -5h8q47 0 76 53q7 12 7 70v148
q0 66 -11 78q-29 45 -76 45q-52 0 -80 -53q-6 -17 -6 -30zM893 1379q147 0 260 -112q43 -50 58 -83q17 -32 28 -70q12 -45 12 -118v-415q0 -47 -50 -63q-9 -1 -14 -1h-379v-164q0 -49 54 -76q15 -5 27 -5h8q49 0 77 54q5 14 7 48q17 45 65 45h138q47 0 64 -43q2 -9 3 -17
q0 -158 -125 -273q-107 -86 -233 -86q-155 0 -270 124q-58 66 -81 169q-6 32 -6 90v613q0 122 41 190q58 116 190 171q68 22 126 22zM808 1026v-237h171v237q0 49 -54 77q-16 5 -28 5h-8q-49 0 -76 -54q-5 -16 -5 -28z" />
    <glyph glyph-name="ccedilla" unicode="&#xe7;" horiz-adv-x="920" 
d="M457 1377q156 0 270 -124q60 -68 81 -170q6 -30 6 -89v-117q0 -52 -50 -65q-5 -2 -23 -2h-126q-50 0 -68 38q-4 15 -4 29v147q0 48 -53 75q-13 5 -31 7l-2 -1q-1 0 -1 1q-49 0 -79 -52q-6 -18 -6 -30v-671q0 -51 56 -78q18 -5 26 -5h8q47 0 76 53q6 16 6 30v144
q0 49 42 65q11 3 21 3h145q46 0 61 -48q2 -5 2 -20v-117q0 -117 -40 -187q-17 -39 -73 -98q-67 -57 -132 -77q-56 -18 -107 -18h-10q-132 0 -242 98q-54 56 -75 105q-35 66 -35 179v612q0 108 32 174q22 50 73 104q111 105 252 105zM284 221h54q43 0 58 -37q2 -10 2 -18
v-238q148 0 235 -114q54 -77 54 -157v-16q0 -100 -81 -188q-60 -56 -117 -71q-38 -11 -100 -11h-105q-46 0 -57 46v75q0 33 39 49q11 2 18 2h128q39 0 63 40q9 17 9 34q0 45 -46 69q-14 6 -26 6h-128q-46 0 -57 46v432q0 33 39 49q11 2 18 2z" />
    <glyph glyph-name="egrave" unicode="&#xe8;" 
d="M457 1379q147 0 260 -112q43 -50 58 -83q17 -32 28 -70q12 -45 12 -118v-415q0 -47 -50 -63q-9 -1 -14 -1h-379v-164q0 -49 54 -76q15 -5 27 -5h8q49 0 77 54q5 14 7 48q17 45 65 45h138q47 0 64 -43q2 -9 3 -17q0 -158 -125 -273q-107 -86 -233 -86q-155 0 -270 124
q-58 66 -81 169q-6 32 -6 90v613q0 122 41 190q58 116 190 171q68 22 126 22zM372 1026v-237h171v237q0 49 -54 77q-16 5 -28 5h-8q-49 0 -76 -54q-5 -16 -5 -28zM497 1950q76 -379 76 -385v-6q0 -6 -2 -14q-16 -45 -64 -45h-59q-43 0 -62 28q-7 13 -133 330q-25 56 -25 72
q0 11 3 21q18 42 63 42h139q46 0 64 -43z" />
    <glyph glyph-name="eacute" unicode="&#xe9;" 
d="M457 1379q147 0 260 -112q43 -50 58 -83q17 -32 28 -70q12 -45 12 -118v-415q0 -47 -50 -63q-9 -1 -14 -1h-379v-164q0 -49 54 -76q15 -5 27 -5h8q49 0 77 54q5 14 7 48q17 45 65 45h138q47 0 64 -43q2 -9 3 -17q0 -158 -125 -273q-107 -86 -233 -86q-155 0 -270 124
q-58 66 -81 169q-6 32 -6 90v613q0 122 41 190q58 116 190 171q68 22 126 22zM372 1026v-237h171v237q0 49 -54 77q-16 5 -28 5h-8q-49 0 -76 -54q-5 -16 -5 -28zM482 1993h139q45 0 63 -42q3 -10 3 -21q0 -16 -25 -72q-126 -317 -133 -330q-19 -28 -62 -28h-59
q-48 0 -64 45q-2 8 -2 14v6q0 6 76 385q17 43 64 43z" />
    <glyph glyph-name="ecircumflex" unicode="&#xea;" 
d="M457 1379q147 0 260 -112q43 -50 58 -83q17 -32 28 -70q12 -45 12 -118v-415q0 -47 -50 -63q-9 -1 -14 -1h-379v-164q0 -49 54 -76q15 -5 27 -5h8q49 0 77 54q5 14 7 48q17 45 65 45h138q47 0 64 -43q2 -9 3 -17q0 -158 -125 -273q-107 -86 -233 -86q-155 0 -270 124
q-58 66 -81 169q-6 32 -6 90v613q0 122 41 190q58 116 190 171q68 22 126 22zM372 1026v-237h171v237q0 49 -54 77q-16 5 -28 5h-8q-49 0 -76 -54q-5 -16 -5 -28zM455 1836h2q23 0 66 -29q214 -122 231 -135q21 -21 21 -45q0 -22 -29 -67q-23 -45 -39 -50q-13 -9 -28 -9h-2
q-13 0 -76 19l-143 41q-202 -58 -216 -60h-5q-42 0 -65 54q-32 47 -32 72q0 42 51 64q235 138 246 142q11 3 18 3z" />
    <glyph glyph-name="edieresis" unicode="&#xeb;" 
d="M457 1379q147 0 260 -112q43 -50 58 -83q17 -32 28 -70q12 -45 12 -118v-415q0 -47 -50 -63q-9 -1 -14 -1h-379v-164q0 -49 54 -76q15 -5 27 -5h8q49 0 77 54q5 14 7 48q17 45 65 45h138q47 0 64 -43q2 -9 3 -17q0 -158 -125 -273q-107 -86 -233 -86q-155 0 -270 124
q-58 66 -81 169q-6 32 -6 90v613q0 122 41 190q58 116 190 171q68 22 126 22zM372 1026v-237h171v237q0 49 -54 77q-16 5 -28 5h-8q-49 0 -76 -54q-5 -16 -5 -28zM187 1785h167q41 0 50 -35q1 -2 1 -9v-178q0 -30 -34 -43q-10 -1 -17 -1h-167q-35 0 -47 35v189q0 27 32 40
q5 2 15 2zM558 1785h167q41 0 50 -35q1 -2 1 -9v-178q0 -30 -34 -43q-10 -1 -17 -1h-167q-35 0 -47 35v189q0 27 32 40q5 2 15 2z" />
    <glyph glyph-name="igrave" unicode="&#xec;" horiz-adv-x="474" 
d="M178 1376h126q45 0 63 -41q3 -9 3 -16v-1261q0 -38 -45 -56q-16 -2 -32 -2h-126q-47 0 -64 43q-2 14 -3 14q1 16 1 25v1236q0 37 45 56q16 2 32 2zM274 1950q76 -379 76 -385v-6q0 -6 -2 -14q-16 -45 -64 -45h-59q-43 0 -62 28q-7 13 -133 330q-25 56 -25 72q0 11 3 21
q18 42 63 42h139q46 0 64 -43z" />
    <glyph glyph-name="iacute" unicode="&#xed;" horiz-adv-x="474" 
d="M178 1376h126q45 0 63 -41q3 -9 3 -16v-1261q0 -38 -45 -56q-16 -2 -32 -2h-126q-47 0 -64 43q-2 14 -3 14q1 16 1 25v1236q0 37 45 56q16 2 32 2zM260 1993h139q45 0 63 -42q3 -10 3 -21q0 -16 -25 -72q-126 -317 -133 -330q-19 -28 -62 -28h-59q-48 0 -64 45
q-2 8 -2 14v6q0 6 76 385q17 43 64 43z" />
    <glyph glyph-name="icircumflex" unicode="&#xee;" horiz-adv-x="474" 
d="M178 1376h126q45 0 63 -41q3 -9 3 -16v-1261q0 -38 -45 -56q-16 -2 -32 -2h-126q-47 0 -64 43q-2 14 -3 14q1 16 1 25v1236q0 37 45 56q16 2 32 2zM232 1836h2q23 0 66 -29q214 -122 231 -135q21 -21 21 -45q0 -22 -29 -67q-23 -45 -39 -50q-13 -9 -28 -9h-2
q-13 0 -76 19l-143 41q-202 -58 -216 -60h-5q-42 0 -65 54q-32 47 -32 72q0 42 51 64q235 138 246 142q11 3 18 3z" />
    <glyph glyph-name="idieresis" unicode="&#xef;" horiz-adv-x="474" 
d="M148 1376h126q45 0 63 -41q3 -9 3 -16v-1261q0 -38 -45 -56q-16 -2 -32 -2h-126q-47 0 -64 43q-2 14 -3 14q1 16 1 25v1236q0 37 45 56q16 2 32 2zM-71 1785h167q41 0 50 -35q1 -2 1 -9v-178q0 -30 -34 -43q-10 -1 -17 -1h-167q-35 0 -47 35v189q0 27 32 40q5 2 15 2z
M300 1785h167q41 0 50 -35q1 -2 1 -9v-178q0 -30 -34 -43q-10 -1 -17 -1h-167q-35 0 -47 35v189q0 27 32 40q5 2 15 2z" />
    <glyph glyph-name="eth" unicode="&#xf0;" horiz-adv-x="900" 
d="M557 1583q112 -34 185 -128q71 -102 71 -212q-1 -11 -1 -18v-852q0 -6 1 -19q0 -73 -36 -154q-20 -43 -70 -97q-111 -103 -250 -103q-117 0 -218 75q-33 26 -54 52q-85 95 -85 245v338q0 117 49 194q9 24 64 82q108 96 244 96q39 0 85 -11v175q0 10 -6 28q-26 53 -76 53
h-7q-27 0 -50 -19q-23 -17 -31 -48q-2 -29 -4 -35q-15 -46 -64 -46h-137q-13 0 -28 4q-39 22 -39 55q0 171 140 286q102 73 203 73h29q34 0 85 -14zM526 776q-30 36 -67 36q0 -1 -1 -1h-2l-2 1q-26 0 -54 -22q-30 -30 -30 -61q1 -5 1 -9v-367q0 -14 6 -30q27 -52 77 -52h6
q19 0 39 11q43 29 43 70v378q0 22 -16 46zM353 1759q76 -379 76 -385v-6q0 -6 -2 -14q-16 -45 -64 -45h-59q-43 0 -62 28q-7 13 -133 330q-25 56 -25 72q0 11 3 21q18 42 63 42h139q46 0 64 -43z" />
    <glyph glyph-name="ntilde" unicode="&#xf1;" 
d="M176 1377h131q25 0 45 -16h1q55 16 104 16q160 0 275 -130q57 -70 76 -161q5 -37 5 -51v-980q0 -29 -35 -49q-10 -6 -23 -6h-154q-35 0 -54 38q-4 11 -4 28v958q0 48 -53 75q-13 5 -31 7l-2 -1q-1 0 -1 1q-49 0 -79 -52q-6 -18 -6 -30v-964q0 -42 -48 -59q-8 -1 -14 -1
h-150q-35 0 -54 39q-4 10 -4 20v1254q0 47 48 62q10 2 27 2zM193 1826q16 0 49 -25q42 -26 86 -26q31 0 173 38q56 11 103 11h6q74 0 138 -27q18 -15 18 -37v-177q0 -28 -26 -41q-10 -5 -19 -5q-12 0 -54 24q-35 15 -73 15q-39 0 -166 -35q-62 -14 -112 -14h-9
q-69 0 -138 29q-21 15 -21 37v190q0 31 34 41q4 2 11 2z" />
    <glyph glyph-name="ograve" unicode="&#xf2;" horiz-adv-x="910" 
d="M371 1027v-671q0 -48 50 -75q17 -8 34 -8h4q51 0 78 53q6 15 6 30v671q0 48 -53 75q-13 5 -31 7l-2 -1q-1 0 -1 1q-49 0 -79 -52q-6 -18 -6 -30zM457 1380q156 0 270 -124q60 -68 81 -170q6 -30 6 -89v-614q0 -117 -40 -187q-17 -39 -73 -98q-67 -57 -132 -77
q-55 -18 -107 -18h-10q-130 0 -238 95q-48 48 -65 81q-39 69 -46 139q-3 20 -3 67v612q0 108 32 174q21 50 77 108q110 101 248 101zM456 1950q76 -379 76 -385v-6q0 -6 -2 -14q-16 -45 -64 -45h-59q-43 0 -62 28q-7 13 -133 330q-25 56 -25 72q0 11 3 21q18 42 63 42h139
q46 0 64 -43z" />
    <glyph glyph-name="oacute" unicode="&#xf3;" horiz-adv-x="910" 
d="M371 1027v-671q0 -48 50 -75q17 -8 34 -8h4q51 0 78 53q6 15 6 30v671q0 48 -53 75q-13 5 -31 7l-2 -1q-1 0 -1 1q-49 0 -79 -52q-6 -18 -6 -30zM457 1380q156 0 270 -124q60 -68 81 -170q6 -30 6 -89v-614q0 -117 -40 -187q-17 -39 -73 -98q-67 -57 -132 -77
q-55 -18 -107 -18h-10q-130 0 -238 95q-48 48 -65 81q-39 69 -46 139q-3 20 -3 67v612q0 108 32 174q21 50 77 108q110 101 248 101zM482 1993h139q45 0 63 -42q3 -10 3 -21q0 -16 -25 -72q-126 -317 -133 -330q-19 -28 -62 -28h-59q-48 0 -64 45q-2 8 -2 14v6q0 6 76 385
q17 43 64 43z" />
    <glyph glyph-name="ocircumflex" unicode="&#xf4;" horiz-adv-x="910" 
d="M371 1027v-671q0 -48 50 -75q17 -8 34 -8h4q51 0 78 53q6 15 6 30v671q0 48 -53 75q-13 5 -31 7l-2 -1q-1 0 -1 1q-49 0 -79 -52q-6 -18 -6 -30zM457 1380q156 0 270 -124q60 -68 81 -170q6 -30 6 -89v-614q0 -117 -40 -187q-17 -39 -73 -98q-67 -57 -132 -77
q-55 -18 -107 -18h-10q-130 0 -238 95q-48 48 -65 81q-39 69 -46 139q-3 20 -3 67v612q0 108 32 174q21 50 77 108q110 101 248 101zM454 1836h2q23 0 66 -29q214 -122 231 -135q21 -21 21 -45q0 -22 -29 -67q-23 -45 -39 -50q-13 -9 -28 -9h-2q-13 0 -76 19l-143 41
q-202 -58 -216 -60h-5q-42 0 -65 54q-32 47 -32 72q0 42 51 64q235 138 246 142q11 3 18 3z" />
    <glyph glyph-name="otilde" unicode="&#xf5;" horiz-adv-x="910" 
d="M371 1027v-671q0 -48 50 -75q17 -8 34 -8h4q51 0 78 53q6 15 6 30v671q0 48 -53 75q-13 5 -31 7l-2 -1q-1 0 -1 1q-49 0 -79 -52q-6 -18 -6 -30zM457 1380q156 0 270 -124q60 -68 81 -170q6 -30 6 -89v-614q0 -117 -40 -187q-17 -39 -73 -98q-67 -57 -132 -77
q-55 -18 -107 -18h-10q-130 0 -238 95q-48 48 -65 81q-39 69 -46 139q-3 20 -3 67v612q0 108 32 174q21 50 77 108q110 101 248 101zM193 1826q16 0 49 -25q42 -26 86 -26q31 0 173 38q56 11 103 11h6q74 0 138 -27q18 -15 18 -37v-177q0 -28 -26 -41q-10 -5 -19 -5
q-12 0 -54 24q-35 15 -73 15q-39 0 -166 -35q-62 -14 -112 -14h-9q-69 0 -138 29q-21 15 -21 37v190q0 31 34 41q4 2 11 2z" />
    <glyph glyph-name="odieresis" unicode="&#xf6;" horiz-adv-x="910" 
d="M371 1027v-671q0 -48 50 -75q17 -8 34 -8h4q51 0 78 53q6 15 6 30v671q0 48 -53 75q-13 5 -31 7l-2 -1q-1 0 -1 1q-49 0 -79 -52q-6 -18 -6 -30zM457 1380q156 0 270 -124q60 -68 81 -170q6 -30 6 -89v-614q0 -117 -40 -187q-17 -39 -73 -98q-67 -57 -132 -77
q-55 -18 -107 -18h-10q-130 0 -238 95q-48 48 -65 81q-39 69 -46 139q-3 20 -3 67v612q0 108 32 174q21 50 77 108q110 101 248 101zM186 1785h167q41 0 50 -35q1 -2 1 -9v-178q0 -30 -34 -43q-10 -1 -17 -1h-167q-35 0 -47 35v189q0 27 32 40q5 2 15 2zM557 1785h167
q41 0 50 -35q1 -2 1 -9v-178q0 -30 -34 -43q-10 -1 -17 -1h-167q-35 0 -47 35v189q0 27 32 40q5 2 15 2z" />
    <glyph glyph-name="divide" unicode="&#xf7;" horiz-adv-x="1043" 
d="M136 936q16 -1 25 -1h722q38 0 57 -45q2 -16 2 -31v-127q0 -48 -44 -64l-14 -3q-16 1 -24 1h-723q-35 0 -54 40q-4 11 -4 34v129q0 48 43 64zM615 490q23 0 47 -27q11 -18 11 -40v-127q0 -50 -25 -64q-15 -13 -33 -13h-132q-10 0 -24 -1q-25 0 -47 28q-11 15 -11 38v130
q0 52 31 66q11 9 27 9h132q10 0 24 1zM615 1344q23 0 47 -27q11 -18 11 -40v-127q0 -50 -25 -64q-15 -13 -33 -13h-132q-10 0 -24 -1q-25 0 -47 28q-11 15 -11 38v130q0 52 31 66q11 9 27 9h132q10 0 24 1z" />
    <glyph glyph-name="oslash" unicode="&#xf8;" horiz-adv-x="927" 
d="M379 1526h156q38 0 56 -45q2 -16 2 -32v-97q126 -52 188 -178q33 -76 33 -137v-697q0 -87 -59 -183q-63 -92 -162 -132v-108q0 -47 -43 -64q-14 -2 -14 -3q-16 1 -24 1h-132q-37 0 -55 43q-3 12 -3 32v99q-11 0 -72 40q-80 62 -108 124q-19 32 -30 79q-8 21 -12 80
q1 25 1 37v608q0 13 -1 34q0 104 68 205q64 80 123 105q10 7 31 15v108q0 45 40 63q9 3 17 3zM371 394q0 -67 6 -67q10 -30 36 -46q21 -11 39 -11h11q36 0 64 35q16 22 16 46v675q0 47 -49 74q-16 7 -31 7h-11q-41 0 -70 -44q-11 -14 -11 -73v-596z" />
    <glyph glyph-name="ugrave" unicode="&#xf9;" horiz-adv-x="927" 
d="M608 1380h130q52 0 66 -31q9 -12 9 -27v-1265q0 -38 -46 -55q-10 -2 -20 -2h-127q-43 0 -57 17q-54 -17 -106 -17q-155 0 -270 124q-58 66 -81 168q-6 35 -6 91v928q0 53 53 66h161q33 0 53 -40q4 -13 4 -26v-958q0 -47 51 -75q14 -6 32 -8l2 1h2q1 0 1 -1q44 0 74 46
q11 13 11 72v910q0 10 -1 24q0 25 27 47q15 11 38 11zM456 1950q76 -379 76 -385v-6q0 -6 -2 -14q-16 -45 -64 -45h-59q-43 0 -62 28q-7 13 -133 330q-25 56 -25 72q0 11 3 21q18 42 63 42h139q46 0 64 -43z" />
    <glyph glyph-name="uacute" unicode="&#xfa;" horiz-adv-x="927" 
d="M608 1380h130q52 0 66 -31q9 -12 9 -27v-1265q0 -38 -46 -55q-10 -2 -20 -2h-127q-43 0 -57 17q-54 -17 -106 -17q-155 0 -270 124q-58 66 -81 168q-6 35 -6 91v928q0 53 53 66h161q33 0 53 -40q4 -13 4 -26v-958q0 -47 51 -75q14 -6 32 -8l2 1h2q1 0 1 -1q44 0 74 46
q11 13 11 72v910q0 10 -1 24q0 25 27 47q15 11 38 11zM482 1993h139q45 0 63 -42q3 -10 3 -21q0 -16 -25 -72q-126 -317 -133 -330q-19 -28 -62 -28h-59q-48 0 -64 45q-2 8 -2 14v6q0 6 76 385q17 43 64 43z" />
    <glyph glyph-name="ucircumflex" unicode="&#xfb;" horiz-adv-x="927" 
d="M608 1380h130q52 0 66 -31q9 -12 9 -27v-1265q0 -38 -46 -55q-10 -2 -20 -2h-127q-43 0 -57 17q-54 -17 -106 -17q-155 0 -270 124q-58 66 -81 168q-6 35 -6 91v928q0 53 53 66h161q33 0 53 -40q4 -13 4 -26v-958q0 -47 51 -75q14 -6 32 -8l2 1h2q1 0 1 -1q44 0 74 46
q11 13 11 72v910q0 10 -1 24q0 25 27 47q15 11 38 11zM454 1836h2q23 0 66 -29q214 -122 231 -135q21 -21 21 -45q0 -22 -29 -67q-23 -45 -39 -50q-13 -9 -28 -9h-2q-13 0 -76 19l-143 41q-202 -58 -216 -60h-5q-42 0 -65 54q-32 47 -32 72q0 42 51 64q235 138 246 142
q11 3 18 3z" />
    <glyph glyph-name="udieresis" unicode="&#xfc;" horiz-adv-x="927" 
d="M608 1380h130q52 0 66 -31q9 -12 9 -27v-1265q0 -38 -46 -55q-10 -2 -20 -2h-127q-43 0 -57 17q-54 -17 -106 -17q-155 0 -270 124q-58 66 -81 168q-6 35 -6 91v928q0 53 53 66h161q33 0 53 -40q4 -13 4 -26v-958q0 -47 51 -75q14 -6 32 -8l2 1h2q1 0 1 -1q44 0 74 46
q11 13 11 72v910q0 10 -1 24q0 25 27 47q15 11 38 11zM186 1785h167q41 0 50 -35q1 -2 1 -9v-178q0 -30 -34 -43q-10 -1 -17 -1h-167q-35 0 -47 35v189q0 27 32 40q5 2 15 2zM557 1785h167q41 0 50 -35q1 -2 1 -9v-178q0 -30 -34 -43q-10 -1 -17 -1h-167q-35 0 -47 35v189
q0 27 32 40q5 2 15 2z" />
    <glyph glyph-name="yacute" unicode="&#xfd;" 
d="M600 1378h157q37 0 55 -43q2 -8 2 -14v-1499q0 -87 -60 -184q-16 -26 -64 -72q-107 -86 -233 -86q-149 0 -262 115q-95 108 -95 245q0 29 31 51q14 9 39 9h132q71 0 71 -80q2 -20 28 -48q29 -21 54 -21l2 1h1q1 0 1 -1q44 0 74 45q11 14 11 73v139q-46 -11 -87 -11
q-150 0 -264 117q-47 56 -61 94q-32 62 -32 169v933q0 48 45 64q8 2 14 2h154q35 0 54 -38q5 -11 5 -28v-959q0 -49 52 -76q13 -5 32 -7l1 1q1 0 1 -1q49 0 77 49q9 10 9 76v904q0 10 -1 24q0 25 28 47q14 10 29 10zM482 1993h139q45 0 63 -42q3 -10 3 -21q0 -16 -25 -72
q-126 -317 -133 -330q-19 -28 -62 -28h-59q-48 0 -64 45q-2 8 -2 14v6q0 6 76 385q17 43 64 43z" />
    <glyph glyph-name="thorn" unicode="&#xfe;" horiz-adv-x="920" 
d="M159 1382h157q19 0 38 -17q55 15 100 15h9q115 0 216 -76q56 -48 76 -82q60 -95 60 -186v-693q0 -87 -61 -186q-64 -83 -123 -111q-81 -45 -173 -45q-39 0 -86 11v-470q0 -38 -45 -56q-16 -2 -32 -2h-127q-47 0 -64 43q-2 14 -3 14q1 16 1 25v1759q0 37 43 55q8 2 14 2z
M372 986v-589q0 -58 6 -70q4 -14 27 -36q27 -19 52 -19l1 1q1 0 1 -1q50 0 79 52q6 18 6 31v671q0 51 -55 78q-18 5 -27 5h-7q-48 0 -76 -52q-7 -12 -7 -71zM159 1597h157q30 0 50 -34q5 -11 5 -24v-1479q0 -42 -48 -59q-8 -1 -14 -1h-150q-35 0 -54 39q-4 10 -4 20v1475
q0 47 48 62q5 1 10 1z" />
    <glyph glyph-name="ydieresis" unicode="&#xff;" 
d="M600 1378h157q37 0 55 -43q2 -8 2 -14v-1499q0 -87 -60 -184q-16 -26 -64 -72q-107 -86 -233 -86q-149 0 -262 115q-95 108 -95 245q0 29 31 51q14 9 39 9h132q71 0 71 -80q2 -20 28 -48q29 -21 54 -21l2 1h1q1 0 1 -1q44 0 74 45q11 14 11 73v139q-46 -11 -87 -11
q-150 0 -264 117q-47 56 -61 94q-32 62 -32 169v933q0 48 45 64q8 2 14 2h154q35 0 54 -38q5 -11 5 -28v-959q0 -49 52 -76q13 -5 32 -7l1 1q1 0 1 -1q49 0 77 49q9 10 9 76v904q0 10 -1 24q0 25 28 47q14 10 29 10zM181 1785h167q41 0 50 -35q1 -2 1 -9v-178q0 -30 -34 -43
q-10 -1 -17 -1h-167q-35 0 -47 35v189q0 27 32 40q5 2 15 2zM552 1785h167q41 0 50 -35q1 -2 1 -9v-178q0 -30 -34 -43q-10 -1 -17 -1h-167q-35 0 -47 35v189q0 27 32 40q5 2 15 2z" />
    <glyph glyph-name="Amacron" unicode="&#x100;" horiz-adv-x="937" 
d="M372 1600h165q33 0 53 -42l159 -745q159 -736 159 -746v-11q0 -33 -40 -52q-10 -4 -29 -4h-138q-53 0 -67 49q0 4 -37 174h-285q-37 -173 -40 -186q-18 -37 -64 -37h-138q-49 0 -66 40q-4 15 -4 23q3 19 212 993q1 7 108 505q20 39 52 39zM454 886q0 -3 -84 -394h169
q-84 391 -84 394h-1zM227 2069q18 -1 27 -1h425q36 0 54 -41q4 -10 4 -28v-138q0 -43 -41 -60q-4 -2 -16 -4q-16 1 -25 1h-428q-33 0 -53 41q-3 11 -3 18v152q0 39 43 57q13 2 13 3z" />
    <glyph glyph-name="amacron" unicode="&#x101;" 
d="M457 1380q139 0 249 -102q54 -58 66 -89q19 -33 31 -80q11 -51 11 -79q-1 -25 -1 -37v-935q0 -38 -45 -56q-16 -2 -32 -2h-127q-29 0 -48 18q-55 -15 -99 -15h-10q-132 0 -242 98q-54 56 -75 105q-35 66 -35 179v173q0 122 45 194q14 31 58 79q111 106 254 106
q41 0 87 -11v60q0 67 -11 78q-18 29 -44 38q-11 5 -30 7l-2 -1q-1 0 -1 1q-48 0 -78 -50q-6 -12 -9 -52q-9 -28 -30 -38q-13 -8 -39 -8h-128q-54 0 -69 43q-3 15 -3 17q0 159 125 273q106 86 232 86zM371 584v-228q0 -51 56 -78q18 -5 26 -5h8q47 0 76 53q7 12 7 70v148
q0 66 -11 78q-29 45 -76 45q-52 0 -80 -53q-6 -17 -6 -30zM230 1851q18 -1 27 -1h425q36 0 54 -41q4 -10 4 -28v-138q0 -43 -41 -60q-4 -2 -16 -4q-16 1 -25 1h-428q-33 0 -53 41q-3 11 -3 18v152q0 39 43 57q13 2 13 3z" />
    <glyph glyph-name="Abreve" unicode="&#x102;" horiz-adv-x="937" 
d="M372 1600h165q33 0 53 -42l159 -745q159 -736 159 -746v-11q0 -33 -40 -52q-10 -4 -29 -4h-138q-53 0 -67 49q0 4 -37 174h-285q-37 -173 -40 -186q-18 -37 -64 -37h-138q-49 0 -66 40q-4 15 -4 23q3 19 212 993q1 7 108 505q20 39 52 39zM454 886q0 -3 -84 -394h169
q-84 391 -84 394h-1zM240 2046h58q49 0 67 -39q35 -34 87 -34l2 1q1 0 3 -1q73 4 94 47q19 26 58 26h51q48 0 63 -23q14 -16 14 -37v-10q0 -99 -79 -189q-57 -52 -97 -64q-50 -21 -95 -21h-23q-83 0 -167 62q-105 91 -105 222q0 41 47 58q9 2 22 2z" />
    <glyph glyph-name="abreve" unicode="&#x103;" 
d="M457 1380q139 0 249 -102q54 -58 66 -89q19 -33 31 -80q11 -51 11 -79q-1 -25 -1 -37v-935q0 -38 -45 -56q-16 -2 -32 -2h-127q-29 0 -48 18q-55 -15 -99 -15h-10q-132 0 -242 98q-54 56 -75 105q-35 66 -35 179v173q0 122 45 194q14 31 58 79q111 106 254 106
q41 0 87 -11v60q0 67 -11 78q-18 29 -44 38q-11 5 -30 7l-2 -1q-1 0 -1 1q-48 0 -78 -50q-6 -12 -9 -52q-9 -28 -30 -38q-13 -8 -39 -8h-128q-54 0 -69 43q-3 15 -3 17q0 159 125 273q106 86 232 86zM371 584v-228q0 -51 56 -78q18 -5 26 -5h8q47 0 76 53q7 12 7 70v148
q0 66 -11 78q-29 45 -76 45q-52 0 -80 -53q-6 -17 -6 -30zM243 1828h58q49 0 67 -39q35 -34 87 -34l2 1q1 0 3 -1q73 4 94 47q19 26 58 26h51q48 0 63 -23q14 -16 14 -37v-10q0 -99 -79 -189q-57 -52 -97 -64q-50 -21 -95 -21h-23q-83 0 -167 62q-105 91 -105 222
q0 41 47 58q9 2 22 2z" />
    <glyph glyph-name="Aogonek" unicode="&#x104;" horiz-adv-x="1000" 
d="M422 1600h165q33 0 53 -42l159 -745q159 -736 159 -746v-11q0 -33 -40 -52q-10 -4 -29 -4h-138q-53 0 -67 49q0 4 -37 174h-285q-37 -173 -40 -186q-18 -37 -64 -37h-138q-49 0 -66 40q-4 15 -4 23q3 19 212 993q1 7 108 505q20 39 52 39zM504 886q0 -3 -84 -394h169
q-84 391 -84 394h-1zM936 97q19 -18 19 -30.75q73 -270.75 73 -279v-3q0 -4.5 -2 -10.5q-16 -33.75 -64 -33.75h-59q-48 0 -65 24.75l-135 252.75q-20 34.5 -20 45q0 8.25 3 15.75q18 31.5 63 31.5h139q29 0 48 -12.75z" />
    <glyph glyph-name="aogonek" unicode="&#x105;" horiz-adv-x="1000" 
d="M457 1380q139 0 249 -102q54 -58 66 -89q19 -33 31 -80q11 -51 11 -79q-1 -25 -1 -37v-935q0 -38 -45 -56q-16 -2 -32 -2h-127q-29 0 -48 18q-55 -15 -99 -15h-10q-132 0 -242 98q-54 56 -75 105q-35 66 -35 179v173q0 122 45 194q14 31 58 79q111 106 254 106
q41 0 87 -11v60q0 67 -11 78q-18 29 -44 38q-11 5 -30 7l-2 -1q-1 0 -1 1q-48 0 -78 -50q-6 -12 -9 -52q-9 -28 -30 -38q-13 -8 -39 -8h-128q-54 0 -69 43q-3 15 -3 17q0 159 125 273q106 86 232 86zM371 584v-228q0 -51 56 -78q18 -5 26 -5h8q47 0 76 53q7 12 7 70v148
q0 66 -11 78q-29 45 -76 45q-52 0 -80 -53q-6 -17 -6 -30zM827 97q19 -18 19 -30.75q73 -270.75 73 -279v-3q0 -4.5 -2 -10.5q-16 -33.75 -64 -33.75h-59q-48 0 -65 24.75l-135 252.75q-20 34.5 -20 45q0 8.25 3 15.75q18 31.5 63 31.5h139q29 0 48 -12.75z" />
    <glyph glyph-name="Cacute" unicode="&#x106;" horiz-adv-x="900" 
d="M442 1600h31q81 0 172 -52q107 -68 150 -189q19 -57 19 -100v-168q0 -38 -46 -55q-10 -2 -20 -2h-138q-52 0 -66 51q-1 10 -1 16v148q0 36 -35 64q-22 16 -47 16h-7q-48 0 -74 -49q-9 -8 -9 -75v-809q0 -67 6 -67q9 -28 38 -47q22 -10 39 -10h7q50 0 77 54q5 16 5 27v147
q0 52 51 66q10 1 16 1h138q45 0 63 -40q3 -9 3 -17v-168q0 -88 -61 -185q-14 -25 -69 -76q-105 -81 -227 -81q-139 0 -249 101q-51 54 -66 90q-19 33 -30 79q-8 21 -12 81q1 24 1 36v828q0 13 -1 33q0 94 57 190q66 102 193 146q54 16 92 16zM482 2211h139q45 0 63 -42
q3 -10 3 -21q0 -16 -25 -72q-126 -317 -133 -330q-19 -28 -62 -28h-59q-48 0 -64 45q-2 8 -2 14v6q0 6 76 385q17 43 64 43z" />
    <glyph glyph-name="cacute" unicode="&#x107;" horiz-adv-x="920" 
d="M457 1377q156 0 270 -124q60 -68 81 -170q6 -30 6 -89v-117q0 -52 -50 -65q-5 -2 -23 -2h-126q-50 0 -68 38q-4 15 -4 29v147q0 48 -53 75q-13 5 -31 7l-2 -1q-1 0 -1 1q-49 0 -79 -52q-6 -18 -6 -30v-671q0 -51 56 -78q18 -5 26 -5h8q47 0 76 53q6 16 6 30v144
q0 49 42 65q11 3 21 3h145q46 0 61 -48q2 -5 2 -20v-117q0 -117 -40 -187q-17 -39 -73 -98q-67 -57 -132 -77q-56 -18 -107 -18h-10q-132 0 -242 98q-54 56 -75 105q-35 66 -35 179v612q0 108 32 174q22 50 73 104q111 105 252 105zM482 1993h139q45 0 63 -42q3 -10 3 -21
q0 -16 -25 -72q-126 -317 -133 -330q-19 -28 -62 -28h-59q-48 0 -64 45q-2 8 -2 14v6q0 6 76 385q17 43 64 43z" />
    <glyph glyph-name="Ccircumflex" unicode="&#x108;" horiz-adv-x="900" 
d="M442 1600h31q81 0 172 -52q107 -68 150 -189q19 -57 19 -100v-168q0 -38 -46 -55q-10 -2 -20 -2h-138q-52 0 -66 51q-1 10 -1 16v148q0 36 -35 64q-22 16 -47 16h-7q-48 0 -74 -49q-9 -8 -9 -75v-809q0 -67 6 -67q9 -28 38 -47q22 -10 39 -10h7q50 0 77 54q5 16 5 27v147
q0 52 51 66q10 1 16 1h138q45 0 63 -40q3 -9 3 -17v-168q0 -88 -61 -185q-14 -25 -69 -76q-105 -81 -227 -81q-139 0 -249 101q-51 54 -66 90q-19 33 -30 79q-8 21 -12 81q1 24 1 36v828q0 13 -1 33q0 94 57 190q66 102 193 146q54 16 92 16zM454 2054h2q23 0 66 -29
q214 -122 231 -135q21 -21 21 -45q0 -22 -29 -67q-23 -45 -39 -50q-13 -9 -28 -9h-2q-13 0 -76 19l-143 41q-202 -58 -216 -60h-5q-42 0 -65 54q-32 47 -32 72q0 42 51 64q235 138 246 142q11 3 18 3z" />
    <glyph glyph-name="ccircumflex" unicode="&#x109;" horiz-adv-x="920" 
d="M457 1377q156 0 270 -124q60 -68 81 -170q6 -30 6 -89v-117q0 -52 -50 -65q-5 -2 -23 -2h-126q-50 0 -68 38q-4 15 -4 29v147q0 48 -53 75q-13 5 -31 7l-2 -1q-1 0 -1 1q-49 0 -79 -52q-6 -18 -6 -30v-671q0 -51 56 -78q18 -5 26 -5h8q47 0 76 53q6 16 6 30v144
q0 49 42 65q11 3 21 3h145q46 0 61 -48q2 -5 2 -20v-117q0 -117 -40 -187q-17 -39 -73 -98q-67 -57 -132 -77q-56 -18 -107 -18h-10q-132 0 -242 98q-54 56 -75 105q-35 66 -35 179v612q0 108 32 174q22 50 73 104q111 105 252 105zM454 1836h2q23 0 66 -29
q214 -122 231 -135q21 -21 21 -45q0 -22 -29 -67q-23 -45 -39 -50q-13 -9 -28 -9h-2q-13 0 -76 19l-143 41q-202 -58 -216 -60h-5q-42 0 -65 54q-32 47 -32 72q0 42 51 64q235 138 246 142q11 3 18 3z" />
    <glyph glyph-name="Cdot" unicode="&#x10a;" horiz-adv-x="900" 
d="M442 1600h31q81 0 172 -52q107 -68 150 -189q19 -57 19 -100v-168q0 -38 -46 -55q-10 -2 -20 -2h-138q-52 0 -66 51q-1 10 -1 16v148q0 36 -35 64q-22 16 -47 16h-7q-48 0 -74 -49q-9 -8 -9 -75v-809q0 -67 6 -67q9 -28 38 -47q22 -10 39 -10h7q50 0 77 54q5 16 5 27v147
q0 52 51 66q10 1 16 1h138q45 0 63 -40q3 -9 3 -17v-168q0 -88 -61 -185q-14 -25 -69 -76q-105 -81 -227 -81q-139 0 -249 101q-51 54 -66 90q-19 33 -30 79q-8 21 -12 81q1 24 1 36v828q0 13 -1 33q0 94 57 190q66 102 193 146q54 16 92 16zM535 1976q23 0 47 -27
q11 -18 11 -40v-127q0 -50 -25 -64q-15 -13 -33 -13h-132q-10 0 -24 -1q-25 0 -47 28q-11 15 -11 38v130q0 52 31 66q11 9 27 9h132q10 0 24 1z" />
    <glyph glyph-name="cdot" unicode="&#x10b;" horiz-adv-x="920" 
d="M457 1377q156 0 270 -124q60 -68 81 -170q6 -30 6 -89v-117q0 -52 -50 -65q-5 -2 -23 -2h-126q-50 0 -68 38q-4 15 -4 29v147q0 48 -53 75q-13 5 -31 7l-2 -1q-1 0 -1 1q-49 0 -79 -52q-6 -18 -6 -30v-671q0 -51 56 -78q18 -5 26 -5h8q47 0 76 53q6 16 6 30v144
q0 49 42 65q11 3 21 3h145q46 0 61 -48q2 -5 2 -20v-117q0 -117 -40 -187q-17 -39 -73 -98q-67 -57 -132 -77q-56 -18 -107 -18h-10q-132 0 -242 98q-54 56 -75 105q-35 66 -35 179v612q0 108 32 174q22 50 73 104q111 105 252 105zM535 1758q23 0 47 -27q11 -18 11 -40
v-127q0 -50 -25 -64q-15 -13 -33 -13h-132q-10 0 -24 -1q-25 0 -47 28q-11 15 -11 38v130q0 52 31 66q11 9 27 9h132q10 0 24 1z" />
    <glyph glyph-name="Ccaron" unicode="&#x10c;" horiz-adv-x="900" 
d="M442 1600h31q81 0 172 -52q107 -68 150 -189q19 -57 19 -100v-168q0 -38 -46 -55q-10 -2 -20 -2h-138q-52 0 -66 51q-1 10 -1 16v148q0 36 -35 64q-22 16 -47 16h-7q-48 0 -74 -49q-9 -8 -9 -75v-809q0 -67 6 -67q9 -28 38 -47q22 -10 39 -10h7q50 0 77 54q5 16 5 27v147
q0 52 51 66q10 1 16 1h138q45 0 63 -40q3 -9 3 -17v-168q0 -88 -61 -185q-14 -25 -69 -76q-105 -81 -227 -81q-139 0 -249 101q-51 54 -66 90q-19 33 -30 79q-8 21 -12 81q1 24 1 36v828q0 13 -1 33q0 94 57 190q66 102 193 146q54 16 92 16zM436 1702q-11 4 -246 142
q-51 22 -51 64q0 24 32 72q23 54 65 54h5q14 -2 216 -60l143 41q63 19 76 19h2q15 0 28 -9q16 -6 39 -50q29 -45 29 -67q0 -24 -21 -46q-17 -12 -231 -134q-43 -29 -66 -29h-2q-7 0 -18 3z" />
    <glyph glyph-name="ccaron" unicode="&#x10d;" horiz-adv-x="920" 
d="M457 1377q156 0 270 -124q60 -68 81 -170q6 -30 6 -89v-117q0 -52 -50 -65q-5 -2 -23 -2h-126q-50 0 -68 38q-4 15 -4 29v147q0 48 -53 75q-13 5 -31 7l-2 -1q-1 0 -1 1q-49 0 -79 -52q-6 -18 -6 -30v-671q0 -51 56 -78q18 -5 26 -5h8q47 0 76 53q6 16 6 30v144
q0 49 42 65q11 3 21 3h145q46 0 61 -48q2 -5 2 -20v-117q0 -117 -40 -187q-17 -39 -73 -98q-67 -57 -132 -77q-56 -18 -107 -18h-10q-132 0 -242 98q-54 56 -75 105q-35 66 -35 179v612q0 108 32 174q22 50 73 104q111 105 252 105zM436 1484q-11 4 -246 142q-51 22 -51 64
q0 24 32 72q23 54 65 54h5q14 -2 216 -60l143 41q63 19 76 19h2q15 0 28 -9q16 -6 39 -50q29 -45 29 -67q0 -24 -21 -46q-17 -12 -231 -134q-43 -29 -66 -29h-2q-7 0 -18 3z" />
    <glyph glyph-name="Dcaron" unicode="&#x10e;" horiz-adv-x="900" 
d="M157 1600h316q81 0 172 -52q107 -68 150 -189q19 -57 19 -100v-917q0 -69 -41 -153q-20 -40 -75 -96q-72 -61 -150 -81q-52 -12 -86 -12q-3 0 -24 1q-201 -1 -270 -1q-49 0 -64 42q-3 8 -4 17q1 249 1 398v686q0 146 -1 400q0 25 28 47q14 10 29 10zM371 1328v-1055
q0 -2 2 -2h46q67 0 67 6q28 9 47 38q11 18 11 68v822q0 67 -6 67q-9 28 -38 47q-18 11 -68 11h-59q-2 0 -2 -2zM436 1702q-11 4 -246 142q-51 22 -51 64q0 24 32 72q23 54 65 54h5q14 -2 216 -60l143 41q63 19 76 19h2q15 0 28 -9q16 -6 39 -50q29 -45 29 -67q0 -24 -21 -46
q-17 -12 -231 -134q-43 -29 -66 -29h-2q-7 0 -18 3z" />
    <glyph glyph-name="dcaron" unicode="&#x10f;" horiz-adv-x="1357" 
d="M786 1590q28 -22 28 -47q-1 -14 -1 -24v-1461q0 -19 -15 -36q-15 -22 -62 -22h-127q-29 0 -48 18q-54 -15 -99 -15h-10q-51 0 -107 18q-65 20 -132 77q-56 59 -73 98q-40 70 -40 187v314q0 59 6 89q21 102 81 170q114 124 270 124q39 0 87 -11v474q0 6 2 14q18 43 55 43
h156q15 0 29 -10zM535 760q-29 49 -77 49q0 -1 -1 -1l-2 1q-18 -2 -31 -7q-53 -27 -53 -75v-371q0 -14 6 -30q29 -53 76 -53h8q44 0 71 45q12 9 12 78v288q0 66 -9 76zM1107 1592h139q45 0 63 -42q3 -10 3 -21q0 -16 -25 -72q-126 -317 -133 -330q-19 -28 -62 -28h-59
q-48 0 -64 45q-2 8 -2 14v6q0 6 76 385q17 43 64 43z" />
    <glyph glyph-name="Dslash" unicode="&#x110;" horiz-adv-x="953" 
d="M207 1600h316q81 0 172 -52q107 -68 150 -189q19 -57 19 -100v-917q0 -69 -41 -153q-20 -40 -75 -96q-72 -61 -150 -81q-52 -12 -86 -12q-3 0 -24 1q-201 -1 -270 -1q-49 0 -64 42q-3 8 -4 17v1484q0 25 28 47q14 10 29 10zM421 1328v-1055q0 -2 2 -2h46q67 0 67 6
q28 9 47 38q11 18 11 68v822q0 67 -6 67q-9 28 -38 47q-18 11 -68 11h-59q-2 0 -2 -2zM84 933h375q29 0 40 -35v-193q-8 -38 -50 -38h-352q-36 0 -47 28q-4 8 -4 23v165q0 42 38 50z" />
    <glyph glyph-name="dmacron" unicode="&#x111;" 
d="M786 1590q28 -22 28 -47q-1 -14 -1 -24v-1461q0 -19 -15 -36q-15 -22 -62 -22h-127q-29 0 -48 18q-54 -15 -99 -15h-10q-51 0 -107 18q-65 20 -132 77q-56 59 -73 98q-40 70 -40 187v314q0 59 6 89q21 102 81 170q114 124 270 124q39 0 87 -11v474q0 6 2 14q18 43 55 43
h156q15 0 29 -10zM535 760q-29 49 -77 49q0 -1 -1 -1l-2 1q-18 -2 -31 -7q-53 -27 -53 -75v-371q0 -14 6 -30q29 -53 76 -53h8q44 0 71 45q12 9 12 78v288q0 66 -9 76zM136 1459h675q29 0 40 -35v-193q-8 -38 -50 -38h-652q-36 0 -47 28q-4 8 -4 23v165q0 42 38 50z" />
    <glyph glyph-name="Emacron" unicode="&#x112;" horiz-adv-x="723" 
d="M157 1600h453q36 0 54 -43q2 -5 2 -13v-157q0 -36 -43 -55q-8 -2 -14 -2h-236q-2 0 -2 -2v-391q0 -2 2 -2h138q10 0 24 1q25 0 47 -27q11 -15 11 -40v-127q0 -46 -21 -61q-17 -15 -37 -15h-162q-2 -1 -2 -2v-391q0 -2 2 -2h212q10 0 24 1q25 0 47 -28q10 -14 10 -29v-157
q0 -37 -43 -55q-8 -2 -14 -2h-51q-141 0 -398 -1q-31 0 -52 32q-6 10 -8 26q1 248 1 393v692q0 146 -1 400q0 25 28 47q14 10 29 10zM156 2069q18 -1 27 -1h425q36 0 54 -41q4 -10 4 -28v-138q0 -43 -41 -60q-4 -2 -16 -4q-16 1 -25 1h-428q-33 0 -53 41q-3 11 -3 18v152
q0 39 43 57q13 2 13 3z" />
    <glyph glyph-name="emacron" unicode="&#x113;" 
d="M457 1379q147 0 260 -112q43 -50 58 -83q17 -32 28 -70q12 -45 12 -118v-415q0 -47 -50 -63q-9 -1 -14 -1h-379v-164q0 -49 54 -76q15 -5 27 -5h8q49 0 77 54q5 14 7 48q17 45 65 45h138q47 0 64 -43q2 -9 3 -17q0 -158 -125 -273q-107 -86 -233 -86q-155 0 -270 124
q-58 66 -81 169q-6 32 -6 90v613q0 122 41 190q58 116 190 171q68 22 126 22zM372 1026v-237h171v237q0 49 -54 77q-16 5 -28 5h-8q-49 0 -76 -54q-5 -16 -5 -28zM230 1851q18 -1 27 -1h425q36 0 54 -41q4 -10 4 -28v-138q0 -43 -41 -60q-4 -2 -16 -4q-16 1 -25 1h-428
q-33 0 -53 41q-3 11 -3 18v152q0 39 43 57q13 2 13 3z" />
    <glyph glyph-name="Ebreve" unicode="&#x114;" horiz-adv-x="723" 
d="M157 1600h453q36 0 54 -43q2 -5 2 -13v-157q0 -36 -43 -55q-8 -2 -14 -2h-236q-2 0 -2 -2v-391q0 -2 2 -2h138q10 0 24 1q25 0 47 -27q11 -15 11 -40v-127q0 -46 -21 -61q-17 -15 -37 -15h-162q-2 -1 -2 -2v-391q0 -2 2 -2h212q10 0 24 1q25 0 47 -28q10 -14 10 -29v-157
q0 -37 -43 -55q-8 -2 -14 -2h-51q-141 0 -398 -1q-31 0 -52 32q-6 10 -8 26q1 248 1 393v692q0 146 -1 400q0 25 28 47q14 10 29 10zM169 2046h58q49 0 67 -39q35 -34 87 -34l2 1q1 0 3 -1q73 4 94 47q19 26 58 26h51q48 0 63 -23q14 -16 14 -37v-10q0 -99 -79 -189
q-57 -52 -97 -64q-50 -21 -95 -21h-23q-83 0 -167 62q-105 91 -105 222q0 41 47 58q9 2 22 2z" />
    <glyph glyph-name="ebreve" unicode="&#x115;" 
d="M457 1379q147 0 260 -112q43 -50 58 -83q17 -32 28 -70q12 -45 12 -118v-415q0 -47 -50 -63q-9 -1 -14 -1h-379v-164q0 -49 54 -76q15 -5 27 -5h8q49 0 77 54q5 14 7 48q17 45 65 45h138q47 0 64 -43q2 -9 3 -17q0 -158 -125 -273q-107 -86 -233 -86q-155 0 -270 124
q-58 66 -81 169q-6 32 -6 90v613q0 122 41 190q58 116 190 171q68 22 126 22zM372 1026v-237h171v237q0 49 -54 77q-16 5 -28 5h-8q-49 0 -76 -54q-5 -16 -5 -28zM243 1828h58q49 0 67 -39q35 -34 87 -34l2 1q1 0 3 -1q73 4 94 47q19 26 58 26h51q48 0 63 -23q14 -16 14 -37
v-10q0 -99 -79 -189q-57 -52 -97 -64q-50 -21 -95 -21h-23q-83 0 -167 62q-105 91 -105 222q0 41 47 58q9 2 22 2z" />
    <glyph glyph-name="Edot" unicode="&#x116;" horiz-adv-x="723" 
d="M157 1600h453q36 0 54 -43q2 -5 2 -13v-157q0 -36 -43 -55q-8 -2 -14 -2h-236q-2 0 -2 -2v-391q0 -2 2 -2h138q10 0 24 1q25 0 47 -27q11 -15 11 -40v-127q0 -46 -21 -61q-17 -15 -37 -15h-162q-2 -1 -2 -2v-391q0 -2 2 -2h212q10 0 24 1q25 0 47 -28q10 -14 10 -29v-157
q0 -37 -43 -55q-8 -2 -14 -2h-51q-141 0 -398 -1q-31 0 -52 32q-6 10 -8 26q1 248 1 393v692q0 146 -1 400q0 25 28 47q14 10 29 10zM461 1976q23 0 47 -27q11 -18 11 -40v-127q0 -50 -25 -64q-15 -13 -33 -13h-132q-10 0 -24 -1q-25 0 -47 28q-11 15 -11 38v130q0 52 31 66
q11 9 27 9h132q10 0 24 1z" />
    <glyph glyph-name="edot" unicode="&#x117;" 
d="M457 1379q147 0 260 -112q43 -50 58 -83q17 -32 28 -70q12 -45 12 -118v-415q0 -47 -50 -63q-9 -1 -14 -1h-379v-164q0 -49 54 -76q15 -5 27 -5h8q49 0 77 54q5 14 7 48q17 45 65 45h138q47 0 64 -43q2 -9 3 -17q0 -158 -125 -273q-107 -86 -233 -86q-155 0 -270 124
q-58 66 -81 169q-6 32 -6 90v613q0 122 41 190q58 116 190 171q68 22 126 22zM372 1026v-237h171v237q0 49 -54 77q-16 5 -28 5h-8q-49 0 -76 -54q-5 -16 -5 -28zM536 1758q23 0 47 -27q11 -18 11 -40v-127q0 -50 -25 -64q-15 -13 -33 -13h-132q-10 0 -24 -1q-25 0 -47 28
q-11 15 -11 38v130q0 52 31 66q11 9 27 9h132q10 0 24 1z" />
    <glyph glyph-name="Eogonek" unicode="&#x118;" horiz-adv-x="800" 
d="M157 1600h453q36 0 54 -43q2 -5 2 -13v-157q0 -36 -43 -55q-8 -2 -14 -2h-236q-2 0 -2 -2v-391q0 -2 2 -2h138q10 0 24 1q25 0 47 -27q11 -15 11 -40v-127q0 -46 -21 -61q-17 -15 -37 -15h-162q-2 -1 -2 -2v-391q0 -2 2 -2h212q10 0 24 1q25 0 47 -28q10 -14 10 -29v-157
q0 -37 -43 -55q-8 -2 -14 -2h-51q-141 0 -398 -1q-31 0 -52 32q-6 10 -8 26q1 248 1 393v692q0 146 -1 400q0 25 28 47q14 10 29 10zM610 87q19 -18 19 -30.75q73 -270.75 73 -279v-3q0 -4.5 -2 -10.5q-16 -33.75 -64 -33.75h-59q-48 0 -65 24.75l-135 252.75
q-20 34.5 -20 45q0 8.25 3 15.75q18 31.5 63 31.5h139q29 0 48 -12.75z" />
    <glyph glyph-name="eogonek" unicode="&#x119;" horiz-adv-x="1000" 
d="M457 1379q147 0 260 -112q43 -50 58 -83q17 -32 28 -70q12 -45 12 -118v-415q0 -47 -50 -63q-9 -1 -14 -1h-379v-164q0 -49 54 -76q15 -5 27 -5h8q49 0 77 54q5 14 7 48q17 45 65 45h138q47 0 64 -43q2 -9 3 -17q0 -158 -125 -273q-107 -86 -233 -86q-155 0 -270 124
q-58 66 -81 169q-6 32 -6 90v613q0 122 41 190q58 116 190 171q68 22 126 22zM372 1026v-237h171v237q0 49 -54 77q-16 5 -28 5h-8q-49 0 -76 -54q-5 -16 -5 -28zM706 84q19 -18 19 -30.75q73 -270.75 73 -279v-3q0 -4.5 -2 -10.5q-16 -33.75 -64 -33.75h-59
q-48 0 -65 24.75l-135 252.75q-20 34.5 -20 45q0 8.25 3 15.75q18 31.5 63 31.5h139q29 0 48 -12.75z" />
    <glyph glyph-name="Ecaron" unicode="&#x11a;" horiz-adv-x="723" 
d="M157 1600h453q36 0 54 -43q2 -5 2 -13v-157q0 -36 -43 -55q-8 -2 -14 -2h-236q-2 0 -2 -2v-391q0 -2 2 -2h138q10 0 24 1q25 0 47 -27q11 -15 11 -40v-127q0 -46 -21 -61q-17 -15 -37 -15h-162q-2 -1 -2 -2v-391q0 -2 2 -2h212q10 0 24 1q25 0 47 -28q10 -14 10 -29v-157
q0 -37 -43 -55q-8 -2 -14 -2h-51q-141 0 -398 -1q-31 0 -52 32q-6 10 -8 26q1 248 1 393v692q0 146 -1 400q0 25 28 47q14 10 29 10zM362 1702q-11 4 -246 142q-51 22 -51 64q0 24 32 72q23 54 65 54h5q14 -2 216 -60l143 41q63 19 76 19h2q15 0 28 -9q16 -6 39 -50
q29 -45 29 -67q0 -24 -21 -46q-17 -12 -231 -134q-43 -29 -66 -29h-2q-7 0 -18 3z" />
    <glyph glyph-name="ecaron" unicode="&#x11b;" 
d="M457 1379q147 0 260 -112q43 -50 58 -83q17 -32 28 -70q12 -45 12 -118v-415q0 -47 -50 -63q-9 -1 -14 -1h-379v-164q0 -49 54 -76q15 -5 27 -5h8q49 0 77 54q5 14 7 48q17 45 65 45h138q47 0 64 -43q2 -9 3 -17q0 -158 -125 -273q-107 -86 -233 -86q-155 0 -270 124
q-58 66 -81 169q-6 32 -6 90v613q0 122 41 190q58 116 190 171q68 22 126 22zM372 1026v-237h171v237q0 49 -54 77q-16 5 -28 5h-8q-49 0 -76 -54q-5 -16 -5 -28zM437 1484q-11 4 -246 142q-51 22 -51 64q0 24 32 72q23 54 65 54h5q14 -2 216 -60l143 41q63 19 76 19h2
q15 0 28 -9q16 -6 39 -50q29 -45 29 -67q0 -24 -21 -46q-17 -12 -231 -134q-43 -29 -66 -29h-2q-7 0 -18 3z" />
    <glyph glyph-name="Gcircumflex" unicode="&#x11c;" horiz-adv-x="900" 
d="M442 1600h31q81 0 172 -52q107 -68 150 -189q19 -57 19 -100v-168q0 -38 -46 -55q-10 -2 -20 -2h-138q-52 0 -66 51q-1 10 -1 16v147q0 49 -54 76q-16 5 -28 5h-7q-48 0 -74 -49q-9 -8 -9 -75v-809q0 -67 6 -67q9 -28 38 -47q22 -10 39 -10h7q50 0 77 54q5 16 5 27v238
h-7q-52 0 -66 51q-1 10 -1 16v138q0 52 52 66q10 1 15 1h215q46 0 62 -48q1 -4 1 -8v-750q0 -38 -46 -55q-10 -2 -20 -2h-138q-30 0 -46 17q-55 -17 -107 -17q-139 0 -249 101q-51 54 -66 90q-19 33 -30 79q-8 21 -12 81q1 24 1 36v828q0 13 -1 33q0 94 57 190
q66 102 193 146q54 16 92 16zM454 2054h2q23 0 66 -29q214 -122 231 -135q21 -21 21 -45q0 -22 -29 -67q-23 -45 -39 -50q-13 -9 -28 -9h-2q-13 0 -76 19l-143 41q-202 -58 -216 -60h-5q-42 0 -65 54q-32 47 -32 72q0 42 51 64q235 138 246 142q11 3 18 3z" />
    <glyph glyph-name="gcircumflex" unicode="&#x11d;" horiz-adv-x="913" 
d="M600 1379h157q37 0 55 -43q2 -8 2 -14v-1499q0 -87 -60 -184q-16 -26 -64 -72q-107 -86 -233 -86q-149 0 -262 115q-95 108 -95 245q0 29 31 51q14 9 39 9h132q71 0 71 -80q2 -20 28 -48q29 -21 54 -21l2 1h1q1 0 1 -1q44 0 74 45q11 14 11 73v139q-46 -11 -87 -11
q-150 0 -264 117q-47 56 -61 94q-32 62 -32 169v619q0 116 40 187q17 38 73 97q69 59 132 78q56 18 108 18h9q45 0 100 -15q19 17 38 17zM372 1023v-671q0 -49 52 -76q13 -5 32 -7l1 1q1 0 1 -1q49 0 77 49q9 10 9 76v589q0 70 -12 79q-13 26 -43 38q-15 6 -28 6h-7
q-48 0 -76 -52q-6 -17 -6 -31zM454 1836h2q23 0 66 -29q214 -122 231 -135q21 -21 21 -45q0 -22 -29 -67q-23 -45 -39 -50q-13 -9 -28 -9h-2q-13 0 -76 19l-143 41q-202 -58 -216 -60h-5q-42 0 -65 54q-32 47 -32 72q0 42 51 64q235 138 246 142q11 3 18 3z" />
    <glyph glyph-name="Gbreve" unicode="&#x11e;" horiz-adv-x="900" 
d="M442 1600h31q81 0 172 -52q107 -68 150 -189q19 -57 19 -100v-168q0 -38 -46 -55q-10 -2 -20 -2h-138q-52 0 -66 51q-1 10 -1 16v147q0 49 -54 76q-16 5 -28 5h-7q-48 0 -74 -49q-9 -8 -9 -75v-809q0 -67 6 -67q9 -28 38 -47q22 -10 39 -10h7q50 0 77 54q5 16 5 27v238
h-7q-52 0 -66 51q-1 10 -1 16v138q0 52 52 66q10 1 15 1h215q46 0 62 -48q1 -4 1 -8v-750q0 -38 -46 -55q-10 -2 -20 -2h-138q-30 0 -46 17q-55 -17 -107 -17q-139 0 -249 101q-51 54 -66 90q-19 33 -30 79q-8 21 -12 81q1 24 1 36v828q0 13 -1 33q0 94 57 190
q66 102 193 146q54 16 92 16zM243 2046h58q49 0 67 -39q35 -34 87 -34l2 1q1 0 3 -1q73 4 94 47q19 26 58 26h51q48 0 63 -23q14 -16 14 -37v-10q0 -99 -79 -189q-57 -52 -97 -64q-50 -21 -95 -21h-23q-83 0 -167 62q-105 91 -105 222q0 41 47 58q9 2 22 2z" />
    <glyph glyph-name="gbreve" unicode="&#x11f;" horiz-adv-x="913" 
d="M600 1379h157q37 0 55 -43q2 -8 2 -14v-1499q0 -87 -60 -184q-16 -26 -64 -72q-107 -86 -233 -86q-149 0 -262 115q-95 108 -95 245q0 29 31 51q14 9 39 9h132q71 0 71 -80q2 -20 28 -48q29 -21 54 -21l2 1h1q1 0 1 -1q44 0 74 45q11 14 11 73v139q-46 -11 -87 -11
q-150 0 -264 117q-47 56 -61 94q-32 62 -32 169v619q0 116 40 187q17 38 73 97q69 59 132 78q56 18 108 18h9q45 0 100 -15q19 17 38 17zM372 1023v-671q0 -49 52 -76q13 -5 32 -7l1 1q1 0 1 -1q49 0 77 49q9 10 9 76v589q0 70 -12 79q-13 26 -43 38q-15 6 -28 6h-7
q-48 0 -76 -52q-6 -17 -6 -31zM243 1828h58q49 0 67 -39q35 -34 87 -34l2 1q1 0 3 -1q73 4 94 47q19 26 58 26h51q48 0 63 -23q14 -16 14 -37v-10q0 -99 -79 -189q-57 -52 -97 -64q-50 -21 -95 -21h-23q-83 0 -167 62q-105 91 -105 222q0 41 47 58q9 2 22 2z" />
    <glyph glyph-name="Gdot" unicode="&#x120;" horiz-adv-x="900" 
d="M442 1600h31q81 0 172 -52q107 -68 150 -189q19 -57 19 -100v-168q0 -38 -46 -55q-10 -2 -20 -2h-138q-52 0 -66 51q-1 10 -1 16v147q0 49 -54 76q-16 5 -28 5h-7q-48 0 -74 -49q-9 -8 -9 -75v-809q0 -67 6 -67q9 -28 38 -47q22 -10 39 -10h7q50 0 77 54q5 16 5 27v238
h-7q-52 0 -66 51q-1 10 -1 16v138q0 52 52 66q10 1 15 1h215q46 0 62 -48q1 -4 1 -8v-750q0 -38 -46 -55q-10 -2 -20 -2h-138q-30 0 -46 17q-55 -17 -107 -17q-139 0 -249 101q-51 54 -66 90q-19 33 -30 79q-8 21 -12 81q1 24 1 36v828q0 13 -1 33q0 94 57 190
q66 102 193 146q54 16 92 16zM575 1976q23 0 47 -27q11 -18 11 -40v-127q0 -50 -25 -64q-15 -13 -33 -13h-132q-10 0 -24 -1q-25 0 -47 28q-11 15 -11 38v130q0 52 31 66q11 9 27 9h132q10 0 24 1z" />
    <glyph glyph-name="gdot" unicode="&#x121;" horiz-adv-x="913" 
d="M600 1379h157q37 0 55 -43q2 -8 2 -14v-1499q0 -87 -60 -184q-16 -26 -64 -72q-107 -86 -233 -86q-149 0 -262 115q-95 108 -95 245q0 29 31 51q14 9 39 9h132q71 0 71 -80q2 -20 28 -48q29 -21 54 -21l2 1h1q1 0 1 -1q44 0 74 45q11 14 11 73v139q-46 -11 -87 -11
q-150 0 -264 117q-47 56 -61 94q-32 62 -32 169v619q0 116 40 187q17 38 73 97q69 59 132 78q56 18 108 18h9q45 0 100 -15q19 17 38 17zM372 1023v-671q0 -49 52 -76q13 -5 32 -7l1 1q1 0 1 -1q49 0 77 49q9 10 9 76v589q0 70 -12 79q-13 26 -43 38q-15 6 -28 6h-7
q-48 0 -76 -52q-6 -17 -6 -31zM575 1758q23 0 47 -27q11 -18 11 -40v-127q0 -50 -25 -64q-15 -13 -33 -13h-132q-10 0 -24 -1q-25 0 -47 28q-11 15 -11 38v130q0 52 31 66q11 9 27 9h132q10 0 24 1z" />
    <glyph glyph-name="Gcedilla" unicode="&#x122;" horiz-adv-x="900" 
d="M442 1600h31q81 0 172 -52q107 -68 150 -189q19 -57 19 -100v-168q0 -38 -46 -55q-10 -2 -20 -2h-138q-52 0 -66 51q-1 10 -1 16v147q0 49 -54 76q-16 5 -28 5h-7q-48 0 -74 -49q-9 -8 -9 -75v-809q0 -67 6 -67q9 -28 38 -47q22 -10 39 -10h7q50 0 77 54q5 16 5 27v238
h-7q-52 0 -66 51q-1 10 -1 16v138q0 52 52 66q10 1 15 1h215q46 0 62 -48q1 -4 1 -8v-750q0 -38 -46 -55q-10 -2 -20 -2h-138q-30 0 -46 17q-55 -17 -107 -17q-139 0 -249 101q-51 54 -66 90q-19 33 -30 79q-8 21 -12 81q1 24 1 36v828q0 13 -1 33q0 94 57 190
q66 102 193 146q54 16 92 16zM378 221h54q43 0 58 -37q2 -10 2 -18v-238q148 0 235 -114q54 -77 54 -157v-16q0 -100 -81 -188q-60 -56 -117 -71q-38 -11 -100 -11h-105q-46 0 -57 46v75q0 33 39 49q11 2 18 2h128q39 0 63 40q9 17 9 34q0 45 -46 69q-14 6 -26 6h-128
q-46 0 -57 46v432q0 33 39 49q11 2 18 2z" />
    <glyph glyph-name="gcedilla" unicode="&#x123;" horiz-adv-x="913" 
d="M600 1379h157q37 0 55 -43q2 -8 2 -14v-1499q0 -87 -60 -184q-16 -26 -64 -72q-107 -86 -233 -86q-149 0 -262 115q-95 108 -95 245q0 29 31 51q14 9 39 9h132q71 0 71 -80q2 -20 28 -48q29 -21 54 -21l2 1h1q1 0 1 -1q44 0 74 45q11 14 11 73v139q-46 -11 -87 -11
q-150 0 -264 117q-47 56 -61 94q-32 62 -32 169v619q0 116 40 187q17 38 73 97q69 59 132 78q56 18 108 18h9q45 0 100 -15q19 17 38 17zM372 1023v-671q0 -49 52 -76q13 -5 32 -7l1 1q1 0 1 -1q49 0 77 49q9 10 9 76v589q0 70 -12 79q-13 26 -43 38q-15 6 -28 6h-7
q-48 0 -76 -52q-6 -17 -6 -31zM328 -279h54q43 0 58 -37q2 -10 2 -18v-238q148 0 235 -114q54 -77 54 -157v-16q0 -100 -81 -188q-60 -56 -117 -71q-38 -11 -100 -11h-105q-46 0 -57 46v75q0 33 39 49q11 2 18 2h128q39 0 63 40q9 17 9 34q0 45 -46 69q-14 6 -26 6h-128
q-46 0 -57 46v432q0 33 39 49q11 2 18 2z" />
    <glyph glyph-name="Hcircumflex" unicode="&#x124;" horiz-adv-x="900" 
d="M157 1598h156q37 0 55 -43q2 -8 2 -14v-605q1 -2 2 -2h170q2 0 2 2v581q0 10 -1 24q0 25 27 47q15 10 30 10h156q37 0 55 -43q2 -8 2 -14v-420v-640v-399q0 -10 1 -24q0 -25 -28 -47q-15 -11 -39 -11h-127q-47 0 -62 22q-14 17 -14 36v605q0 2 -2 2h-170q-2 -1 -2 -2
v-581q0 -10 1 -24q0 -25 -27 -47q-15 -11 -39 -11h-127q-47 0 -62 22q-15 17 -15 36v420v640v399q0 10 -1 24q0 25 28 47q14 10 29 10zM454 2054h2q23 0 66 -29q214 -122 231 -135q21 -21 21 -45q0 -22 -29 -67q-23 -45 -39 -50q-13 -9 -28 -9h-2q-13 0 -76 19l-143 41
q-202 -58 -216 -60h-5q-42 0 -65 54q-32 47 -32 72q0 42 51 64q235 138 246 142q11 3 18 3z" />
    <glyph glyph-name="hcircumflex" unicode="&#x125;" horiz-adv-x="914" 
d="M157 1600h156q37 0 55 -43q2 -8 2 -14v-174q48 11 87 11q156 0 270 -124q60 -68 81 -170q6 -30 6 -89v-928q0 -48 -45 -64q-8 -2 -14 -2h-154q-35 0 -54 38q-5 11 -5 28v958q0 48 -52 75q-13 5 -31 7l-2 -1q-1 0 -1 1q-48 0 -77 -49q-9 -10 -9 -76v-902q0 -10 1 -24
q0 -25 -27 -47q-15 -11 -39 -11h-127q-47 0 -62 22q-15 17 -15 36v1461q0 10 -1 24q0 25 28 47q14 10 29 10zM454 2129h2q23 0 66 -29q214 -122 231 -135q21 -21 21 -45q0 -22 -29 -67q-23 -45 -39 -50q-13 -9 -28 -9h-2q-13 0 -76 19l-143 41q-202 -58 -216 -60h-5
q-42 0 -65 54q-32 47 -32 72q0 42 51 64q235 138 246 142q11 3 18 3z" />
    <glyph glyph-name="Hbar" unicode="&#x126;" horiz-adv-x="967" 
d="M157 1598h156q37 0 55 -43q2 -8 2 -14v-605q1 -2 2 -2h170q2 0 2 2v581q0 10 -1 24q0 25 27 47q15 10 30 10h156q37 0 55 -43q2 -8 2 -14v-420v-640v-399q0 -10 1 -24q0 -25 -28 -47q-15 -11 -39 -11h-127q-47 0 -62 22q-14 17 -14 36v605q0 2 -2 2h-170q-2 -1 -2 -2
v-581q0 -10 1 -24q0 -25 -27 -47q-15 -11 -39 -11h-127q-47 0 -62 22q-15 17 -15 36v420v640v399q0 10 -1 24q0 25 28 47q14 10 29 10zM88 1398h815q29 0 40 -35v-193q-8 -38 -50 -38h-792q-36 0 -47 28q-4 8 -4 23v165q0 42 38 50z" />
    <glyph glyph-name="hbar" unicode="&#x127;" horiz-adv-x="933" 
d="M157 1600h156q37 0 55 -43q2 -8 2 -14v-474q48 11 87 11q156 0 270 -124q60 -68 81 -170q6 -30 6 -89v-628q0 -48 -45 -64q-8 -2 -14 -2h-154q-35 0 -54 38q-5 11 -5 28v658q0 48 -52 75q-13 5 -31 7l-2 -1q-1 0 -1 1q-48 0 -77 -49q-9 -10 -9 -76v-602q0 -10 1 -24
q0 -25 -27 -47q-15 -11 -39 -11h-127q-47 0 -62 22q-15 17 -15 36v1461q0 10 -1 24q0 25 28 47q14 10 29 10zM92 1459h725q29 0 40 -35v-193q-8 -38 -50 -38h-702q-36 0 -47 28q-4 8 -4 23v165q0 42 38 50z" />
    <glyph glyph-name="Itilde" unicode="&#x128;" horiz-adv-x="470" 
d="M157 1600h157q36 0 55 -43q2 -8 2 -14v-1461q0 -10 1 -24q0 -25 -28 -47q-15 -11 -39 -11h-127q-47 0 -62 22q-15 17 -15 36v1461q0 10 -1 24q0 25 28 47q14 10 29 10zM-28 2044q16 0 49 -25q42 -26 86 -26q31 0 173 38q56 11 103 11h6q74 0 138 -27q18 -15 18 -37v-177
q0 -28 -26 -41q-10 -5 -19 -5q-12 0 -54 24q-35 15 -73 15q-39 0 -166 -35q-62 -14 -112 -14h-9q-69 0 -138 29q-21 15 -21 37v190q0 31 34 41q4 2 11 2z" />
    <glyph glyph-name="itilde" unicode="&#x129;" horiz-adv-x="474" 
d="M178 1376h126q45 0 63 -41q3 -9 3 -16v-1261q0 -38 -45 -56q-16 -2 -32 -2h-126q-47 0 -64 43q-2 14 -3 14q1 16 1 25v1236q0 37 45 56q16 2 32 2zM-29 1826q16 0 49 -25q42 -26 86 -26q31 0 173 38q56 11 103 11h6q74 0 138 -27q18 -15 18 -37v-177q0 -28 -26 -41
q-10 -5 -19 -5q-12 0 -54 24q-35 15 -73 15q-39 0 -166 -35q-62 -14 -112 -14h-9q-69 0 -138 29q-21 15 -21 37v190q0 31 34 41q4 2 11 2z" />
    <glyph glyph-name="Imacron" unicode="&#x12a;" horiz-adv-x="470" 
d="M157 1600h157q36 0 55 -43q2 -8 2 -14v-1461q0 -10 1 -24q0 -25 -28 -47q-15 -11 -39 -11h-127q-47 0 -62 22q-15 17 -15 36v1461q0 10 -1 24q0 25 28 47q14 10 29 10zM9 2069q18 -1 27 -1h425q36 0 54 -41q4 -10 4 -28v-138q0 -43 -41 -60q-4 -2 -16 -4q-16 1 -25 1
h-428q-33 0 -53 41q-3 11 -3 18v152q0 39 43 57q13 2 13 3z" />
    <glyph glyph-name="imacron" unicode="&#x12b;" horiz-adv-x="474" 
d="M178 1376h126q45 0 63 -41q3 -9 3 -16v-1261q0 -38 -45 -56q-16 -2 -32 -2h-126q-47 0 -64 43q-2 14 -3 14q1 16 1 25v1236q0 37 45 56q16 2 32 2zM8 1851q18 -1 27 -1h425q36 0 54 -41q4 -10 4 -28v-138q0 -43 -41 -60q-4 -2 -16 -4q-16 1 -25 1h-428q-33 0 -53 41
q-3 11 -3 18v152q0 39 43 57q13 2 13 3z" />
    <glyph glyph-name="Ibreve" unicode="&#x12c;" horiz-adv-x="470" 
d="M157 1600h157q36 0 55 -43q2 -8 2 -14v-1461q0 -10 1 -24q0 -25 -28 -47q-15 -11 -39 -11h-127q-47 0 -62 22q-15 17 -15 36v1461q0 10 -1 24q0 25 28 47q14 10 29 10zM22 2046h58q49 0 67 -39q35 -34 87 -34l2 1q1 0 3 -1q73 4 94 47q19 26 58 26h51q48 0 63 -23
q14 -16 14 -37v-10q0 -99 -79 -189q-57 -52 -97 -64q-50 -21 -95 -21h-23q-83 0 -167 62q-105 91 -105 222q0 41 47 58q9 2 22 2z" />
    <glyph glyph-name="ibreve" unicode="&#x12d;" horiz-adv-x="474" 
d="M178 1376h126q45 0 63 -41q3 -9 3 -16v-1261q0 -38 -45 -56q-16 -2 -32 -2h-126q-47 0 -64 43q-2 14 -3 14q1 16 1 25v1236q0 37 45 56q16 2 32 2zM21 1828h58q49 0 67 -39q35 -34 87 -34l2 1q1 0 3 -1q73 4 94 47q19 26 58 26h51q48 0 63 -23q14 -16 14 -37v-10
q0 -99 -79 -189q-57 -52 -97 -64q-50 -21 -95 -21h-23q-83 0 -167 62q-105 91 -105 222q0 41 47 58q9 2 22 2z" />
    <glyph glyph-name="Iogonek" unicode="&#x12e;" horiz-adv-x="470" 
d="M157 1600h157q36 0 55 -43q2 -8 2 -14v-1461q0 -10 1 -24q0 -25 -28 -47q-15 -11 -39 -11h-127q-47 0 -62 22q-15 17 -15 36v1461q0 10 -1 24q0 25 28 47q14 10 29 10zM380 87q19 -18 19 -30.75q73 -270.75 73 -279v-3q0 -4.5 -2 -10.5q-16 -33.75 -64 -33.75h-59
q-48 0 -65 24.75l-135 252.75q-20 34.5 -20 45q0 8.25 3 15.75q18 31.5 63 31.5h139q29 0 48 -12.75z" />
    <glyph glyph-name="iogonek" unicode="&#x12f;" horiz-adv-x="474" 
d="M158 1743h156q36 0 54 -43q2 -5 2 -13v-156q0 -38 -45 -56q-16 -2 -32 -2h-126q-47 0 -64 43q-2 14 -3 14q1 16 1 24v132q0 37 43 55q8 2 14 2zM178 1376h126q45 0 63 -41q3 -9 3 -16v-1261q0 -38 -45 -56q-16 -2 -32 -2h-126q-47 0 -64 43q-2 14 -3 14q1 16 1 25v1236
q0 37 45 56q16 2 32 2zM378 87q19 -18 19 -30.75q73 -270.75 73 -279v-3q0 -4.5 -2 -10.5q-16 -33.75 -64 -33.75h-59q-48 0 -65 24.75l-135 252.75q-20 34.5 -20 45q0 8.25 3 15.75q18 31.5 63 31.5h139q29 0 48 -12.75z" />
    <glyph glyph-name="Idotaccent" unicode="&#x130;" horiz-adv-x="470" 
d="M157 1600h157q36 0 55 -43q2 -8 2 -14v-1461q0 -10 1 -24q0 -25 -28 -47q-15 -11 -39 -11h-127q-47 0 -62 22q-15 17 -15 36v1461q0 10 -1 24q0 25 28 47q14 10 29 10zM314 1976q23 0 47 -27q11 -18 11 -40v-127q0 -50 -25 -64q-15 -13 -33 -13h-132q-10 0 -24 -1
q-25 0 -47 28q-11 15 -11 38v130q0 52 31 66q11 9 27 9h132q10 0 24 1z" />
    <glyph glyph-name="dotlessi" unicode="&#x131;" horiz-adv-x="474" 
d="M178 1376h126q45 0 63 -41q3 -9 3 -16v-1261q0 -38 -45 -56q-16 -2 -32 -2h-126q-47 0 -64 43q-2 14 -3 14q1 16 1 25v1236q0 37 45 56q16 2 32 2z" />
    <glyph glyph-name="IJ" unicode="&#x132;" horiz-adv-x="970" 
d="M156 1600h157q36 0 55 -43q2 -8 2 -14v-1461q0 -10 1 -24q0 -25 -28 -47q-15 -11 -39 -11h-127q-47 0 -62 22q-15 17 -15 36v1461q0 10 -1 24q0 25 28 47q14 10 29 10zM628 1600h156q37 0 56 -43q2 -8 2 -14v-1237q0 -11 1 -28q0 -62 -36 -131q-11 -25 -55 -71
q-86 -76 -195 -76q-38 0 -58 45q-2 15 -2 22v138q0 47 43 64q29 3 29 8q3 0 3 33v1209q0 10 -1 24q0 25 27 47q15 10 30 10z" />
    <glyph glyph-name="ij" unicode="&#x133;" horiz-adv-x="953" 
d="M155 1743h156q36 0 54 -43q2 -5 2 -13v-156q0 -38 -45 -56q-16 -2 -32 -2h-126q-47 0 -64 43q-2 14 -3 14q1 16 1 24v132q0 37 43 55q8 2 14 2zM175 1376h126q45 0 63 -41q3 -9 3 -16v-1261q0 -38 -45 -56q-16 -2 -32 -2h-126q-47 0 -64 43q-2 14 -3 14q1 16 1 25v1236
q0 37 45 56q16 2 32 2zM631 1746h157q29 0 49 -33q6 -11 6 -23v-156q0 -37 -43 -55q-12 -3 -34 -3h-126q-51 0 -66 49q-1 9 -1 14v141q0 48 44 64q8 2 14 2zM648 1379h130q44 0 62 -40q3 -9 3 -17v-1475q0 -168 -132 -281q-101 -79 -227 -79q-27 0 -48 27q-11 16 -11 40v137
q0 47 43 64q16 2 41 5q34 11 50 37q14 25 14 42q0 1 -1 1q1 10 1 15v1457q0 46 39 62q9 5 36 5z" />
    <glyph glyph-name="Jcircumflex" unicode="&#x134;" horiz-adv-x="529" 
d="M191 1600h156q37 0 56 -43q2 -8 2 -14v-1237q0 -11 1 -28q0 -62 -36 -131q-11 -25 -55 -71q-86 -76 -195 -76q-38 0 -58 45q-2 15 -2 22v138q0 47 43 64q29 3 29 8q3 0 3 33v1209q0 10 -1 24q0 25 27 47q15 10 30 10zM270 2054h2q23 0 66 -29q214 -122 231 -135
q21 -21 21 -45q0 -22 -29 -67q-23 -45 -39 -50q-13 -9 -28 -9h-2q-13 0 -76 19l-143 41q-202 -58 -216 -60h-5q-42 0 -65 54q-32 47 -32 72q0 42 51 64q235 138 246 142q11 3 18 3z" />
    <glyph glyph-name="jcircumflex" unicode="&#x135;" horiz-adv-x="571" 
d="M230 1234h164q38 0 47 -38v-1343q0 -99 -78 -193q-45 -46 -78 -63q-68 -40 -173 -40h-61q-36 0 -47 28q-4 7 -4 23v164q0 36 28 47q7 4 23 4h84q28 0 40 32q1 4 1 9v1316q0 54 54 54zM301 1860q15 0 70 -36q238 -135 267 -155q12 -16 12 -32q0 -15 -39 -76
q-56 -100 -63 -108q-15 -11 -31 -12q-14 0 -66 32q-138 80 -152 87q-187 -109 -204 -117q-9 -1 -12 -2q-32 0 -51 44q-82 137 -82 148v7q0 30 46 50q278 162 290 167q10 3 15 3z" />
    <glyph glyph-name="Kcedilla" unicode="&#x136;" horiz-adv-x="1036" 
d="M128 1500h189q39 -7 39 -51v-536h1q325 567 332 574q14 13 25 13h217q21 0 35 -28q2 -5 2 -13v-5q0 -15 -27 -56q-354 -615 -363 -632v-1q392 -678 407 -707q1 -2 1 -6v-14q-8 -38 -49 -38h-191q-38 0 -52 33q-321 557 -337 586h-1v-572q0 -35 -36 -46q-7 -1 -15 -1h-161
q-54 0 -54 54v1397q0 41 38 49zM198 221h54q43 0 58 -37q2 -10 2 -18v-238q148 0 235 -114q54 -77 54 -157v-16q0 -100 -81 -188q-60 -56 -117 -71q-38 -11 -100 -11h-105q-46 0 -57 46v75q0 33 39 49q11 2 18 2h128q39 0 63 40q9 17 9 34q0 45 -46 69q-14 6 -26 6h-128
q-46 0 -57 46v432q0 33 39 49q11 2 18 2z" />
    <glyph glyph-name="kcedilla" unicode="&#x137;" horiz-adv-x="1072" 
d="M134 1500h190q38 -8 38 -49v-493q74 -99 76 -104q10 9 220 277q72 90 82 98q9 7 22 7h233q25 0 37 -32q2 -5 2 -10v-2q0 -21 -37 -60q-5 -7 -393 -497v-1l425 -569q5 -9 5 -19v-2q0 -30 -35 -43q-12 -1 -18 -1h-220q-34 0 -56 42q-5 6 -342 466v1h-1v-458q0 -42 -38 -50
q-4 -1 -10 -1h-170q-32 0 -44 28q-4 7 -4 23v1400q0 41 38 49zM198 221h54q43 0 58 -37q2 -10 2 -18v-238q148 0 235 -114q54 -77 54 -157v-16q0 -100 -81 -188q-60 -56 -117 -71q-38 -11 -100 -11h-105q-46 0 -57 46v75q0 33 39 49q11 2 18 2h128q39 0 63 40q9 17 9 34
q0 45 -46 69q-14 6 -26 6h-128q-46 0 -57 46v432q0 33 39 49q11 2 18 2z" />
    <glyph glyph-name="kgreenlandic" unicode="&#x138;" horiz-adv-x="1075" 
d="M137 1240h190q38 -8 38 -49v-233q74 -99 76 -104q10 9 220 277q72 90 82 98q9 7 22 7h233q25 0 37 -32q2 -5 2 -10v-2q0 -21 -37 -60q-5 -7 -393 -497v-1l425 -569q5 -9 5 -19v-2q0 -30 -35 -43q-12 -1 -18 -1h-220q-34 0 -56 42q-5 6 -342 466v1h-1v-458q0 -42 -38 -50
q-4 -1 -10 -1h-170q-32 0 -44 28q-4 7 -4 23v1140q0 41 38 49z" />
    <glyph glyph-name="Lacute" unicode="&#x139;" horiz-adv-x="688" 
d="M157 1600h157q36 0 55 -43q2 -8 2 -14v-1270q0 -2 2 -2h212q10 0 24 1q25 0 47 -28q10 -14 10 -29v-157q0 -37 -43 -55q-8 -2 -14 -2h-51q-141 0 -398 -1q-36 0 -56 40l-4 17q1 235 1 394v1068q0 10 -1 24q0 25 28 47q14 10 29 10zM427 2257h139q45 0 63 -42q3 -10 3 -21
q0 -16 -25 -72q-126 -317 -133 -330q-19 -28 -62 -28h-59q-48 0 -64 45q-2 8 -2 14v6q0 6 76 385q17 43 64 43z" />
    <glyph glyph-name="lacute" unicode="&#x13a;" horiz-adv-x="471" 
d="M158 1597h157q30 0 50 -34q5 -11 5 -24v-1479q0 -42 -48 -59q-8 -1 -14 -1h-150q-35 0 -54 39q-4 10 -4 20v1475q0 47 48 62q5 1 10 1zM283 2189h139q45 0 63 -42q3 -10 3 -21q0 -16 -25 -72q-126 -317 -133 -330q-19 -28 -62 -28h-59q-48 0 -64 45q-2 8 -2 14v6
q0 6 76 385q17 43 64 43z" />
    <glyph glyph-name="Lcedilla" unicode="&#x13b;" horiz-adv-x="697" 
d="M159 1600h157q36 0 55 -43q2 -8 2 -14v-1270q0 -2 2 -2h212q10 0 24 1q25 0 47 -28q10 -14 10 -29v-157q0 -37 -43 -55q-8 -2 -14 -2h-51q-141 0 -398 -1q-36 0 -56 40l-4 17q1 235 1 394v1068q0 10 -1 24q0 25 28 47q14 10 29 10zM303 98h139q45 0 63 -42q3 -10 3 -21
q0 -16 -25 -72q-126 -317 -133 -330q-19 -28 -62 -28h-59q-48 0 -64 45q-2 8 -2 14v6q0 6 76 385q17 43 64 43z" />
    <glyph glyph-name="lcedilla" unicode="&#x13c;" horiz-adv-x="475" 
d="M158 1597h157q30 0 50 -34q5 -11 5 -24v-1479q0 -42 -48 -59q-8 -1 -14 -1h-150q-35 0 -54 39q-4 10 -4 20v1475q0 47 48 62q5 1 10 1zM234 105h139q45 0 63 -42q3 -10 3 -21q0 -16 -25 -72q-126 -317 -133 -330q-19 -28 -62 -28h-59q-48 0 -64 45q-2 8 -2 14v6
q0 6 76 385q17 43 64 43z" />
    <glyph glyph-name="Lcaron" unicode="&#x13d;" horiz-adv-x="884" 
d="M159 1600h157q36 0 55 -43q2 -8 2 -14v-1270q0 -2 2 -2h212q10 0 24 1q25 0 47 -28q10 -14 10 -29v-157q0 -37 -43 -55q-8 -2 -14 -2h-51q-141 0 -398 -1q-36 0 -56 40l-4 17q1 235 1 394v1068q0 10 -1 24q0 25 28 47q14 10 29 10zM648 1696h139q45 0 63 -42q3 -10 3 -21
q0 -16 -25 -72q-126 -317 -133 -330q-19 -28 -62 -28h-59q-48 0 -64 45q-2 8 -2 14v6q0 6 76 385q17 43 64 43z" />
    <glyph glyph-name="lcaron" unicode="&#x13e;" horiz-adv-x="865" 
d="M158 1597h157q30 0 50 -34q5 -11 5 -24v-1479q0 -42 -48 -59q-8 -1 -14 -1h-150q-35 0 -54 39q-4 10 -4 20v1475q0 47 48 62q5 1 10 1zM618 1696h139q45 0 63 -42q3 -10 3 -21q0 -16 -25 -72q-126 -317 -133 -330q-19 -28 -62 -28h-59q-48 0 -64 45q-2 8 -2 14v6
q0 6 76 385q17 43 64 43z" />
    <glyph glyph-name="Ldot" unicode="&#x13f;" horiz-adv-x="850" 
d="M156 1600h157q36 0 55 -43q2 -8 2 -14v-1270q0 -2 2 -2h212q10 0 24 1q25 0 47 -28q10 -14 10 -29v-157q0 -37 -43 -55q-8 -2 -14 -2h-51q-141 0 -398 -1q-36 0 -56 40l-4 17q1 235 1 394v1068q0 10 -1 24q0 25 28 47q14 10 29 10zM756 938q23 0 47 -27q11 -18 11 -40
v-127q0 -50 -25 -64q-15 -13 -33 -13h-132q-10 0 -24 -1q-25 0 -47 28q-11 15 -11 38v130q0 52 31 66q11 9 27 9h132q10 0 24 1z" />
    <glyph glyph-name="ldot" unicode="&#x140;" horiz-adv-x="810" 
d="M157 1597h157q30 0 50 -34q5 -11 5 -24v-1479q0 -42 -48 -59q-8 -1 -14 -1h-150q-35 0 -54 39q-4 10 -4 20v1475q0 47 48 62q5 1 10 1zM715 938q23 0 47 -27q11 -18 11 -40v-127q0 -50 -25 -64q-15 -13 -33 -13h-132q-10 0 -24 -1q-25 0 -47 28q-11 15 -11 38v130
q0 52 31 66q11 9 27 9h132q10 0 24 1z" />
    <glyph glyph-name="Lslash" unicode="&#x141;" horiz-adv-x="833" 
d="M284 1600h161q34 0 54 -41q3 -11 3 -18v-553h1q152 36 158 36h7q39 0 57 -45q2 -8 2 -14v-165q0 -32 -38 -53q-13 -4 -187 -45v-427h222q8 0 19 1q28 0 51 -31q8 -16 8 -27v-157q0 -38 -42 -57q-8 -3 -15 -3h-55q-150 0 -400 -1q-42 0 -60 47q-2 10 -2 18v571h-1
q-155 -37 -165 -37q-43 0 -60 48q-2 9 -2 22v142q0 50 43 67l185 44v614q0 47 48 63q4 1 8 1z" />
    <glyph glyph-name="lslash" unicode="&#x142;" horiz-adv-x="753" 
d="M282 1600h161q35 0 54 -42q3 -11 3 -18v-553q152 37 161 37h6q41 0 58 -47q1 -6 1 -9v-169q0 -31 -38 -52q-16 -5 -188 -45v-642q0 -36 -39 -55q-11 -5 -28 -5h-130q-55 0 -69 34q-8 11 -8 33v569q-155 -37 -163 -37h-2q-42 0 -60 48q-1 7 -1 11v164q0 37 43 56l183 44
v615q0 45 47 62q5 1 9 1z" />
    <glyph glyph-name="Nacute" unicode="&#x143;" horiz-adv-x="970" 
d="M157 1600h171q34 0 54 -41l235 -681h1v641q0 10 -1 24q0 25 28 47q14 10 29 10h157q36 0 55 -43q2 -8 2 -14v-1461q0 -10 1 -24q0 -25 -28 -47q-15 -11 -39 -11h-135q-48 0 -65 38l-250 716h-1v-672q0 -10 1 -24q0 -25 -28 -47q-15 -11 -39 -11h-127q-47 0 -62 22
q-15 17 -15 36v1461q0 10 -1 24q0 25 28 47q14 10 29 10zM569 2211h139q45 0 63 -42q3 -10 3 -21q0 -16 -25 -72q-126 -317 -133 -330q-19 -28 -62 -28h-59q-48 0 -64 45q-2 8 -2 14v6q0 6 76 385q17 43 64 43z" />
    <glyph glyph-name="nacute" unicode="&#x144;" 
d="M176 1377h131q25 0 45 -16h1q55 16 104 16q160 0 275 -130q57 -70 76 -161q5 -37 5 -51v-980q0 -29 -35 -49q-10 -6 -23 -6h-154q-35 0 -54 38q-4 11 -4 28v958q0 48 -53 75q-13 5 -31 7l-2 -1q-1 0 -1 1q-49 0 -79 -52q-6 -18 -6 -30v-964q0 -42 -48 -59q-8 -1 -14 -1
h-150q-35 0 -54 39q-4 10 -4 20v1254q0 47 48 62q10 2 27 2zM522 1993h139q45 0 63 -42q3 -10 3 -21q0 -16 -25 -72q-126 -317 -133 -330q-19 -28 -62 -28h-59q-48 0 -64 45q-2 8 -2 14v6q0 6 76 385q17 43 64 43z" />
    <glyph glyph-name="Ncedilla" unicode="&#x145;" horiz-adv-x="970" 
d="M157 1600h171q34 0 54 -41l235 -681h1v641q0 10 -1 24q0 25 28 47q14 10 29 10h157q36 0 55 -43q2 -8 2 -14v-1461q0 -10 1 -24q0 -25 -28 -47q-15 -11 -39 -11h-135q-48 0 -65 38l-250 716h-1v-672q0 -10 1 -24q0 -25 -28 -47q-15 -11 -39 -11h-127q-47 0 -62 22
q-15 17 -15 36v1461q0 10 -1 24q0 25 28 47q14 10 29 10zM198 221h54q43 0 58 -37q2 -10 2 -18v-238q148 0 235 -114q54 -77 54 -157v-16q0 -100 -81 -188q-60 -56 -117 -71q-38 -11 -100 -11h-105q-46 0 -57 46v75q0 33 39 49q11 2 18 2h128q39 0 63 40q9 17 9 34
q0 45 -46 69q-14 6 -26 6h-128q-46 0 -57 46v432q0 33 39 49q11 2 18 2z" />
    <glyph glyph-name="ncedilla" unicode="&#x146;" 
d="M176 1377h131q25 0 45 -16h1q55 16 104 16q160 0 275 -130q57 -70 76 -161q5 -37 5 -51v-980q0 -29 -35 -49q-10 -6 -23 -6h-154q-35 0 -54 38q-4 11 -4 28v958q0 48 -53 75q-13 5 -31 7l-2 -1q-1 0 -1 1q-49 0 -79 -52q-6 -18 -6 -30v-964q0 -42 -48 -59q-8 -1 -14 -1
h-150q-35 0 -54 39q-4 10 -4 20v1254q0 47 48 62q10 2 27 2zM198 221h54q43 0 58 -37q2 -10 2 -18v-238q148 0 235 -114q54 -77 54 -157v-16q0 -100 -81 -188q-60 -56 -117 -71q-38 -11 -100 -11h-105q-46 0 -57 46v75q0 33 39 49q11 2 18 2h128q39 0 63 40q9 17 9 34
q0 45 -46 69q-14 6 -26 6h-128q-46 0 -57 46v432q0 33 39 49q11 2 18 2z" />
    <glyph glyph-name="Ncaron" unicode="&#x147;" horiz-adv-x="970" 
d="M157 1600h171q34 0 54 -41l235 -681h1v641q0 10 -1 24q0 25 28 47q14 10 29 10h157q36 0 55 -43q2 -8 2 -14v-1461q0 -10 1 -24q0 -25 -28 -47q-15 -11 -39 -11h-135q-48 0 -65 38l-250 716h-1v-672q0 -10 1 -24q0 -25 -28 -47q-15 -11 -39 -11h-127q-47 0 -62 22
q-15 17 -15 36v1461q0 10 -1 24q0 25 28 47q14 10 29 10zM474 1702q-11 4 -246 142q-51 22 -51 64q0 24 32 72q23 54 65 54h5q14 -2 216 -60l143 41q63 19 76 19h2q15 0 28 -9q16 -6 39 -50q29 -45 29 -67q0 -24 -21 -46q-17 -12 -231 -134q-43 -29 -66 -29h-2q-7 0 -18 3z
" />
    <glyph glyph-name="ncaron" unicode="&#x148;" 
d="M176 1377h131q25 0 45 -16h1q55 16 104 16q160 0 275 -130q57 -70 76 -161q5 -37 5 -51v-980q0 -29 -35 -49q-10 -6 -23 -6h-154q-35 0 -54 38q-4 11 -4 28v958q0 48 -53 75q-13 5 -31 7l-2 -1q-1 0 -1 1q-49 0 -79 -52q-6 -18 -6 -30v-964q0 -42 -48 -59q-8 -1 -14 -1
h-150q-35 0 -54 39q-4 10 -4 20v1254q0 47 48 62q10 2 27 2zM436 1484q-11 4 -246 142q-51 22 -51 64q0 24 32 72q23 54 65 54h5q14 -2 216 -60l143 41q63 19 76 19h2q15 0 28 -9q16 -6 39 -50q29 -45 29 -67q0 -24 -21 -46q-17 -12 -231 -134q-43 -29 -66 -29h-2
q-7 0 -18 3z" />
    <glyph glyph-name="napostrophe" unicode="&#x149;" horiz-adv-x="1081" 
d="M340 1377h131q25 0 45 -16h1q55 16 104 16q160 0 275 -130q57 -70 76 -161q5 -37 5 -51v-980q0 -29 -35 -49q-10 -6 -23 -6h-154q-35 0 -54 38q-4 11 -4 28v958q0 48 -53 75q-13 5 -31 7l-2 -1q-1 0 -1 1q-49 0 -79 -52q-6 -18 -6 -30v-964q0 -42 -48 -59q-8 -1 -14 -1
h-150q-35 0 -54 39q-4 10 -4 20v1254q0 47 48 62q10 2 27 2zM141 1893h139q45 0 63 -42q3 -10 3 -21q0 -16 -25 -72q-126 -317 -133 -330q-19 -28 -62 -28h-59q-48 0 -64 45q-2 8 -2 14v6q0 6 76 385q17 43 64 43z" />
    <glyph glyph-name="Eng" unicode="&#x14a;" horiz-adv-x="922" 
d="M159 1598h158q15 0 35 -15q55 15 90 15h31q81 0 172 -52q107 -68 150 -189q19 -57 19 -100v-1435q0 -83 -55 -177q-19 -32 -70 -79q-103 -86 -234 -86q-36 0 -57 42q-3 14 -3 25v138q0 47 44 64q14 3 20 3v-1q44 0 74 45q11 14 11 73v1334q0 65 -9 76q-15 29 -46 43
q-13 4 -29 6l-2 -1h-1q-1 0 -1 1q-41 0 -70 -39q-14 -21 -14 -44v-1183q0 -45 -48 -61q-7 -1 -11 -1h-154q-37 0 -55 42q-3 8 -3 17v1162q0 11 -1 23q1 4 1 19v272q0 47 48 62q5 1 10 1z" />
    <glyph glyph-name="eng" unicode="&#x14b;" horiz-adv-x="922" 
d="M159 1378h158q15 0 35 -15q55 15 90 15h31q81 0 172 -52q107 -68 150 -189q19 -57 19 -100v-1215q0 -83 -55 -177q-19 -32 -70 -79q-103 -86 -234 -86q-36 0 -57 42q-3 14 -3 25v138q0 47 44 64q14 3 20 3v-1q44 0 74 45q11 14 11 73v1114q0 65 -9 76q-15 29 -46 43
q-13 4 -29 6l-2 -1h-1q-1 0 -1 1q-41 0 -70 -39q-14 -21 -14 -44v-963q0 -45 -48 -61q-7 -1 -11 -1h-154q-37 0 -55 42q-3 8 -3 17v942q0 11 -1 23q1 4 1 19v272q0 47 48 62q5 1 10 1z" />
    <glyph glyph-name="Omacron" unicode="&#x14c;" horiz-adv-x="930" 
d="M442 1600h31q80 0 172 -52q107 -68 150 -189q19 -57 19 -100v-917q0 -87 -60 -184q-19 -28 -59 -67q-107 -91 -238 -91q-139 0 -249 101q-51 54 -66 90q-19 33 -30 79q-8 21 -12 81v897q0 94 57 190q66 102 193 146q54 16 92 16zM371 1205v-809q0 -67 6 -67q9 -28 38 -47
q22 -10 39 -10h7q49 0 77 54q5 16 5 27v895q0 49 -54 76q-16 5 -28 5h-7q-48 0 -74 -49q-9 -8 -9 -75zM230 2069q18 -1 27 -1h425q36 0 54 -41q4 -10 4 -28v-138q0 -43 -41 -60q-4 -2 -16 -4q-16 1 -25 1h-428q-33 0 -53 41q-3 11 -3 18v152q0 39 43 57q13 2 13 3z" />
    <glyph glyph-name="omacron" unicode="&#x14d;" horiz-adv-x="910" 
d="M371 1027v-671q0 -48 50 -75q17 -8 34 -8h4q51 0 78 53q6 15 6 30v671q0 48 -53 75q-13 5 -31 7l-2 -1q-1 0 -1 1q-49 0 -79 -52q-6 -18 -6 -30zM457 1380q156 0 270 -124q60 -68 81 -170q6 -30 6 -89v-614q0 -117 -40 -187q-17 -39 -73 -98q-67 -57 -132 -77
q-55 -18 -107 -18h-10q-130 0 -238 95q-48 48 -65 81q-39 69 -46 139q-3 20 -3 67v612q0 108 32 174q21 50 77 108q110 101 248 101zM230 1851q18 -1 27 -1h425q36 0 54 -41q4 -10 4 -28v-138q0 -43 -41 -60q-4 -2 -16 -4q-16 1 -25 1h-428q-33 0 -53 41q-3 11 -3 18v152
q0 39 43 57q13 2 13 3z" />
    <glyph glyph-name="Obreve" unicode="&#x14e;" horiz-adv-x="930" 
d="M442 1600h31q80 0 172 -52q107 -68 150 -189q19 -57 19 -100v-917q0 -87 -60 -184q-19 -28 -59 -67q-107 -91 -238 -91q-139 0 -249 101q-51 54 -66 90q-19 33 -30 79q-8 21 -12 81v897q0 94 57 190q66 102 193 146q54 16 92 16zM371 1205v-809q0 -67 6 -67q9 -28 38 -47
q22 -10 39 -10h7q49 0 77 54q5 16 5 27v895q0 49 -54 76q-16 5 -28 5h-7q-48 0 -74 -49q-9 -8 -9 -75zM243 2046h58q49 0 67 -39q35 -34 87 -34l2 1q1 0 3 -1q73 4 94 47q19 26 58 26h51q48 0 63 -23q14 -16 14 -37v-10q0 -99 -79 -189q-57 -52 -97 -64q-50 -21 -95 -21h-23
q-83 0 -167 62q-105 91 -105 222q0 41 47 58q9 2 22 2z" />
    <glyph glyph-name="obreve" unicode="&#x14f;" horiz-adv-x="910" 
d="M371 1027v-671q0 -48 50 -75q17 -8 34 -8h4q51 0 78 53q6 15 6 30v671q0 48 -53 75q-13 5 -31 7l-2 -1q-1 0 -1 1q-49 0 -79 -52q-6 -18 -6 -30zM457 1380q156 0 270 -124q60 -68 81 -170q6 -30 6 -89v-614q0 -117 -40 -187q-17 -39 -73 -98q-67 -57 -132 -77
q-55 -18 -107 -18h-10q-130 0 -238 95q-48 48 -65 81q-39 69 -46 139q-3 20 -3 67v612q0 108 32 174q21 50 77 108q110 101 248 101zM243 1828h58q49 0 67 -39q35 -34 87 -34l2 1q1 0 3 -1q73 4 94 47q19 26 58 26h51q48 0 63 -23q14 -16 14 -37v-10q0 -99 -79 -189
q-57 -52 -97 -64q-50 -21 -95 -21h-23q-83 0 -167 62q-105 91 -105 222q0 41 47 58q9 2 22 2z" />
    <glyph glyph-name="Odblacute" unicode="&#x150;" horiz-adv-x="930" 
d="M432 1600h31q80 0 172 -52q107 -68 150 -189q19 -57 19 -100v-917q0 -87 -60 -184q-19 -28 -59 -67q-107 -91 -238 -91q-139 0 -249 101q-51 54 -66 90q-19 33 -30 79q-8 21 -12 81v897q0 94 57 190q66 102 193 146q54 16 92 16zM361 1205v-809q0 -67 6 -67q9 -28 38 -47
q22 -10 39 -10h7q49 0 77 54q5 16 5 27v895q0 49 -54 76q-16 5 -28 5h-7q-48 0 -74 -49q-9 -8 -9 -75zM290 2201h139q45 0 63 -42q3 -10 3 -21q0 -16 -25 -72q-126 -317 -133 -330q-19 -28 -62 -28h-59q-48 0 -64 45q-2 8 -2 14v6q0 6 76 385q17 43 64 43zM679 2201h139
q45 0 63 -42q3 -10 3 -21q0 -14 -20 -60l-135 -337q-17 -33 -65 -33h-59q-48 0 -64 45q-2 8 -2 14v4q0 11 73 372q0 17 19 41q19 17 48 17z" />
    <glyph glyph-name="odblacute" unicode="&#x151;" horiz-adv-x="910" 
d="M361 1027v-671q0 -48 50 -75q17 -8 34 -8h4q51 0 78 53q6 15 6 30v671q0 48 -53 75q-13 5 -31 7l-2 -1q-1 0 -1 1q-49 0 -79 -52q-6 -18 -6 -30zM447 1380q156 0 270 -124q60 -68 81 -170q6 -30 6 -89v-614q0 -117 -40 -187q-17 -39 -73 -98q-67 -57 -132 -77
q-55 -18 -107 -18h-10q-130 0 -238 95q-48 48 -65 81q-39 69 -46 139q-3 20 -3 67v612q0 108 32 174q21 50 77 108q110 101 248 101zM290 1983h139q45 0 63 -42q3 -10 3 -21q0 -16 -25 -72q-126 -317 -133 -330q-19 -28 -62 -28h-59q-48 0 -64 45q-2 8 -2 14v6q0 6 76 385
q17 43 64 43zM679 1983h139q45 0 63 -42q3 -10 3 -21q0 -14 -20 -60l-135 -337q-17 -33 -65 -33h-59q-48 0 -64 45q-2 8 -2 14v4q0 11 73 372q0 17 19 41q19 17 48 17z" />
    <glyph glyph-name="OE" unicode="&#x152;" horiz-adv-x="1205" 
d="M442 1600h31q80 0 172 -52q107 -68 150 -189q19 -57 19 -100v-917q0 -87 -60 -184q-19 -28 -59 -67q-107 -91 -238 -91q-139 0 -249 101q-51 54 -66 90q-19 33 -30 79q-8 21 -12 81v897q0 94 57 190q66 102 193 146q54 16 92 16zM371 1205v-809q0 -67 6 -67q9 -28 38 -47
q22 -10 39 -10h7q49 0 77 54q5 16 5 27v895q0 49 -54 76q-16 5 -28 5h-7q-48 0 -74 -49q-9 -8 -9 -75zM595 1600h453q36 0 54 -43q2 -5 2 -13v-157q0 -36 -43 -55q-8 -2 -14 -2h-236q-2 0 -2 -2v-391q0 -2 2 -2h138q10 0 24 1q25 0 47 -27q11 -15 11 -40v-127q0 -46 -21 -61
q-17 -15 -37 -15h-162q-2 -1 -2 -2v-391q0 -2 2 -2h212q10 0 24 1q25 0 47 -28q10 -14 10 -29v-157q0 -37 -43 -55q-8 -2 -14 -2h-51q-141 0 -398 -1q-31 0 -52 32q-6 10 -8 26q1 248 1 393v692q0 146 -1 400q0 25 28 47q14 10 29 10z" />
    <glyph glyph-name="oe" unicode="&#x153;" horiz-adv-x="1367" 
d="M366 1027v-671q0 -48 50 -75q17 -8 34 -8h4q51 0 78 53q6 15 6 30v671q0 48 -53 75q-13 5 -31 7l-2 -1q-1 0 -1 1q-49 0 -79 -52q-6 -18 -6 -30zM452 1380q156 0 270 -124q60 -68 81 -170q6 -30 6 -89v-614q0 -117 -40 -187q-17 -39 -73 -98q-67 -57 -132 -77
q-55 -18 -107 -18h-10q-130 0 -238 95q-48 48 -65 81q-39 69 -46 139q-3 20 -3 67v612q0 108 32 174q21 50 77 108q110 101 248 101zM895 1379q147 0 260 -112q43 -50 58 -83q17 -32 28 -70q12 -45 12 -118v-415q0 -47 -50 -63q-9 -1 -14 -1h-379v-164q0 -49 54 -76
q15 -5 27 -5h8q49 0 77 54q5 14 7 48q17 45 65 45h138q47 0 64 -43q2 -9 3 -17q0 -158 -125 -273q-107 -86 -233 -86q-155 0 -270 124q-58 66 -81 169q-6 32 -6 90v613q0 122 41 190q58 116 190 171q68 22 126 22zM810 1026v-237h171v237q0 49 -54 77q-16 5 -28 5h-8
q-49 0 -76 -54q-5 -16 -5 -28z" />
    <glyph glyph-name="Racute" unicode="&#x154;" horiz-adv-x="900" 
d="M157 1600h316q81 0 175 -54q94 -59 142 -173q25 -67 25 -124q-1 -23 -1 -34v-311q0 -14 1 -36q0 -82 -46 -169q-9 -16 -31 -46q47 -70 47 -82q30 -58 30 -165v-339q0 -52 -51 -66q-10 -1 -16 -1h-138q-52 0 -66 51q-1 10 -1 16v368q0 47 -49 74q-8 9 -75 9h-46
q-2 0 -2 -2v-434q0 -10 1 -24q0 -25 -28 -47q-15 -11 -39 -11h-127q-47 0 -62 22q-15 17 -15 36v276q0 211 -1 311q1 128 1 330v168q0 150 -1 399q0 35 42 56q10 2 15 2zM371 1328v-538q0 -2 2 -2h46q67 0 67 6q28 9 47 38q11 18 11 68v305q0 67 -6 67q-9 28 -38 47
q-18 11 -68 11h-59q-2 0 -2 -2zM523 2211h139q45 0 63 -42q3 -10 3 -21q0 -16 -25 -72q-126 -317 -133 -330q-19 -28 -62 -28h-59q-48 0 -64 45q-2 8 -2 14v6q0 6 76 385q17 43 64 43z" />
    <glyph glyph-name="racute" unicode="&#x155;" horiz-adv-x="566" 
d="M176 1380h130q28 0 47 -18q54 15 99 15h10q32 0 53 -40q4 -13 4 -26v-136q0 -49 -42 -66q-13 -2 -42 -5q-36 -14 -47 -32q-18 -17 -18 -77v-937q0 -38 -45 -56q-16 -2 -31 -2h-127q-47 0 -64 43q-2 14 -3 14q1 16 1 25v900q0 21 -1 47q1 3 1 35v258q0 35 40 54q11 4 35 4
zM375 1993h139q45 0 63 -42q3 -10 3 -21q0 -16 -25 -72q-126 -317 -133 -330q-19 -28 -62 -28h-59q-48 0 -64 45q-2 8 -2 14v6q0 6 76 385q17 43 64 43z" />
    <glyph glyph-name="Rcedilla" unicode="&#x156;" horiz-adv-x="900" 
d="M157 1600h316q81 0 175 -54q94 -59 142 -173q25 -67 25 -124q-1 -23 -1 -34v-311q0 -14 1 -36q0 -82 -46 -169q-9 -16 -31 -46q47 -70 47 -82q30 -58 30 -165v-339q0 -52 -51 -66q-10 -1 -16 -1h-138q-52 0 -66 51q-1 10 -1 16v368q0 47 -49 74q-8 9 -75 9h-46
q-2 0 -2 -2v-434q0 -10 1 -24q0 -25 -28 -47q-15 -11 -39 -11h-127q-47 0 -62 22q-15 17 -15 36v276q0 211 -1 311q1 128 1 330v168q0 150 -1 399q0 35 42 56q10 2 15 2zM371 1328v-538q0 -2 2 -2h46q67 0 67 6q28 9 47 38q11 18 11 68v305q0 67 -6 67q-9 28 -38 47
q-18 11 -68 11h-59q-2 0 -2 -2zM198 221h54q43 0 58 -37q2 -10 2 -18v-238q148 0 235 -114q54 -77 54 -157v-16q0 -100 -81 -188q-60 -56 -117 -71q-38 -11 -100 -11h-105q-46 0 -57 46v75q0 33 39 49q11 2 18 2h128q39 0 63 40q9 17 9 34q0 45 -46 69q-14 6 -26 6h-128
q-46 0 -57 46v432q0 33 39 49q11 2 18 2z" />
    <glyph glyph-name="rcedilla" unicode="&#x157;" horiz-adv-x="566" 
d="M176 1380h130q28 0 47 -18q54 15 99 15h10q32 0 53 -40q4 -13 4 -26v-136q0 -49 -42 -66q-13 -2 -42 -5q-36 -14 -47 -32q-18 -17 -18 -77v-937q0 -38 -45 -56q-16 -2 -31 -2h-127q-47 0 -64 43q-2 14 -3 14q1 16 1 25v900q0 21 -1 47q1 3 1 35v258q0 35 40 54q11 4 35 4
zM198 221h54q43 0 58 -37q2 -10 2 -18v-238q148 0 235 -114q54 -77 54 -157v-16q0 -100 -81 -188q-60 -56 -117 -71q-38 -11 -100 -11h-105q-46 0 -57 46v75q0 33 39 49q11 2 18 2h128q39 0 63 40q9 17 9 34q0 45 -46 69q-14 6 -26 6h-128q-46 0 -57 46v432q0 33 39 49
q11 2 18 2z" />
    <glyph glyph-name="Rcaron" unicode="&#x158;" horiz-adv-x="900" 
d="M157 1600h316q81 0 175 -54q94 -59 142 -173q25 -67 25 -124q-1 -23 -1 -34v-311q0 -14 1 -36q0 -82 -46 -169q-9 -16 -31 -46q47 -70 47 -82q30 -58 30 -165v-339q0 -52 -51 -66q-10 -1 -16 -1h-138q-52 0 -66 51q-1 10 -1 16v368q0 47 -49 74q-8 9 -75 9h-46
q-2 0 -2 -2v-434q0 -10 1 -24q0 -25 -28 -47q-15 -11 -39 -11h-127q-47 0 -62 22q-15 17 -15 36v276q0 211 -1 311q1 128 1 330v168q0 150 -1 399q0 35 42 56q10 2 15 2zM371 1328v-538q0 -2 2 -2h46q67 0 67 6q28 9 47 38q11 18 11 68v305q0 67 -6 67q-9 28 -38 47
q-18 11 -68 11h-59q-2 0 -2 -2zM437 1702q-11 4 -246 142q-51 22 -51 64q0 24 32 72q23 54 65 54h5q14 -2 216 -60l143 41q63 19 76 19h2q15 0 28 -9q16 -6 39 -50q29 -45 29 -67q0 -24 -21 -46q-17 -12 -231 -134q-43 -29 -66 -29h-2q-7 0 -18 3z" />
    <glyph glyph-name="rcaron" unicode="&#x159;" horiz-adv-x="566" 
d="M176 1380h130q28 0 47 -18q54 15 99 15h10q32 0 53 -40q4 -13 4 -26v-136q0 -49 -42 -66q-13 -2 -42 -5q-36 -14 -47 -32q-18 -17 -18 -77v-937q0 -38 -45 -56q-16 -2 -31 -2h-127q-47 0 -64 43q-2 14 -3 14q1 16 1 25v900q0 21 -1 47q1 3 1 35v258q0 35 40 54q11 4 35 4
zM289 1484q-11 4 -246 142q-51 22 -51 64q0 24 32 72q23 54 65 54h5q14 -2 216 -60l143 41q63 19 76 19h2q15 0 28 -9q16 -6 39 -50q29 -45 29 -67q0 -24 -21 -46q-17 -12 -231 -134q-43 -29 -66 -29h-2q-7 0 -18 3z" />
    <glyph glyph-name="Sacute" unicode="&#x15a;" horiz-adv-x="900" 
d="M442 1600h31q80 0 172 -52q107 -68 150 -189q19 -57 19 -100v-168q0 -38 -46 -55q-10 -2 -20 -2h-138q-52 0 -66 51q-1 10 -1 16v147q0 49 -54 76q-16 5 -28 5h-8q-49 0 -76 -54q-5 -16 -5 -27v-84q0 -89 121 -181q89 -70 146 -117q175 -155 175 -347v-177
q0 -87 -60 -184q-19 -28 -59 -67q-107 -91 -238 -91q-155 0 -270 124q-58 66 -81 169q-6 32 -6 90v117q0 52 51 66q10 1 16 1h138q52 0 66 -51q1 -10 1 -16v-147q0 -49 54 -76q16 -5 27 -5h8q49 0 77 54q5 16 5 27v163q0 102 -142 203l-114 87q-68 58 -98 100
q-51 68 -66 123q-23 56 -23 171v18q0 118 38 185q16 36 55 80q46 47 78 66q92 51 171 51zM542 2211h139q45 0 63 -42q3 -10 3 -21q0 -16 -25 -72q-126 -317 -133 -330q-19 -28 -62 -28h-59q-48 0 -64 45q-2 8 -2 14v6q0 6 76 385q17 43 64 43z" />
    <glyph glyph-name="sacute" unicode="&#x15b;" horiz-adv-x="861" 
d="M421 1377h11q137 0 250 -106q3 -5 25 -30q76 -102 76 -216v-7q0 -39 -44 -57q-12 -2 -19 -2h-145q-48 0 -61 51q0 67 -58 91q-14 5 -27 5h-7q-42 0 -72 -45q-10 -21 -10 -43v-2q0 -124 99 -187q31 -22 149 -91q43 -30 80 -64q115 -115 115 -316v-4q0 -148 -115 -260
q-108 -94 -241 -94q-158 0 -273 127q-84 103 -84 234q0 28 30 49q14 9 40 9h131q50 0 66 -40q3 -7 5 -42q11 -35 36 -51t46 -16l2 1h2q1 0 1 -1q32 0 63 30q21 27 21 56v4q0 132 -100 194q-30 21 -140 85q-127 82 -173 198q-30 83 -30 172v8q0 180 150 295q97 65 201 65z
M492 1993h139q45 0 63 -42q3 -10 3 -21q0 -16 -25 -72q-126 -317 -133 -330q-19 -28 -62 -28h-59q-48 0 -64 45q-2 8 -2 14v6q0 6 76 385q17 43 64 43z" />
    <glyph glyph-name="Scircumflex" unicode="&#x15c;" horiz-adv-x="900" 
d="M442 1600h31q80 0 172 -52q107 -68 150 -189q19 -57 19 -100v-168q0 -38 -46 -55q-10 -2 -20 -2h-138q-52 0 -66 51q-1 10 -1 16v147q0 49 -54 76q-16 5 -28 5h-8q-49 0 -76 -54q-5 -16 -5 -27v-84q0 -89 121 -181q89 -70 146 -117q175 -155 175 -347v-177
q0 -87 -60 -184q-19 -28 -59 -67q-107 -91 -238 -91q-155 0 -270 124q-58 66 -81 169q-6 32 -6 90v117q0 52 51 66q10 1 16 1h138q52 0 66 -51q1 -10 1 -16v-147q0 -49 54 -76q16 -5 27 -5h8q49 0 77 54q5 16 5 27v163q0 102 -142 203l-114 87q-68 58 -98 100
q-51 68 -66 123q-23 56 -23 171v18q0 118 38 185q16 36 55 80q46 47 78 66q92 51 171 51zM454 2054h2q23 0 66 -29q214 -122 231 -135q21 -21 21 -45q0 -22 -29 -67q-23 -45 -39 -50q-13 -9 -28 -9h-2q-13 0 -76 19l-143 41q-202 -58 -216 -60h-5q-42 0 -65 54
q-32 47 -32 72q0 42 51 64q235 138 246 142q11 3 18 3z" />
    <glyph glyph-name="scircumflex" unicode="&#x15d;" horiz-adv-x="861" 
d="M421 1377h11q137 0 250 -106q3 -5 25 -30q76 -102 76 -216v-7q0 -39 -44 -57q-12 -2 -19 -2h-145q-48 0 -61 51q0 67 -58 91q-14 5 -27 5h-7q-42 0 -72 -45q-10 -21 -10 -43v-2q0 -124 99 -187q31 -22 149 -91q43 -30 80 -64q115 -115 115 -316v-4q0 -148 -115 -260
q-108 -94 -241 -94q-158 0 -273 127q-84 103 -84 234q0 28 30 49q14 9 40 9h131q50 0 66 -40q3 -7 5 -42q11 -35 36 -51t46 -16l2 1h2q1 0 1 -1q32 0 63 30q21 27 21 56v4q0 132 -100 194q-30 21 -140 85q-127 82 -173 198q-30 83 -30 172v8q0 180 150 295q97 65 201 65z
M424 1836h2q23 0 66 -29q214 -122 231 -135q21 -21 21 -45q0 -22 -29 -67q-23 -45 -39 -50q-13 -9 -28 -9h-2q-13 0 -76 19l-143 41q-202 -58 -216 -60h-5q-42 0 -65 54q-32 47 -32 72q0 42 51 64q235 138 246 142q11 3 18 3z" />
    <glyph glyph-name="Scedilla" unicode="&#x15e;" horiz-adv-x="1000" 
d="M392 1600h31q80 0 172 -52q107 -68 150 -189q19 -57 19 -100v-168q0 -38 -46 -55q-10 -2 -20 -2h-138q-52 0 -66 51q-1 10 -1 16v147q0 49 -54 76q-16 5 -28 5h-8q-49 0 -76 -54q-5 -16 -5 -27v-84q0 -89 121 -181q89 -70 146 -117q175 -155 175 -347v-177
q0 -87 -60 -184q-19 -28 -59 -67q-107 -91 -238 -91q-155 0 -270 124q-58 66 -81 169q-6 32 -6 90v117q0 52 51 66q10 1 16 1h138q52 0 66 -51q1 -10 1 -16v-147q0 -49 54 -76q16 -5 27 -5h8q49 0 77 54q5 16 5 27v163q0 102 -142 203l-114 87q-68 58 -98 100
q-51 68 -66 123q-23 56 -23 171v18q0 118 38 185q16 36 55 80q46 47 78 66q92 51 171 51zM317 221h54q43 0 58 -37q2 -10 2 -18v-238q148 0 235 -114q54 -77 54 -157v-16q0 -100 -81 -188q-60 -56 -117 -71q-38 -11 -100 -11h-105q-46 0 -57 46v75q0 33 39 49q11 2 18 2h128
q39 0 63 40q9 17 9 34q0 45 -46 69q-14 6 -26 6h-128q-46 0 -57 46v432q0 33 39 49q11 2 18 2z" />
    <glyph glyph-name="scedilla" unicode="&#x15f;" horiz-adv-x="1000" 
d="M405 1377h11q137 0 250 -106q3 -5 25 -30q76 -102 76 -216v-7q0 -39 -44 -57q-12 -2 -19 -2h-145q-48 0 -61 51q0 67 -58 91q-14 5 -27 5h-7q-42 0 -72 -45q-10 -21 -10 -43v-2q0 -124 99 -187q31 -22 149 -91q43 -30 80 -64q115 -115 115 -316v-4q0 -148 -115 -260
q-108 -94 -241 -94q-158 0 -273 127q-84 103 -84 234q0 28 30 49q14 9 40 9h131q50 0 66 -40q3 -7 5 -42q11 -35 36 -51t46 -16l2 1h2q1 0 1 -1q32 0 63 30q21 27 21 56v4q0 132 -100 194q-30 21 -140 85q-127 82 -173 198q-30 83 -30 172v8q0 180 150 295q97 65 201 65z
M295 221h54q43 0 58 -37q2 -10 2 -18v-238q148 0 235 -114q54 -77 54 -157v-16q0 -100 -81 -188q-60 -56 -117 -71q-38 -11 -100 -11h-105q-46 0 -57 46v75q0 33 39 49q11 2 18 2h128q39 0 63 40q9 17 9 34q0 45 -46 69q-14 6 -26 6h-128q-46 0 -57 46v432q0 33 39 49
q11 2 18 2z" />
    <glyph glyph-name="Scaron" unicode="&#x160;" horiz-adv-x="900" 
d="M442 1600h31q80 0 172 -52q107 -68 150 -189q19 -57 19 -100v-168q0 -38 -46 -55q-10 -2 -20 -2h-138q-52 0 -66 51q-1 10 -1 16v147q0 49 -54 76q-16 5 -28 5h-8q-49 0 -76 -54q-5 -16 -5 -27v-84q0 -89 121 -181q89 -70 146 -117q175 -155 175 -347v-177
q0 -87 -60 -184q-19 -28 -59 -67q-107 -91 -238 -91q-155 0 -270 124q-58 66 -81 169q-6 32 -6 90v117q0 52 51 66q10 1 16 1h138q52 0 66 -51q1 -10 1 -16v-147q0 -49 54 -76q16 -5 27 -5h8q49 0 77 54q5 16 5 27v163q0 102 -142 203l-114 87q-68 58 -98 100
q-51 68 -66 123q-23 56 -23 171v18q0 118 38 185q16 36 55 80q46 47 78 66q92 51 171 51zM436 1702q-11 4 -246 142q-51 22 -51 64q0 24 32 72q23 54 65 54h5q14 -2 216 -60l143 41q63 19 76 19h2q15 0 28 -9q16 -6 39 -50q29 -45 29 -67q0 -24 -21 -46q-17 -12 -231 -134
q-43 -29 -66 -29h-2q-7 0 -18 3z" />
    <glyph glyph-name="scaron" unicode="&#x161;" horiz-adv-x="861" 
d="M421 1377h11q137 0 250 -106q3 -5 25 -30q76 -102 76 -216v-7q0 -39 -44 -57q-12 -2 -19 -2h-145q-48 0 -61 51q0 67 -58 91q-14 5 -27 5h-7q-42 0 -72 -45q-10 -21 -10 -43v-2q0 -124 99 -187q31 -22 149 -91q43 -30 80 -64q115 -115 115 -316v-4q0 -148 -115 -260
q-108 -94 -241 -94q-158 0 -273 127q-84 103 -84 234q0 28 30 49q14 9 40 9h131q50 0 66 -40q3 -7 5 -42q11 -35 36 -51t46 -16l2 1h2q1 0 1 -1q32 0 63 30q21 27 21 56v4q0 132 -100 194q-30 21 -140 85q-127 82 -173 198q-30 83 -30 172v8q0 180 150 295q97 65 201 65z
M406 1484q-11 4 -246 142q-51 22 -51 64q0 24 32 72q23 54 65 54h5q14 -2 216 -60l143 41q63 19 76 19h2q15 0 28 -9q16 -6 39 -50q29 -45 29 -67q0 -24 -21 -46q-17 -12 -231 -134q-43 -29 -66 -29h-2q-7 0 -18 3z" />
    <glyph glyph-name="Tcedilla" unicode="&#x162;" horiz-adv-x="741" 
d="M57 1600h599q37 0 55 -43q3 -12 3 -34v-127q0 -52 -51 -66q-9 -1 -15 -1h-156v-1271q0 -37 -43 -55q-10 -3 -20 -3h-148q-39 0 -57 43q-2 13 -3 13q1 18 1 27v1246h-149q-51 0 -67 37q-6 11 -6 39v129q0 45 40 63q10 3 17 3zM324 221h54q43 0 58 -37q2 -10 2 -18v-238
q148 0 235 -114q54 -77 54 -157v-16q0 -100 -81 -188q-60 -56 -117 -71q-38 -11 -100 -11h-105q-46 0 -57 46v75q0 33 39 49q11 2 18 2h128q39 0 63 40q9 17 9 34q0 45 -46 69q-14 6 -26 6h-128q-46 0 -57 46v432q0 33 39 49q11 2 18 2z" />
    <glyph glyph-name="tcedilla" unicode="&#x163;" horiz-adv-x="599" 
d="M191 1597h157q38 0 55 -46q2 -10 2 -20v-154h82q49 0 64 -48q2 -8 2 -19v-138q0 -45 -40 -62q-9 -5 -32 -5h-76v-752q0 -49 51 -76q19 -8 49 -8q26 -8 39 -29q9 -13 9 -38v-136q0 -48 -46 -64q-7 -2 -13 -2h-8q-132 0 -242 98q-54 56 -75 105q-35 66 -35 179v723h-2
q-54 0 -69 44q-3 12 -3 23v138q0 52 51 66q9 1 15 1h8v154q0 45 40 63q9 3 17 3zM243 221h54q43 0 58 -37q2 -10 2 -18v-238q148 0 235 -114q54 -77 54 -157v-16q0 -100 -81 -188q-60 -56 -117 -71q-38 -11 -100 -11h-105q-46 0 -57 46v75q0 33 39 49q11 2 18 2h128
q39 0 63 40q9 17 9 34q0 45 -46 69q-14 6 -26 6h-128q-46 0 -57 46v432q0 33 39 49q11 2 18 2z" />
    <glyph glyph-name="Tcaron" unicode="&#x164;" horiz-adv-x="741" 
d="M57 1600h599q37 0 55 -43q3 -12 3 -34v-127q0 -52 -51 -66q-9 -1 -15 -1h-156v-1271q0 -37 -43 -55q-10 -3 -20 -3h-148q-39 0 -57 43q-2 13 -3 13q1 18 1 27v1246h-149q-51 0 -67 37q-6 11 -6 39v129q0 45 40 63q10 3 17 3zM336 1702q-11 4 -246 142q-51 22 -51 64
q0 24 32 72q23 54 65 54h5q14 -2 216 -60l143 41q63 19 76 19h2q15 0 28 -9q16 -6 39 -50q29 -45 29 -67q0 -24 -21 -46q-17 -12 -231 -134q-43 -29 -66 -29h-2q-7 0 -18 3z" />
    <glyph glyph-name="tcaron" unicode="&#x165;" horiz-adv-x="1018" 
d="M191 1597h157q38 0 55 -46q2 -10 2 -20v-154h82q49 0 64 -48q2 -8 2 -19v-138q0 -45 -40 -62q-9 -5 -32 -5h-76v-752q0 -49 51 -76q19 -8 49 -8q26 -8 39 -29q9 -13 9 -38v-136q0 -48 -46 -64q-7 -2 -13 -2h-8q-132 0 -242 98q-54 56 -75 105q-35 66 -35 179v723h-2
q-54 0 -69 44q-3 12 -3 23v138q0 52 51 66q9 1 15 1h8v154q0 45 40 63q9 3 17 3zM788 1696h139q45 0 63 -42q3 -10 3 -21q0 -16 -25 -72q-126 -317 -133 -330q-19 -28 -62 -28h-59q-48 0 -64 45q-2 8 -2 14v6q0 6 76 385q17 43 64 43z" />
    <glyph glyph-name="Tbar" unicode="&#x166;" horiz-adv-x="741" 
d="M57 1600h599q37 0 55 -43q3 -12 3 -34v-127q0 -52 -51 -66q-9 -1 -15 -1h-156v-1271q0 -37 -43 -55q-10 -3 -20 -3h-148q-39 0 -57 43q-2 13 -3 13q1 18 1 27v1246h-149q-51 0 -67 37q-6 11 -6 39v129q0 45 40 63q10 3 17 3zM39 933h625q29 0 40 -35v-193q-8 -38 -50 -38
h-602q-36 0 -47 28q-4 8 -4 23v165q0 42 38 50z" />
    <glyph glyph-name="tbar" unicode="&#x167;" horiz-adv-x="599" 
d="M191 1597h157q38 0 55 -46q2 -10 2 -20v-154h82q49 0 64 -48q2 -8 2 -19v-138q0 -45 -40 -62q-9 -5 -32 -5h-76v-752q0 -49 51 -76q19 -8 49 -8q26 -8 39 -29q9 -13 9 -38v-136q0 -48 -46 -64q-7 -2 -13 -2h-8q-132 0 -242 98q-54 56 -75 105q-35 66 -35 179v723h-2
q-54 0 -69 44q-3 12 -3 23v138q0 52 51 66q9 1 15 1h8v154q0 45 40 63q9 3 17 3zM98 772h405q29 0 40 -35v-193q-8 -38 -50 -38h-382q-36 0 -47 28q-4 8 -4 23v165q0 42 38 50z" />
    <glyph glyph-name="Utilde" unicode="&#x168;" horiz-adv-x="902" 
d="M164 1600h147q38 0 57 -41q1 -5 3 -16q-1 -15 -1 -22v-1127q0 -64 10 -76q28 -46 74 -46h6q50 0 77 53q6 14 6 29v1180q0 48 45 64q9 2 15 2h151q40 0 58 -46q2 -13 2 -21v-1149q0 -119 -39 -188q-67 -129 -205 -177q-59 -19 -113 -19q-150 0 -265 117q-63 72 -84 165
q-8 38 -8 98v1143q0 47 22 61q16 16 42 16zM193 2044q16 0 49 -25q42 -26 86 -26q31 0 173 38q56 11 103 11h6q74 0 138 -27q18 -15 18 -37v-177q0 -28 -26 -41q-10 -5 -19 -5q-12 0 -54 24q-35 15 -73 15q-39 0 -166 -35q-62 -14 -112 -14h-9q-69 0 -138 29q-21 15 -21 37
v190q0 31 34 41q4 2 11 2z" />
    <glyph glyph-name="utilde" unicode="&#x169;" horiz-adv-x="927" 
d="M608 1380h130q52 0 66 -31q9 -12 9 -27v-1265q0 -38 -46 -55q-10 -2 -20 -2h-127q-43 0 -57 17q-54 -17 -106 -17q-155 0 -270 124q-58 66 -81 168q-6 35 -6 91v928q0 53 53 66h161q33 0 53 -40q4 -13 4 -26v-958q0 -47 51 -75q14 -6 32 -8l2 1h2q1 0 1 -1q44 0 74 46
q11 13 11 72v910q0 10 -1 24q0 25 27 47q15 11 38 11zM192 1826q16 0 49 -25q42 -26 86 -26q31 0 173 38q56 11 103 11h6q74 0 138 -27q18 -15 18 -37v-177q0 -28 -26 -41q-10 -5 -19 -5q-12 0 -54 24q-35 15 -73 15q-39 0 -166 -35q-62 -14 -112 -14h-9q-69 0 -138 29
q-21 15 -21 37v190q0 31 34 41q4 2 11 2z" />
    <glyph glyph-name="Umacron" unicode="&#x16a;" horiz-adv-x="902" 
d="M164 1600h147q38 0 57 -41q1 -5 3 -16q-1 -15 -1 -22v-1127q0 -64 10 -76q28 -46 74 -46h6q50 0 77 53q6 14 6 29v1180q0 48 45 64q9 2 15 2h151q40 0 58 -46q2 -13 2 -21v-1149q0 -119 -39 -188q-67 -129 -205 -177q-59 -19 -113 -19q-150 0 -265 117q-63 72 -84 165
q-8 38 -8 98v1143q0 47 22 61q16 16 42 16zM230 2069q18 -1 27 -1h425q36 0 54 -41q4 -10 4 -28v-138q0 -43 -41 -60q-4 -2 -16 -4q-16 1 -25 1h-428q-33 0 -53 41q-3 11 -3 18v152q0 39 43 57q13 2 13 3z" />
    <glyph glyph-name="umacron" unicode="&#x16b;" horiz-adv-x="927" 
d="M608 1380h130q52 0 66 -31q9 -12 9 -27v-1265q0 -38 -46 -55q-10 -2 -20 -2h-127q-43 0 -57 17q-54 -17 -106 -17q-155 0 -270 124q-58 66 -81 168q-6 35 -6 91v928q0 53 53 66h161q33 0 53 -40q4 -13 4 -26v-958q0 -47 51 -75q14 -6 32 -8l2 1h2q1 0 1 -1q44 0 74 46
q11 13 11 72v910q0 10 -1 24q0 25 27 47q15 11 38 11zM229 1851q18 -1 27 -1h425q36 0 54 -41q4 -10 4 -28v-138q0 -43 -41 -60q-4 -2 -16 -4q-16 1 -25 1h-428q-33 0 -53 41q-3 11 -3 18v152q0 39 43 57q13 2 13 3z" />
    <glyph glyph-name="Ubreve" unicode="&#x16c;" horiz-adv-x="902" 
d="M164 1600h147q38 0 57 -41q1 -5 3 -16q-1 -15 -1 -22v-1127q0 -64 10 -76q28 -46 74 -46h6q50 0 77 53q6 14 6 29v1180q0 48 45 64q9 2 15 2h151q40 0 58 -46q2 -13 2 -21v-1149q0 -119 -39 -188q-67 -129 -205 -177q-59 -19 -113 -19q-150 0 -265 117q-63 72 -84 165
q-8 38 -8 98v1143q0 47 22 61q16 16 42 16zM243 2046h58q49 0 67 -39q35 -34 87 -34l2 1q1 0 3 -1q73 4 94 47q19 26 58 26h51q48 0 63 -23q14 -16 14 -37v-10q0 -99 -79 -189q-57 -52 -97 -64q-50 -21 -95 -21h-23q-83 0 -167 62q-105 91 -105 222q0 41 47 58q9 2 22 2z
" />
    <glyph glyph-name="ubreve" unicode="&#x16d;" horiz-adv-x="927" 
d="M608 1380h130q52 0 66 -31q9 -12 9 -27v-1265q0 -38 -46 -55q-10 -2 -20 -2h-127q-43 0 -57 17q-54 -17 -106 -17q-155 0 -270 124q-58 66 -81 168q-6 35 -6 91v928q0 53 53 66h161q33 0 53 -40q4 -13 4 -26v-958q0 -47 51 -75q14 -6 32 -8l2 1h2q1 0 1 -1q44 0 74 46
q11 13 11 72v910q0 10 -1 24q0 25 27 47q15 11 38 11zM242 1828h58q49 0 67 -39q35 -34 87 -34l2 1q1 0 3 -1q73 4 94 47q19 26 58 26h51q48 0 63 -23q14 -16 14 -37v-10q0 -99 -79 -189q-57 -52 -97 -64q-50 -21 -95 -21h-23q-83 0 -167 62q-105 91 -105 222q0 41 47 58
q9 2 22 2z" />
    <glyph glyph-name="Uring" unicode="&#x16e;" horiz-adv-x="902" 
d="M164 1600h147q38 0 57 -41q1 -5 3 -16q-1 -15 -1 -22v-1127q0 -64 10 -76q28 -46 74 -46h6q50 0 77 53q6 14 6 29v1180q0 48 45 64q9 2 15 2h151q40 0 58 -46q2 -13 2 -21v-1149q0 -119 -39 -188q-67 -129 -205 -177q-59 -19 -113 -19q-150 0 -265 117q-63 72 -84 165
q-8 38 -8 98v1143q0 47 22 61q16 16 42 16zM458 2187q106 0 179 -93q41 -59 41 -127v-3q0 -114 -105 -187q-57 -33 -116 -33q-103 0 -176 87q-44 63 -44 130v9q0 107 100 181q60 36 121 36zM402 1964q0 -35 39 -51q5 -2 16 -2h1q41 0 54 45v13q0 38 -46 52h-9q-48 0 -55 -57
z" />
    <glyph glyph-name="uring" unicode="&#x16f;" horiz-adv-x="927" 
d="M608 1380h130q52 0 66 -31q9 -12 9 -27v-1265q0 -38 -46 -55q-10 -2 -20 -2h-127q-43 0 -57 17q-54 -17 -106 -17q-155 0 -270 124q-58 66 -81 168q-6 35 -6 91v928q0 53 53 66h161q33 0 53 -40q4 -13 4 -26v-958q0 -47 51 -75q14 -6 32 -8l2 1h2q1 0 1 -1q44 0 74 46
q11 13 11 72v910q0 10 -1 24q0 25 27 47q15 11 38 11zM457 1969q106 0 179 -93q41 -59 41 -127v-3q0 -114 -105 -187q-57 -33 -116 -33q-103 0 -176 87q-44 63 -44 130v9q0 107 100 181q60 36 121 36zM401 1746q0 -35 39 -51q5 -2 16 -2h1q41 0 54 45v13q0 38 -46 52h-9
q-48 0 -55 -57z" />
    <glyph glyph-name="Udblacute" unicode="&#x170;" horiz-adv-x="902" 
d="M154 1600h147q38 0 57 -41q1 -5 3 -16q-1 -15 -1 -22v-1127q0 -64 10 -76q28 -46 74 -46h6q50 0 77 53q6 14 6 29v1180q0 48 45 64q9 2 15 2h151q40 0 58 -46q2 -13 2 -21v-1149q0 -119 -39 -188q-67 -129 -205 -177q-59 -19 -113 -19q-150 0 -265 117q-63 72 -84 165
q-8 38 -8 98v1143q0 47 22 61q16 16 42 16zM300 2201h139q45 0 63 -42q3 -10 3 -21q0 -16 -25 -72q-126 -317 -133 -330q-19 -28 -62 -28h-59q-48 0 -64 45q-2 8 -2 14v6q0 6 76 385q17 43 64 43zM689 2201h139q45 0 63 -42q3 -10 3 -21q0 -14 -20 -60l-135 -337
q-17 -33 -65 -33h-59q-48 0 -64 45q-2 8 -2 14v4q0 11 73 372q0 17 19 41q19 17 48 17z" />
    <glyph glyph-name="udblacute" unicode="&#x171;" horiz-adv-x="927" 
d="M598 1380h130q52 0 66 -31q9 -12 9 -27v-1265q0 -38 -46 -55q-10 -2 -20 -2h-127q-43 0 -57 17q-54 -17 -106 -17q-155 0 -270 124q-58 66 -81 168q-6 35 -6 91v928q0 53 53 66h161q33 0 53 -40q4 -13 4 -26v-958q0 -47 51 -75q14 -6 32 -8l2 1h2q1 0 1 -1q44 0 74 46
q11 13 11 72v910q0 10 -1 24q0 25 27 47q15 11 38 11zM300 1983h139q45 0 63 -42q3 -10 3 -21q0 -16 -25 -72q-126 -317 -133 -330q-19 -28 -62 -28h-59q-48 0 -64 45q-2 8 -2 14v6q0 6 76 385q17 43 64 43zM689 1983h139q45 0 63 -42q3 -10 3 -21q0 -14 -20 -60l-135 -337
q-17 -33 -65 -33h-59q-48 0 -64 45q-2 8 -2 14v4q0 11 73 372q0 17 19 41q19 17 48 17z" />
    <glyph glyph-name="Uogonek" unicode="&#x172;" horiz-adv-x="902" 
d="M164 1600h147q38 0 57 -41q1 -5 3 -16q-1 -15 -1 -22v-1127q0 -64 10 -76q28 -46 74 -46h6q50 0 77 53q6 14 6 29v1180q0 48 45 64q9 2 15 2h151q40 0 58 -46q2 -13 2 -21v-1149q0 -119 -39 -188q-67 -129 -205 -177q-59 -19 -113 -19q-150 0 -265 117q-63 72 -84 165
q-8 38 -8 98v1143q0 47 22 61q16 16 42 16zM615 135q19 -18 19 -30.75q73 -270.75 73 -279v-3q0 -4.5 -2 -10.5q-16 -33.75 -64 -33.75h-59q-48 0 -65 24.75l-135 252.75q-20 34.5 -20 45q0 8.25 3 15.75q18 31.5 63 31.5h139q29 0 48 -12.75z" />
    <glyph glyph-name="uogonek" unicode="&#x173;" horiz-adv-x="927" 
d="M608 1380h130q52 0 66 -31q9 -12 9 -27v-1265q0 -38 -46 -55q-10 -2 -20 -2h-127q-43 0 -57 17q-54 -17 -106 -17q-155 0 -270 124q-58 66 -81 168q-6 35 -6 91v928q0 53 53 66h161q33 0 53 -40q4 -13 4 -26v-958q0 -47 51 -75q14 -6 32 -8l2 1h2q1 0 1 -1q44 0 74 46
q11 13 11 72v910q0 10 -1 24q0 25 27 47q15 11 38 11zM701 17q19 -18 19 -30.75q73 -270.75 73 -279v-3q0 -4.5 -2 -10.5q-16 -33.75 -64 -33.75h-59q-48 0 -65 24.75l-135 252.75q-20 34.5 -20 45q0 8.25 3 15.75q18 31.5 63 31.5h139q29 0 48 -12.75z" />
    <glyph glyph-name="Wcircumflex" unicode="&#x174;" horiz-adv-x="1457" 
d="M63 1600h153q36 0 55 -37q4 -9 40 -202l106 -563h1q141 740 146 763q20 39 55 39h156q45 0 60 -49q140 -734 143 -753h1q142 751 145 763q20 39 59 39h151q45 0 61 -46q2 -8 2 -16t-120 -638q-161 -848 -164 -860q-16 -40 -65 -40h-141q-56 0 -68 58l-140 745h-1
q-143 -753 -145 -764q-18 -39 -66 -39h-140q-46 0 -63 40q-4 12 -207 1088q-73 377 -77 408v6q0 41 49 57q8 1 14 1zM696 2054h2q23 0 66 -29q214 -122 231 -135q21 -21 21 -45q0 -22 -29 -67q-23 -45 -39 -50q-13 -9 -28 -9h-2q-13 0 -76 19l-143 41q-202 -58 -216 -60h-5
q-42 0 -65 54q-32 47 -32 72q0 42 51 64q235 138 246 142q11 3 18 3z" />
    <glyph glyph-name="wcircumflex" unicode="&#x175;" horiz-adv-x="1354" 
d="M87 1380h165q28 0 49 -33q8 -15 31 -160q5 -23 90 -489h1q113 630 117 645q21 37 51 37h168q30 0 51 -37q4 -15 117 -645h1q113 624 118 645q22 37 52 37h165q38 0 55 -46q1 -6 1 -9v-11q0 -6 -201 -1108q-27 -158 -33 -173q-13 -21 -40 -31q-15 -2 -29 -2h-176
q-55 0 -69 35q-4 0 -22 112q-1 0 -73 401h-2q-90 -500 -93 -509q-12 -24 -32 -33q-12 -6 -39 -6h-176q-51 0 -66 31q-7 0 -27 129q-1 1 -195 1070q-16 83 -16 90q0 42 47 59q5 1 10 1zM672 1836h2q23 0 66 -29q214 -122 231 -135q21 -21 21 -45q0 -22 -29 -67
q-23 -45 -39 -50q-13 -9 -28 -9h-2q-13 0 -76 19l-143 41q-202 -58 -216 -60h-5q-42 0 -65 54q-32 47 -32 72q0 42 51 64q235 138 246 142q11 3 18 3z" />
    <glyph glyph-name="Ycircumflex" unicode="&#x176;" horiz-adv-x="861" 
d="M103 1600h157q40 0 57 -44q118 -417 118 -418v0q1 7 120 426q21 36 55 36h161q36 0 55 -39q4 -10 4 -20v-5q0 -9 -26 -94q-228 -744 -234 -768v-615q0 -35 -38 -54q-11 -5 -28 -5h-138q-55 0 -66 57v616q-6 22 -253 834q-7 18 -7 28v7q0 38 45 56q10 2 18 2zM432 2054h2
q23 0 66 -29q214 -122 231 -135q21 -21 21 -45q0 -22 -29 -67q-23 -45 -39 -50q-13 -9 -28 -9h-2q-13 0 -76 19l-143 41q-202 -58 -216 -60h-5q-42 0 -65 54q-32 47 -32 72q0 42 51 64q235 138 246 142q11 3 18 3z" />
    <glyph glyph-name="ycircumflex" unicode="&#x177;" horiz-adv-x="1000" 
d="M550 1378h157q37 0 55 -43q2 -8 2 -14v-1499q0 -87 -60 -184q-16 -26 -64 -72q-107 -86 -233 -86q-149 0 -262 115q-95 108 -95 245q0 29 31 51q14 9 39 9h132q71 0 71 -80q2 -20 28 -48q29 -21 54 -21l2 1h1q1 0 1 -1q44 0 74 45q11 14 11 73v139q-46 -11 -87 -11
q-150 0 -264 117q-47 56 -61 94q-32 62 -32 169v933q0 48 45 64q8 2 14 2h154q35 0 54 -38q5 -11 5 -28v-959q0 -49 52 -76q13 -5 32 -7l1 1q1 0 1 -1q49 0 77 49q9 10 9 76v904q0 10 -1 24q0 25 28 47q14 10 29 10zM413 1836h2q23 0 66 -29q214 -122 231 -135
q21 -21 21 -45q0 -22 -29 -67q-23 -45 -39 -50q-13 -9 -28 -9h-2q-13 0 -76 19l-143 41q-202 -58 -216 -60h-5q-42 0 -65 54q-32 47 -32 72q0 42 51 64q235 138 246 142q11 3 18 3z" />
    <glyph glyph-name="Ydieresis" unicode="&#x178;" horiz-adv-x="861" 
d="M103 1600h157q40 0 57 -44q118 -417 118 -418v0q1 7 120 426q21 36 55 36h161q36 0 55 -39q4 -10 4 -20v-5q0 -9 -26 -94q-228 -744 -234 -768v-615q0 -35 -38 -54q-11 -5 -28 -5h-138q-55 0 -66 57v616q-6 22 -253 834q-7 18 -7 28v7q0 38 45 56q10 2 18 2zM159 2003
h167q41 0 50 -35q1 -2 1 -9v-178q0 -30 -34 -43q-10 -1 -17 -1h-167q-35 0 -47 35v189q0 27 32 40q5 2 15 2zM530 2003h167q41 0 50 -35q1 -2 1 -9v-178q0 -30 -34 -43q-10 -1 -17 -1h-167q-35 0 -47 35v189q0 27 32 40q5 2 15 2z" />
    <glyph glyph-name="Zacute" unicode="&#x179;" horiz-adv-x="847" 
d="M134 1596h589q45 0 62 -46q2 -10 2 -20v-144q0 -14 -35 -102q0 -1 -372 -1013h335q51 0 68 -39q4 -15 4 -28v-141q0 -45 -47 -61q-10 -1 -10 -2q-16 1 -25 1h-574q-34 0 -53 41q-3 11 -3 18v153q0 11 23 70q374 1016 382 1043h-343q-45 0 -61 48q-1 7 -1 11v153
q0 37 42 55q8 3 17 3zM456 2211h139q45 0 63 -42q3 -10 3 -21q0 -16 -25 -72q-126 -317 -133 -330q-19 -28 -62 -28h-59q-48 0 -64 45q-2 8 -2 14v6q0 6 76 385q17 43 64 43z" />
    <glyph glyph-name="zacute" unicode="&#x17a;" horiz-adv-x="845" 
d="M111 1379q18 -1 27 -1h575q33 0 53 -41q3 -10 3 -18v-154q0 -14 -32 -78l-365 -816h341q33 0 53 -42q3 -10 3 -17v-153q0 -38 -43 -56q-13 -2 -13 -3q-18 1 -27 1h-573q-39 0 -56 46q-2 8 -2 19v146q0 17 28 71q9 22 328 734q41 88 41 92h-339q-39 0 -56 46q-2 8 -2 19
v142q0 45 47 61q9 1 9 2zM437 1993h139q45 0 63 -42q3 -10 3 -21q0 -16 -25 -72q-126 -317 -133 -330q-19 -28 -62 -28h-59q-48 0 -64 45q-2 8 -2 14v6q0 6 76 385q17 43 64 43z" />
    <glyph glyph-name="Zdot" unicode="&#x17b;" horiz-adv-x="847" 
d="M134 1596h589q45 0 62 -46q2 -10 2 -20v-144q0 -14 -35 -102q0 -1 -372 -1013h335q51 0 68 -39q4 -15 4 -28v-141q0 -45 -47 -61q-10 -1 -10 -2q-16 1 -25 1h-574q-34 0 -53 41q-3 11 -3 18v153q0 11 23 70q374 1016 382 1043h-343q-45 0 -61 48q-1 7 -1 11v153
q0 37 42 55q8 3 17 3zM549 1976q23 0 47 -27q11 -18 11 -40v-127q0 -50 -25 -64q-15 -13 -33 -13h-132q-10 0 -24 -1q-25 0 -47 28q-11 15 -11 38v130q0 52 31 66q11 9 27 9h132q10 0 24 1z" />
    <glyph glyph-name="zdot" unicode="&#x17c;" horiz-adv-x="845" 
d="M111 1379q18 -1 27 -1h575q33 0 53 -41q3 -10 3 -18v-154q0 -14 -32 -78l-365 -816h341q33 0 53 -42q3 -10 3 -17v-153q0 -38 -43 -56q-13 -2 -13 -3q-18 1 -27 1h-573q-39 0 -56 46q-2 8 -2 19v146q0 17 28 71q9 22 328 734q41 88 41 92h-339q-39 0 -56 46q-2 8 -2 19
v142q0 45 47 61q9 1 9 2zM530 1758q23 0 47 -27q11 -18 11 -40v-127q0 -50 -25 -64q-15 -13 -33 -13h-132q-10 0 -24 -1q-25 0 -47 28q-11 15 -11 38v130q0 52 31 66q11 9 27 9h132q10 0 24 1z" />
    <glyph glyph-name="Zcaron" unicode="&#x17d;" horiz-adv-x="847" 
d="M134 1596h589q45 0 62 -46q2 -10 2 -20v-144q0 -14 -35 -102q0 -1 -372 -1013h335q51 0 68 -39q4 -15 4 -28v-141q0 -45 -47 -61q-10 -1 -10 -2q-16 1 -25 1h-574q-34 0 -53 41q-3 11 -3 18v153q0 11 23 70q374 1016 382 1043h-343q-45 0 -61 48q-1 7 -1 11v153
q0 37 42 55q8 3 17 3zM410 1702q-11 4 -246 142q-51 22 -51 64q0 24 32 72q23 54 65 54h5q14 -2 216 -60l143 41q63 19 76 19h2q15 0 28 -9q16 -6 39 -50q29 -45 29 -67q0 -24 -21 -46q-17 -12 -231 -134q-43 -29 -66 -29h-2q-7 0 -18 3z" />
    <glyph glyph-name="zcaron" unicode="&#x17e;" horiz-adv-x="845" 
d="M111 1379q18 -1 27 -1h575q33 0 53 -41q3 -10 3 -18v-154q0 -14 -32 -78l-365 -816h341q33 0 53 -42q3 -10 3 -17v-153q0 -38 -43 -56q-13 -2 -13 -3q-18 1 -27 1h-573q-39 0 -56 46q-2 8 -2 19v146q0 17 28 71q9 22 328 734q41 88 41 92h-339q-39 0 -56 46q-2 8 -2 19
v142q0 45 47 61q9 1 9 2zM391 1484q-11 4 -246 142q-51 22 -51 64q0 24 32 72q23 54 65 54h5q14 -2 216 -60l143 41q63 19 76 19h2q15 0 28 -9q16 -6 39 -50q29 -45 29 -67q0 -24 -21 -46q-17 -12 -231 -134q-43 -29 -66 -29h-2q-7 0 -18 3z" />
    <glyph glyph-name="longs" unicode="&#x17f;" horiz-adv-x="704" 
d="M130 10q-28 22 -28 47q1 14 1 24v1068q0 159 -1 394l4 17q20 40 56 40q257 -1 398 -1h51q6 0 14 -2q43 -18 43 -55v-157q0 -15 -10 -29q-22 -28 -47 -28q-14 1 -24 1h-212q-2 0 -2 -2v-1270q0 -6 -2 -14q-19 -43 -55 -43h-157q-15 0 -29 10z" />
    <glyph glyph-name="uni018f" unicode="&#x18f;" 
d="M458 0q-147 0 -260 112q-43 50 -58 83q-17 32 -28 70q-12 45 -12 118v525q0 47 50 63q9 1 14 1h379v274q0 49 -54 76q-15 5 -27 5h-8q-49 0 -77 -54q-5 -14 -7 -48q-17 -45 -65 -45h-138q-47 0 -64 43q-2 9 -3 17q0 158 125 273q107 86 233 86q155 0 270 -124
q58 -66 81 -169q6 -32 6 -90v-833q0 -122 -41 -190q-58 -116 -190 -171q-68 -22 -126 -22zM543 353v347h-171v-347q0 -49 54 -77q16 -5 28 -5h8q49 0 76 54q5 16 5 28z" />
    <glyph glyph-name="uni018f" unicode="&#x4d8;" 
d="M458 0q-147 0 -260 112q-43 50 -58 83q-17 32 -28 70q-12 45 -12 118v525q0 47 50 63q9 1 14 1h379v274q0 49 -54 76q-15 5 -27 5h-8q-49 0 -77 -54q-5 -14 -7 -48q-17 -45 -65 -45h-138q-47 0 -64 43q-2 9 -3 17q0 158 125 273q107 86 233 86q155 0 270 -124
q58 -66 81 -169q6 -32 6 -90v-833q0 -122 -41 -190q-58 -116 -190 -171q-68 -22 -126 -22zM543 353v347h-171v-347q0 -49 54 -77q16 -5 28 -5h8q49 0 76 54q5 16 5 28z" />
    <glyph glyph-name="florin" unicode="&#x192;" horiz-adv-x="622" 
d="M489 1593h21q36 0 54 -43q2 -5 2 -13v-158q0 -37 -46 -55q-40 -3 -53 -10q-48 -29 -48 -73v-90h81q45 0 63 -40q3 -10 3 -17v-158q0 -37 -46 -55q-10 -2 -20 -2h-81v-798q0 -118 -38 -185q-65 -128 -203 -178q-59 -20 -119 -20q-35 0 -56 42q-3 14 -3 25v138q0 48 45 65
q47 3 52 10q20 5 41 35q10 22 10 38v828h-7q-52 0 -66 51q-1 11 -1 16v138q0 52 51 66q10 1 16 1h7v60q0 118 38 185q16 36 54 80q47 47 79 66q92 51 170 51z" />
    <glyph glyph-name="Ohorn" unicode="&#x1a0;" horiz-adv-x="1291" 
d="M442 1600h31q80 0 172 -52q107 -68 150 -189q19 -57 19 -100v-917q0 -87 -60 -184q-19 -28 -59 -67q-107 -91 -238 -91q-139 0 -249 101q-51 54 -66 90q-19 33 -30 79q-8 21 -12 81q1 24 1 36v828q0 13 -1 33q0 94 57 190q66 102 193 146q54 16 92 16zM371 1205v-809
q0 -67 6 -67q9 -28 38 -47q22 -10 39 -10h7q49 0 77 54q5 16 5 27v895q0 49 -54 76q-16 5 -28 5h-7q-48 0 -74 -49q-9 -8 -9 -75zM1068 1696h139q45 0 63 -42q3 -10 3 -21q0 -16 -25 -72q-126 -317 -133 -330q-19 -28 -62 -28h-59q-48 0 -64 45q-2 8 -2 14v6q0 6 76 385
q17 43 64 43z" />
    <glyph glyph-name="ohorn" unicode="&#x1a1;" horiz-adv-x="1285" 
d="M371 1024v-671q0 -48 50 -75q17 -8 34 -8h4q51 0 78 53q6 15 6 30v671q0 48 -53 75q-13 5 -31 7l-2 -1q-1 0 -1 1q-49 0 -79 -52q-6 -18 -6 -30zM457 1377q156 0 270 -124q60 -68 81 -170q6 -30 6 -89v-614q0 -117 -40 -187q-17 -39 -73 -98q-67 -57 -132 -77
q-55 -18 -107 -18h-10q-130 0 -238 95q-48 48 -65 81q-39 69 -46 139q-3 20 -3 67v612q0 108 32 174q21 50 77 108q110 101 248 101zM1058 1576h139q45 0 63 -42q3 -10 3 -21q0 -16 -25 -72q-126 -317 -133 -330q-19 -28 -62 -28h-59q-48 0 -64 45q-2 8 -2 14v6q0 6 76 385
q17 43 64 43z" />
    <glyph glyph-name="Uhorn" unicode="&#x1af;" horiz-adv-x="1304" 
d="M164 1600h147q38 0 57 -41q1 -5 3 -16q-1 -15 -1 -22v-1127q0 -64 10 -76q28 -46 74 -46h6q50 0 77 53q6 14 6 29v1180q0 48 45 64q9 2 15 2h151q40 0 58 -46q2 -13 2 -21v-1149q0 -119 -39 -188q-67 -129 -205 -177q-59 -19 -113 -19q-150 0 -265 117q-63 72 -84 165
q-8 38 -8 98v1143q0 47 22 61q16 16 42 16zM1068 1696h139q45 0 63 -42q3 -10 3 -21q0 -16 -25 -72q-126 -317 -133 -330q-19 -28 -62 -28h-59q-48 0 -64 45q-2 8 -2 14v6q0 6 76 385q17 43 64 43z" />
    <glyph glyph-name="uhorn" unicode="&#x1b0;" horiz-adv-x="1282" 
d="M608 1380h130q52 0 66 -31q9 -12 9 -27v-1265q0 -38 -46 -55q-10 -2 -20 -2h-127q-43 0 -57 17q-54 -17 -106 -17q-155 0 -270 124q-58 66 -81 168q-6 35 -6 91v928q0 53 53 66h161q33 0 53 -40q4 -13 4 -26v-958q0 -47 51 -75q14 -6 32 -8l2 1h2q1 0 1 -1q44 0 74 46
q11 13 11 72v910q0 10 -1 24q0 25 27 47q15 11 38 11zM1058 1576h139q45 0 63 -42q3 -10 3 -21q0 -16 -25 -72q-126 -317 -133 -330q-19 -28 -62 -28h-59q-48 0 -64 45q-2 8 -2 14v6q0 6 76 385q17 43 64 43z" />
    <glyph glyph-name="uni01CD" unicode="&#x1cd;" horiz-adv-x="937" 
d="M372 1600h165q33 0 53 -42l159 -745q159 -736 159 -746v-11q0 -33 -40 -52q-10 -4 -29 -4h-138q-53 0 -67 49q0 4 -37 174h-285q-37 -173 -40 -186q-18 -37 -64 -37h-138q-49 0 -66 40q-4 15 -4 23q3 19 212 993q1 7 108 505q20 39 52 39zM454 886q0 -3 -84 -394h169
q-84 391 -84 394h-1zM434 1702q-11 4 -246 142q-51 22 -51 64q0 24 32 72q23 54 65 54h5q14 -2 216 -60l143 41q63 19 76 19h2q15 0 28 -9q16 -6 39 -50q29 -45 29 -67q0 -24 -21 -46q-17 -12 -231 -134q-43 -29 -66 -29h-2q-7 0 -18 3z" />
    <glyph glyph-name="uni01CE" unicode="&#x1ce;" 
d="M457 1380q139 0 249 -102q54 -58 66 -89q19 -33 31 -80q11 -51 11 -79q-1 -25 -1 -37v-935q0 -38 -45 -56q-16 -2 -32 -2h-127q-29 0 -48 18q-55 -15 -99 -15h-10q-132 0 -242 98q-54 56 -75 105q-35 66 -35 179v173q0 122 45 194q14 31 58 79q111 106 254 106
q41 0 87 -11v60q0 67 -11 78q-18 29 -44 38q-11 5 -30 7l-2 -1q-1 0 -1 1q-48 0 -78 -50q-6 -12 -9 -52q-9 -28 -30 -38q-13 -8 -39 -8h-128q-54 0 -69 43q-3 15 -3 17q0 159 125 273q106 86 232 86zM371 584v-228q0 -51 56 -78q18 -5 26 -5h8q47 0 76 53q7 12 7 70v148
q0 66 -11 78q-29 45 -76 45q-52 0 -80 -53q-6 -17 -6 -30zM437 1484q-11 4 -246 142q-51 22 -51 64q0 24 32 72q23 54 65 54h5q14 -2 216 -60l143 41q63 19 76 19h2q15 0 28 -9q16 -6 39 -50q29 -45 29 -67q0 -24 -21 -46q-17 -12 -231 -134q-43 -29 -66 -29h-2q-7 0 -18 3z
" />
    <glyph glyph-name="uni01CF" unicode="&#x1cf;" horiz-adv-x="470" 
d="M158 1600h157q36 0 55 -43q2 -8 2 -14v-1461q0 -10 1 -24q0 -25 -28 -47q-15 -11 -39 -11h-127q-47 0 -62 22q-15 17 -15 36v1461q0 10 -1 24q0 25 28 47q14 10 29 10zM216 1702q-11 4 -246 142q-51 22 -51 64q0 24 32 72q23 54 65 54h5q14 -2 216 -60l143 41
q63 19 76 19h2q15 0 28 -9q16 -6 39 -50q29 -45 29 -67q0 -24 -21 -46q-17 -12 -231 -134q-43 -29 -66 -29h-2q-7 0 -18 3z" />
    <glyph glyph-name="uni01D0" unicode="&#x1d0;" horiz-adv-x="474" 
d="M179 1376h126q45 0 63 -41q3 -9 3 -16v-1261q0 -38 -45 -56q-16 -2 -32 -2h-126q-47 0 -64 43q-2 14 -3 14q1 16 1 25v1236q0 37 45 56q16 2 32 2zM215 1484q-11 4 -246 142q-51 22 -51 64q0 24 32 72q23 54 65 54h5q14 -2 216 -60l143 41q63 19 76 19h2q15 0 28 -9
q16 -6 39 -50q29 -45 29 -67q0 -24 -21 -46q-17 -12 -231 -134q-43 -29 -66 -29h-2q-7 0 -18 3z" />
    <glyph glyph-name="uni01D1" unicode="&#x1d1;" horiz-adv-x="930" 
d="M442 1600h31q80 0 172 -52q107 -68 150 -189q19 -57 19 -100v-917q0 -87 -60 -184q-19 -28 -59 -67q-107 -91 -238 -91q-139 0 -249 101q-51 54 -66 90q-19 33 -30 79q-8 21 -12 81v897q0 94 57 190q66 102 193 146q54 16 92 16zM371 1205v-809q0 -67 6 -67q9 -28 38 -47
q22 -10 39 -10h7q49 0 77 54q5 16 5 27v895q0 49 -54 76q-16 5 -28 5h-7q-48 0 -74 -49q-9 -8 -9 -75zM437 1702q-11 4 -246 142q-51 22 -51 64q0 24 32 72q23 54 65 54h5q14 -2 216 -60l143 41q63 19 76 19h2q15 0 28 -9q16 -6 39 -50q29 -45 29 -67q0 -24 -21 -46
q-17 -12 -231 -134q-43 -29 -66 -29h-2q-7 0 -18 3z" />
    <glyph glyph-name="uni01D2" unicode="&#x1d2;" horiz-adv-x="910" 
d="M371 1027v-671q0 -48 50 -75q17 -8 34 -8h4q51 0 78 53q6 15 6 30v671q0 48 -53 75q-13 5 -31 7l-2 -1q-1 0 -1 1q-49 0 -79 -52q-6 -18 -6 -30zM457 1380q156 0 270 -124q60 -68 81 -170q6 -30 6 -89v-614q0 -117 -40 -187q-17 -39 -73 -98q-67 -57 -132 -77
q-55 -18 -107 -18h-10q-130 0 -238 95q-48 48 -65 81q-39 69 -46 139q-3 20 -3 67v612q0 108 32 174q21 50 77 108q110 101 248 101zM437 1484q-11 4 -246 142q-51 22 -51 64q0 24 32 72q23 54 65 54h5q14 -2 216 -60l143 41q63 19 76 19h2q15 0 28 -9q16 -6 39 -50
q29 -45 29 -67q0 -24 -21 -46q-17 -12 -231 -134q-43 -29 -66 -29h-2q-7 0 -18 3z" />
    <glyph glyph-name="uni01D3" unicode="&#x1d3;" horiz-adv-x="902" 
d="M164 1600h147q38 0 57 -41q1 -5 3 -16q-1 -15 -1 -22v-1127q0 -64 10 -76q28 -46 74 -46h6q50 0 77 53q6 14 6 29v1180q0 48 45 64q9 2 15 2h151q40 0 58 -46q2 -13 2 -21v-1149q0 -119 -39 -188q-67 -129 -205 -177q-59 -19 -113 -19q-150 0 -265 117q-63 72 -84 165
q-8 38 -8 98v1143q0 47 22 61q16 16 42 16zM437 1702q-11 4 -246 142q-51 22 -51 64q0 24 32 72q23 54 65 54h5q14 -2 216 -60l143 41q63 19 76 19h2q15 0 28 -9q16 -6 39 -50q29 -45 29 -67q0 -24 -21 -46q-17 -12 -231 -134q-43 -29 -66 -29h-2q-7 0 -18 3z" />
    <glyph glyph-name="uni01D4" unicode="&#x1d4;" horiz-adv-x="927" 
d="M608 1380h130q52 0 66 -31q9 -12 9 -27v-1265q0 -38 -46 -55q-10 -2 -20 -2h-127q-43 0 -57 17q-54 -17 -106 -17q-155 0 -270 124q-58 66 -81 168q-6 35 -6 91v928q0 53 53 66h161q33 0 53 -40q4 -13 4 -26v-958q0 -47 51 -75q14 -6 32 -8l2 1h2q1 0 1 -1q44 0 74 46
q11 13 11 72v910q0 10 -1 24q0 25 27 47q15 11 38 11zM436 1484q-11 4 -246 142q-51 22 -51 64q0 24 32 72q23 54 65 54h5q14 -2 216 -60l143 41q63 19 76 19h2q15 0 28 -9q16 -6 39 -50q29 -45 29 -67q0 -24 -21 -46q-17 -12 -231 -134q-43 -29 -66 -29h-2q-7 0 -18 3z" />
    <glyph glyph-name="AEacute" unicode="&#x1fc;" horiz-adv-x="1350" 
d="M422 1600h682q36 0 54 -43q2 -5 2 -13v-157q0 -36 -43 -55q-8 -2 -14 -2h-237q-1 0 -1 -2v-391q0 -2 1 -2h139q10 0 24 1q24 0 47 -26q11 -18 11 -41v-127q0 -49 -24 -63q-15 -13 -34 -13h-163q-1 -1 -1 -2v-391q0 -2 1 -2h213q10 0 24 1q25 0 47 -28q10 -14 10 -29v-157
q0 -37 -43 -55q-8 -2 -14 -2h-51q-149 0 -397 -1q-40 0 -58 43q-3 11 -3 21v85h-248q-20 -102 -26 -117q-20 -32 -62 -32h-138q-49 0 -66 40q-4 15 -4 23q3 19 215 1006l105 491q20 40 52 40zM593 1299q-1 -9 -188 -881h189v881h-1zM792 2257h139q45 0 63 -42q3 -10 3 -21
q0 -16 -25 -72q-126 -317 -133 -330q-19 -28 -62 -28h-59q-48 0 -64 45q-2 8 -2 14v6q0 6 76 385q17 43 64 43z" />
    <glyph glyph-name="aeacute" unicode="&#x1fd;" horiz-adv-x="1550" 
d="M425 1380q139 0 249 -102q54 -58 66 -89q19 -33 31 -80q11 -51 11 -79q-1 -25 -1 -37v-935q0 -38 -45 -56q-16 -2 -32 -2h-127q-29 0 -48 18q-55 -15 -99 -15h-10q-132 0 -242 98q-54 56 -75 105q-35 66 -35 179v173q0 122 45 194q14 31 58 79q111 106 254 106
q41 0 87 -11v60q0 67 -11 78q-18 29 -44 38q-11 5 -30 7l-2 -1q-1 0 -1 1q-48 0 -78 -50q-6 -12 -9 -52q-9 -28 -30 -38q-13 -8 -39 -8h-128q-54 0 -69 43q-3 15 -3 17q0 159 125 273q106 86 232 86zM339 584v-228q0 -51 56 -78q18 -5 26 -5h8q47 0 76 53q7 12 7 70v148
q0 66 -11 78q-29 45 -76 45q-52 0 -80 -53q-6 -17 -6 -30zM861 1379q147 0 260 -112q43 -50 58 -83q17 -32 28 -70q12 -45 12 -118v-415q0 -47 -50 -63q-9 -1 -14 -1h-379v-164q0 -49 54 -76q15 -5 27 -5h8q49 0 77 54q5 14 7 48q17 45 65 45h138q47 0 64 -43q2 -9 3 -17
q0 -158 -125 -273q-107 -86 -233 -86q-155 0 -270 124q-58 66 -81 169q-6 32 -6 90v613q0 122 41 190q58 116 190 171q68 22 126 22zM776 1026v-237h171v237q0 49 -54 77q-16 5 -28 5h-8q-49 0 -76 -54q-5 -16 -5 -28zM755 1993h139q45 0 63 -42q3 -10 3 -21q0 -16 -25 -72
q-126 -317 -133 -330q-19 -28 -62 -28h-59q-48 0 -64 45q-2 8 -2 14v6q0 6 76 385q17 43 64 43z" />
    <glyph glyph-name="Oslashacute" unicode="&#x1fe;" horiz-adv-x="1000" 
d="M329 1746h156q38 0 56 -45q2 -16 2 -32v-97q126 -52 188 -178q33 -76 33 -137v-917q0 -87 -59 -183q-63 -92 -162 -132v-108q0 -47 -43 -64q-14 -2 -14 -3q-16 1 -24 1h-132q-37 0 -55 43q-3 12 -3 32v99q-11 0 -72 40q-80 62 -108 124q-19 32 -30 79q-8 21 -12 80
q1 25 1 37v828q0 13 -1 34q0 104 68 205q64 80 123 105q10 7 31 15v108q0 45 40 63q9 3 17 3zM321 394q0 -67 6 -67q10 -30 36 -46q21 -11 39 -11h11q36 0 64 35q16 22 16 46v895q0 47 -49 74q-16 7 -31 7h-11q-41 0 -70 -44q-11 -14 -11 -73v-816zM469 2348h139
q45 0 63 -42q3 -10 3 -21q0 -16 -25 -72q-126 -317 -133 -330q-19 -28 -62 -28h-59q-48 0 -64 45q-2 8 -2 14v6q0 6 76 385q17 43 64 43z" />
    <glyph glyph-name="oslashacute" unicode="&#x1ff;" horiz-adv-x="1000" 
d="M329 1526h156q38 0 56 -45q2 -16 2 -32v-97q126 -52 188 -178q33 -76 33 -137v-697q0 -87 -59 -183q-63 -92 -162 -132v-108q0 -47 -43 -64q-14 -2 -14 -3q-16 1 -24 1h-132q-37 0 -55 43q-3 12 -3 32v99q-11 0 -72 40q-80 62 -108 124q-19 32 -30 79q-8 21 -12 80
q1 25 1 37v608q0 13 -1 34q0 104 68 205q64 80 123 105q10 7 31 15v108q0 45 40 63q9 3 17 3zM321 394q0 -67 6 -67q10 -30 36 -46q21 -11 39 -11h11q36 0 64 35q16 22 16 46v675q0 47 -49 74q-16 7 -31 7h-11q-41 0 -70 -44q-11 -14 -11 -73v-596zM464 2143h139
q45 0 63 -42q3 -10 3 -21q0 -16 -25 -72q-126 -317 -133 -330q-19 -28 -62 -28h-59q-48 0 -64 45q-2 8 -2 14v6q0 6 76 385q17 43 64 43z" />
    <glyph glyph-name="uni0259" unicode="&#x259;" 
d="M458 0q-147 0 -260 112q-43 50 -58 83q-17 32 -28 70q-12 45 -12 118v415q0 47 50 63q9 1 14 1h379v164q0 49 -54 76q-15 5 -27 5h-8q-49 0 -77 -54q-5 -14 -7 -48q-17 -45 -65 -45h-138q-47 0 -64 43q-2 9 -3 17q0 158 125 273q107 86 233 86q155 0 270 -124
q58 -66 81 -169q6 -32 6 -90v-613q0 -122 -41 -190q-58 -116 -190 -171q-68 -22 -126 -22zM543 353v237h-171v-237q0 -49 54 -77q16 -5 28 -5h8q49 0 76 54q5 16 5 28z" />
    <glyph glyph-name="uni0259" unicode="&#x4d9;" 
d="M458 0q-147 0 -260 112q-43 50 -58 83q-17 32 -28 70q-12 45 -12 118v415q0 47 50 63q9 1 14 1h379v164q0 49 -54 76q-15 5 -27 5h-8q-49 0 -77 -54q-5 -14 -7 -48q-17 -45 -65 -45h-138q-47 0 -64 43q-2 9 -3 17q0 158 125 273q107 86 233 86q155 0 270 -124
q58 -66 81 -169q6 -32 6 -90v-613q0 -122 -41 -190q-58 -116 -190 -171q-68 -22 -126 -22zM543 353v237h-171v-237q0 -49 54 -77q16 -5 28 -5h8q49 0 76 54q5 16 5 28z" />
    <glyph glyph-name="circumflex" unicode="&#x2c6;" horiz-adv-x="700" 
d="M366 1836h2q23 0 66 -29q214 -122 231 -135q21 -21 21 -45q0 -22 -29 -67q-23 -45 -39 -50q-13 -9 -28 -9h-2q-13 0 -76 19l-143 41q-202 -58 -216 -60h-5q-42 0 -65 54q-32 47 -32 72q0 42 51 64q235 138 246 142q11 3 18 3z" />
    <glyph glyph-name="caron" unicode="&#x2c7;" horiz-adv-x="700" 
d="M328 1484q-11 4 -246 142q-51 22 -51 64q0 24 32 72q23 54 65 54h5q14 -2 216 -60l143 41q63 19 76 19h2q15 0 28 -9q16 -6 39 -50q29 -45 29 -67q0 -24 -21 -46q-17 -12 -231 -134q-43 -29 -66 -29h-2q-7 0 -18 3z" />
    <glyph glyph-name="macron" unicode="&#x2c9;" horiz-adv-x="650" 
d="M89 1851q18 -1 27 -1h425q36 0 54 -41q4 -10 4 -28v-138q0 -43 -41 -60q-4 -2 -16 -4q-16 1 -25 1h-428q-33 0 -53 41q-3 11 -3 18v152q0 39 43 57q13 2 13 3z" />
    <glyph glyph-name="breve" unicode="&#x2d8;" horiz-adv-x="650" 
d="M108 1828h58q49 0 67 -39q35 -34 87 -34l2 1q1 0 3 -1q73 4 94 47q19 26 58 26h51q48 0 63 -23q14 -16 14 -37v-10q0 -99 -79 -189q-57 -52 -97 -64q-50 -21 -95 -21h-23q-83 0 -167 62q-105 91 -105 222q0 41 47 58q9 2 22 2z" />
    <glyph glyph-name="dotaccent" unicode="&#x2d9;" horiz-adv-x="500" 
d="M271 1758q23 0 47 -27q11 -18 11 -40v-127q0 -50 -25 -64q-15 -13 -33 -13h-132q-10 0 -24 -1q-25 0 -47 28q-11 15 -11 38v130q0 52 31 66q11 9 27 9h132q10 0 24 1z" />
    <glyph glyph-name="ring" unicode="&#x2da;" horiz-adv-x="550" 
d="M278 1969q106 0 179 -93q41 -59 41 -127v-3q0 -114 -105 -187q-57 -33 -116 -33q-103 0 -176 87q-44 63 -44 130v9q0 107 100 181q60 36 121 36zM222 1746q0 -35 39 -51q5 -2 16 -2h1q41 0 54 45v13q0 38 -46 52h-9q-48 0 -55 -57z" />
    <glyph glyph-name="ogonek" unicode="&#x2db;" horiz-adv-x="1024" 
d="M430 -13q19 -18 19 -30.75q73 -270.75 73 -279v-3q0 -4.5 -2 -10.5q-16 -33.75 -64 -33.75h-59q-48 0 -65 24.75l-135 252.75q-20 34.5 -20 45q0 8.25 3 15.75q18 31.5 63 31.5h139q29 0 48 -12.75z" />
    <glyph glyph-name="tilde" unicode="&#x2dc;" horiz-adv-x="650" 
d="M61 1826q16 0 49 -25q42 -26 86 -26q31 0 173 38q56 11 103 11h6q74 0 138 -27q18 -15 18 -37v-177q0 -28 -26 -41q-10 -5 -19 -5q-12 0 -54 24q-35 15 -73 15q-39 0 -166 -35q-62 -14 -112 -14h-9q-69 0 -138 29q-21 15 -21 37v190q0 31 34 41q4 2 11 2z" />
    <glyph glyph-name="hungarumlaut" unicode="&#x2dd;" horiz-adv-x="747" 
d="M210 1983h139q45 0 63 -42q3 -10 3 -21q0 -16 -25 -72q-126 -317 -133 -330q-19 -28 -62 -28h-59q-48 0 -64 45q-2 8 -2 14v6q0 6 76 385q17 43 64 43zM599 1983h139q45 0 63 -42q3 -10 3 -21q0 -14 -20 -60l-135 -337q-17 -33 -65 -33h-59q-48 0 -64 45q-2 8 -2 14v4
q0 11 73 372q0 17 19 41q19 17 48 17z" />
    <glyph glyph-name="combininggraveaccent" unicode="&#x300;" horiz-adv-x="0" 
d="M-431 1950q76 -379 76 -385v-6q0 -6 -2 -14q-16 -45 -64 -45h-59q-43 0 -62 28q-7 13 -133 330q-25 56 -25 72q0 11 3 21q18 42 63 42h139q46 0 64 -43z" />
    <glyph glyph-name="combiningacuteaccent" unicode="&#x301;" horiz-adv-x="0" 
d="M-530 1993h139q45 0 63 -42q3 -10 3 -21q0 -16 -25 -72q-126 -317 -133 -330q-19 -28 -62 -28h-59q-48 0 -64 45q-2 8 -2 14v6q0 6 76 385q17 43 64 43z" />
    <glyph glyph-name="combiningtildeaccent" unicode="&#x303;" horiz-adv-x="0" 
d="M-715 1826q16 0 49 -25q42 -26 86 -26q31 0 173 38q56 11 103 11h6q74 0 138 -27q18 -15 18 -37v-177q0 -28 -26 -41q-10 -5 -19 -5q-12 0 -54 24q-35 15 -73 15q-39 0 -166 -35q-62 -14 -112 -14h-9q-69 0 -138 29q-21 15 -21 37v190q0 31 34 41q4 2 11 2z" />
    <glyph glyph-name="combiningdotbelow" unicode="&#x323;" horiz-adv-x="400" 
d="M114 -103h167q41 0 50 -35q1 -2 1 -9v-178q0 -30 -34 -43q-10 -1 -17 -1h-167q-35 0 -47 35v189q0 27 32 40q5 2 15 2z" />
    <glyph glyph-name="tonos" unicode="&#x384;" horiz-adv-x="550" 
d="M182 1993h139q45 0 63 -42q3 -10 3 -21q0 -16 -25 -72q-126 -317 -133 -330q-19 -28 -62 -28h-59q-48 0 -64 45q-2 8 -2 14v6q0 6 76 385q17 43 64 43z" />
    <glyph glyph-name="Alphatonos" unicode="&#x386;" horiz-adv-x="975" 
d="M182 1993h139q45 0 63 -42q3 -10 3 -21q0 -16 -25 -72q-126 -317 -133 -330q-19 -28 -62 -28h-59q-48 0 -64 45q-2 8 -2 14v6q0 6 76 385q17 43 64 43zM412 1600h165q33 0 53 -42l159 -745q159 -736 159 -746v-11q0 -33 -40 -52q-10 -4 -29 -4h-138q-53 0 -67 49
q0 4 -37 174h-285q-37 -173 -40 -186q-18 -37 -64 -37h-138q-49 0 -66 40q-4 15 -4 23q3 19 212 993q1 7 108 505q20 39 52 39zM494 886q0 -3 -84 -394h169q-84 391 -84 394h-1z" />
    </font>
</defs>
</svg>
