<?xml version="1.0" standalone="no"?>
<!DOCTYPE svg PUBLIC "-//W3C//DTD SVG 1.1//EN" "http://www.w3.org/Graphics/SVG/1.1/DTD/svg11.dtd" >
<svg xmlns="http://www.w3.org/2000/svg" xmlns:xlink="http://www.w3.org/1999/xlink" version="1.1">
<metadata>
Created by FontForge 20170731 at Fri Aug 30 15:59:26 2019
 By Aleksey,,,
Created by gluk ( gluksza@wp.pl | www.glukfonts.pl ) All Rights reserved.
Font for PERSONAL USE.
</metadata>
<defs>
<font id="ResotYgPERSONALUSE" horiz-adv-x="884" >
  <font-face 
    font-family="ResotYg PERSONAL USE"
    font-weight="500"
    font-stretch="normal"
    units-per-em="1024"
    panose-1="2 0 5 3 0 0 0 0 0 0"
    ascent="862"
    descent="-162"
    cap-height="700"
    bbox="-327 -184 1918 892"
    underline-thickness="50"
    underline-position="-200"
    unicode-range="U+001A-E15B"
  />
<missing-glyph horiz-adv-x="448" 
d="M118 396l53 -54l-52 -52l53 -53l52 52l53 -53l53 53l-53 53l52 53l-53 53l-52 -52l-53 53zM44 110v465h360v-465h-360z" />
    <glyph glyph-name="T_a" unicode="Ta" horiz-adv-x="1371" 
d="M10 0zM10 531v133q0 13 11 24.5t25 11.5h648q14 0 25 -10.5t11 -25.5v-133q0 -13 -11 -24.5t-25 -11.5h-176v-459q0 -14 -10.5 -25t-25.5 -11h-224q-13 0 -24.5 10.5t-11.5 25.5v459h-176q-13 0 -24.5 11t-11.5 25zM619 213q0 89 85 152.5t197 63.5q57 0 97 -9t83 -38v35
q0 34 -41 56t-106 22h-134q-13 0 -24.5 11t-11.5 25v133q0 13 11 25.5t25 13.5q79 7 178 7q152 0 264.5 -76.5t112.5 -173.5v-424q0 -14 -10.5 -25t-25.5 -11h-194q-13 0 -24.5 9.5t-13.5 24.5v9q-100 -49 -202 -49q-113 0 -189.5 55.5t-76.5 163.5zM902 213q0 -28 26 -43
t66 -15q46 0 87 16v81q-43 21 -87 21q-39 0 -65.5 -16t-26.5 -44z" />
    <glyph glyph-name="T_J" unicode="TJ" horiz-adv-x="1281" 
d="M10 0zM10 531v133q0 13 11 24.5t25 11.5h648q14 0 25 -10.5t11 -25.5v-133q0 -13 -11 -24.5t-25 -11.5h-176v-459q0 -14 -10.5 -25t-25.5 -11h-224q-13 0 -24.5 10.5t-11.5 25.5v459h-176q-13 0 -24.5 11t-11.5 25zM626 104v154q0 13 9 19.5t22 -0.5q116 -65 224 -65
q44 0 72 21.5t28 50.5v211h-181q-13 0 -24.5 11t-11.5 25v133q0 13 11 24.5t25 11.5h429q14 0 25 -10.5t11 -25.5v-424q0 -97 -109 -173.5t-258 -76.5q-63 0 -128.5 17.5t-112.5 44.5q-31 18 -31 52z" />
    <glyph glyph-name="G_T" unicode="GT" horiz-adv-x="1464" 
d="M12 0zM12 350q0 163 115 261.5t319 98.5q122 0 218 -7q15 -1 25.5 -12.5t10.5 -26.5v-133q0 -13 -11 -24.5t-25 -11.5h-156q-102 0 -157 -33t-55 -112q0 -66 43.5 -106t124.5 -40q72 0 138 9v44h-102q-12 0 -24 11t-12 25v89q0 12 11 24t25 12h286q14 0 25 -10.5
t11 -25.5v-246q0 -13 -9 -30.5t-21 -25.5q-77 -51 -146.5 -70.5t-181.5 -19.5q-206 0 -329 99.5t-123 260.5zM734 531v133q0 13 11 24.5t25 11.5h648q14 0 25 -10.5t11 -25.5v-133q0 -13 -11 -24.5t-25 -11.5h-176v-459q0 -14 -10.5 -25t-25.5 -11h-224q-13 0 -24.5 10.5
t-11.5 25.5v459h-176q-13 0 -24.5 11t-11.5 25z" />
    <glyph glyph-name="C_T" unicode="CT" horiz-adv-x="1434" 
d="M12 0zM704 531v133q0 13 11 24.5t25 11.5h648q14 0 25 -10.5t11 -25.5v-133q0 -13 -11 -24.5t-25 -11.5h-176v-459q0 -14 -10.5 -25t-25.5 -11h-224q-13 0 -24.5 10.5t-11.5 25.5v459h-176q-13 0 -24.5 11t-11.5 25zM12 351q0 160 122.5 259.5t319.5 99.5q84 0 180 -7
q9 -1 22.5 -13t13.5 -26v-133q0 -13 -11 -24.5t-25 -11.5h-126q-102 0 -157 -33t-55 -112q0 -73 52.5 -110t135.5 -37q72 0 136.5 18t100.5 46q7 7 17 3t10 -18v-156q0 -32 -30 -53q-32 -23 -102 -38t-144 -15q-209 0 -334.5 99t-125.5 262z" />
    <glyph glyph-name="S_T" unicode="ST" horiz-adv-x="1434" 
d="M14 0zM704 531v133q0 13 11 24.5t25 11.5h648q14 0 25 -10.5t11 -25.5v-133q0 -13 -11 -24.5t-25 -11.5h-176v-459q0 -14 -10.5 -25t-25.5 -11h-224q-13 0 -24.5 10.5t-11.5 25.5v459h-176q-13 0 -24.5 11t-11.5 25zM14 136v173q0 13 7.5 17t18.5 -6q69 -65 162.5 -98
t188.5 -33q150 0 150 36q0 18 -14.5 23.5t-47.5 5.5q-10 0 -38.5 -0.5t-46.5 -0.5q-166 4 -267 73.5t-101 168.5q0 113 107.5 164.5t290.5 51.5q100 0 210 -8q10 -1 23 -13t13 -26v-133q0 -13 -11 -24.5t-25 -11.5q-4 0 -85.5 4t-132.5 4q-91 0 -91 -22q0 -25 82 -25
q64 0 128.5 -9t135.5 -31t115.5 -68.5t44.5 -111.5q0 -108 -129 -177t-314 -69q-173 0 -342 93q-32 17 -32 53z" />
    <glyph glyph-name="L_A" unicode="LA" horiz-adv-x="1446" 
d="M24 0zM574 34l262 633q5 12 20 23q15 10 30 10h240q13 0 28 -10q16 -10 21 -23l256 -634q2 -5 2 -11q0 -10 -7 -16t-18 -6h-207q-13 0 -28 10t-20 24l-31 90h-245l-32 -90q-4 -11 -19 -22.5t-29 -11.5h-201q-12 0 -18 6q-7 8 -7 16q0 5 3 12zM936 290h130l-64 186zM24 36
v628q0 15 10.5 25.5t25.5 10.5h212q15 0 25.5 -10.5t10.5 -25.5v-450h96l164 5q10 0 17 -7.5t7 -16.5q0 -4 -2 -8l-62 -154q-14 -33 -50 -33h-418q-15 0 -25.5 10.5t-10.5 25.5z" />
    <glyph glyph-name="t_Y" unicode="tY" horiz-adv-x="1361" 
d="M16 0zM520 671q-5 7 -5 14q0 15 20 15h267q37 0 50 -33l89 -220l93 220q14 33 50 33h239q20 0 20 -17q0 -5 -5 -12l-267 -380v-255q0 -14 -10.5 -25t-25.5 -11h-212q-13 0 -24.5 11t-11.5 25v261zM16 240v422q0 14 10.5 26t25.5 14l212 22q13 1 24.5 -8.5t11.5 -23.5v-92
h177q13 0 30.5 -9t26.5 -20l108 -154q8 -10 3.5 -19.5t-18.5 -9.5h-327v-104q0 -29 28 -50.5t72 -21.5q108 0 224 65q8 6 19.5 0.5t11.5 -19.5v-152q0 -37 -31 -54q-48 -27 -113.5 -44.5t-127.5 -17.5q-149 0 -258 76.5t-109 173.5z" />
    <glyph glyph-name="t_V" unicode="tV" horiz-adv-x="1390" 
d="M16 0zM16 240v422q0 14 10.5 26t25.5 14l212 22q13 1 24.5 -8.5t11.5 -23.5v-92h201q38 0 52 -29l54 -154q4 -11 -2 -20t-15 -9h-290v-104q0 -29 28 -50.5t72 -21.5q108 0 224 65q8 6 19.5 0.5t11.5 -19.5v-152q0 -37 -31 -54q-48 -27 -113.5 -44.5t-127.5 -17.5
q-149 0 -258 76.5t-109 173.5zM567 666q-2 5 -2 11q0 10 6.5 16.5t18.5 6.5h225q13 0 27.5 -10.5t18.5 -24.5l111 -383l115 384q4 13 17.5 23.5t28.5 10.5h219q11 0 18 -6.5t7 -16.5q0 -5 -2 -11l-244 -632q-5 -13 -19.5 -23.5t-29.5 -10.5h-230q-13 0 -28.5 10t-20.5 24z
" />
    <glyph glyph-name="t_W" unicode="tW" horiz-adv-x="1704" 
d="M16 0zM16 240v422q0 14 10.5 26t25.5 14l212 22q13 1 24.5 -8.5t11.5 -23.5v-92h201q38 0 52 -29l54 -154q4 -11 -2 -20t-15 -9h-290v-104q0 -29 28 -50.5t72 -21.5q108 0 224 65q8 6 19.5 0.5t11.5 -19.5v-152q0 -37 -31 -54q-48 -27 -113.5 -44.5t-127.5 -17.5
q-149 0 -258 76.5t-109 173.5zM566 666q-2 5 -2 10q0 10 7 17t19 7h225q13 0 27 -10.5t18 -24.5l76 -310l64 310q3 13 15.5 24t27.5 11h170q13 0 26.5 -10.5t16.5 -24.5l64 -310l76 310q3 13 16.5 24t28.5 11h225q11 0 18.5 -7t7.5 -17q0 -5 -2 -10l-223 -632
q-5 -14 -19 -24t-29 -10h-174q-13 0 -27 10.5t-17 24.5l-73 302l-73 -302q-3 -13 -16 -24t-28 -11h-174q-13 0 -28 10t-20 24z" />
    <glyph glyph-name="G_Y" unicode="GY" horiz-adv-x="1578" 
d="M12 0zM12 350q0 163 115 261.5t319 98.5q82 0 189 -7q36 -3 57 -32l104 -147q8 -10 3.5 -19.5t-18.5 -9.5h-273q-102 0 -157 -33t-55 -112q0 -66 43.5 -106t124.5 -40q72 0 138 9v44h-102q-12 0 -24 11t-12 25v89q0 12 11 24t25 12h286q14 0 25 -10.5t11 -25.5v-246
q0 -37 -30 -56q-80 -50 -149 -70t-179 -20q-206 0 -329 99.5t-123 260.5zM737 671q-5 7 -5 14q0 15 20 15h267q37 0 50 -33l89 -220l93 220q14 33 50 33h239q20 0 20 -17q0 -5 -5 -12l-267 -380v-255q0 -14 -10.5 -25t-25.5 -11h-212q-13 0 -24.5 11t-11.5 25v261z" />
    <glyph glyph-name="C_Y" unicode="CY" horiz-adv-x="1477" 
d="M12 0zM636 671q-5 7 -5 14q0 15 20 15h267q37 0 50 -33l89 -220l93 220q14 33 50 33h239q20 0 20 -17q0 -5 -5 -12l-267 -380v-255q0 -14 -10.5 -25t-25.5 -11h-212q-13 0 -24.5 11t-11.5 25v261zM12 351q0 160 122.5 258.5t319.5 98.5q26 0 56 -2q31 -2 51 -11.5
t37 -33.5l97 -137q8 -10 3.5 -19.5t-18.5 -9.5h-172q-102 0 -157 -33t-55 -112q0 -73 52.5 -110t135.5 -37q72 0 136 18t101 47q7 7 17 2.5t10 -18.5v-156q0 -36 -30 -54q-35 -21 -104 -36.5t-142 -15.5q-210 0 -335 99t-125 262z" />
    <glyph glyph-name="S_Y" unicode="SY" horiz-adv-x="1548" 
d="M14 0zM707 671q-5 7 -5 14q0 15 20 15h267q37 0 50 -33l89 -220l93 220q14 33 50 33h239q20 0 20 -17q0 -5 -5 -12l-267 -380v-255q0 -14 -10.5 -25t-25.5 -11h-212q-13 0 -24.5 11t-11.5 25v261zM14 134v175q0 13 7 17t18 -6q73 -66 166.5 -98.5t185.5 -32.5
q150 0 150 36q0 18 -14.5 23.5t-47.5 5.5q-10 0 -38.5 -0.5t-46.5 -0.5q-166 4 -267 73.5t-101 168.5q0 113 107.5 164.5t290.5 51.5q56 0 181 -9q36 -2 57 -31l104 -147q6 -8 0.5 -18t-15.5 -10q-145 5 -335 7q-91 0 -91 -22q0 -25 82 -25q64 0 128.5 -9t135.5 -31
t115.5 -68.5t44.5 -111.5q0 -108 -129 -177t-314 -69q-173 0 -342 93q-32 17 -32 51z" />
    <glyph glyph-name="Y_Z" unicode="YZ" horiz-adv-x="1470" 
d="M18 0zM23 671q-5 7 -5 14q0 15 20 15h267q37 0 50 -33l89 -220l93 220q14 33 50 33h239q20 0 20 -17q0 -5 -5 -12l-267 -380v-255q0 -14 -10.5 -25t-25.5 -11h-212q-13 0 -24.5 11t-11.5 25v261zM756 36v106q0 36 26 61l300 283h-291q-14 0 -18.5 8.5t3.5 20.5l109 156
q21 29 57 29h473q14 0 25 -10.5t11 -25.5v-106q0 -36 -26 -61l-300 -283h295q14 0 25 -10.5t11 -25.5v-142q0 -13 -11 -24.5t-25 -11.5h-628q-14 0 -25 10.5t-11 25.5z" />
    <glyph glyph-name="Z_Y" unicode="ZY" horiz-adv-x="1488" 
d="M14 0zM14 36v106q0 36 26 61l300 283h-283q-14 0 -25 10.5t-11 25.5v142q0 13 11 24.5t25 11.5h489q36 0 57 -29l85 -120q9 -13 7.5 -28t-12.5 -26l-300 -283h295q14 0 25 -10.5t11 -25.5v-142q0 -13 -11 -24.5t-25 -11.5h-628q-14 0 -25 10.5t-11 25.5zM647 671
q-5 7 -5 14q0 15 20 15h267q37 0 50 -33l89 -220l93 220q14 33 50 33h239q20 0 20 -17q0 -5 -5 -12l-267 -380v-255q0 -14 -10.5 -25t-25.5 -11h-212q-13 0 -24.5 11t-11.5 25v261z" />
    <glyph glyph-name="Z_A" unicode="ZA" horiz-adv-x="1556" 
d="M14 0zM684 34l262 633q5 12 20 23q15 10 30 10h240q13 0 28 -10q16 -10 21 -23l256 -634q2 -5 2 -11q0 -10 -7 -16t-18 -6h-207q-13 0 -28 10t-20 24l-31 90h-245l-32 -90q-4 -11 -19 -22.5t-29 -11.5h-201q-12 0 -18 6q-7 8 -7 16q0 5 3 12zM1046 290h130l-64 186z
M14 36v106q0 36 26 61l300 283h-283q-14 0 -25 10.5t-11 25.5v142q0 13 11 24.5t25 11.5h616q14 0 25 -10.5t11 -25.5v-106q0 -36 -26 -61l-300 -283h305q11 0 18 -6.5t7 -15.5q0 -5 -3 -11l-61 -148q-5 -12 -20.5 -22.5t-29.5 -10.5h-549q-14 0 -25 10.5t-11 25.5z" />
    <glyph glyph-name="A_Z" unicode="AZ" horiz-adv-x="1569" 
d="M13 0zM16 34l262 633q5 12 20 23q15 10 30 10h240q13 0 28 -10q16 -10 21 -23l256 -634q2 -5 2 -11q0 -10 -7 -16t-18 -6h-207q-13 0 -28 10t-20 24l-31 90h-245l-32 -90q-4 -11 -19 -22.5t-29 -11.5h-201q-12 0 -18 6q-7 8 -7 16q0 5 3 12zM378 290h130l-64 186z
M862 522v142q0 13 11 24.5t25 11.5h616q14 0 25 -10.5t11 -25.5v-106q0 -36 -26 -61l-300 -283h295q14 0 25 -10.5t11 -25.5v-142q0 -13 -11 -24.5t-25 -11.5h-556q-36 0 -49 33l-46 112q-13 33 13 58l300 283h-283q-14 0 -25 10.5t-11 25.5z" />
    <glyph glyph-name="R_Y" unicode="RY" horiz-adv-x="1592" 
d="M24 0zM751 671q-5 7 -5 14q0 15 20 15h267q37 0 50 -33l89 -220l93 220q14 33 50 33h239q20 0 20 -17q0 -5 -5 -12l-267 -380v-255q0 -14 -10.5 -25t-25.5 -11h-212q-13 0 -24.5 11t-11.5 25v261zM304 429q1 0 71.5 -2.5t109.5 -2.5q15 0 25.5 10t10.5 24t-11.5 24.5
t-28.5 10.5q-38 0 -106 -2.5t-71 -2.5v-59zM24 36v628q0 14 10.5 25t25.5 11q57 0 182 3t222 3q148 0 248 -67.5t100 -168.5q0 -66 -46.5 -120.5t-124.5 -83.5l207 -239q6 -7 7 -14q0 -13 -19 -13h-297q-38 0 -55 32l-106 208h-74v-204q0 -13 -11 -24.5t-25 -11.5h-208
q-13 0 -24.5 10.5t-11.5 25.5z" />
    <glyph glyph-name="R_W" unicode="RW" horiz-adv-x="1930" 
d="M24 0zM792 666q-2 5 -2 10q0 10 7 17t19 7h225q13 0 27 -10.5t18 -24.5l76 -310l64 310q3 13 15.5 24t27.5 11h170q13 0 26.5 -10.5t16.5 -24.5l64 -310l76 310q3 13 16.5 24t28.5 11h225q11 0 18.5 -7t7.5 -17q0 -5 -2 -10l-223 -632q-5 -14 -19 -24t-29 -10h-174
q-13 0 -27 10.5t-17 24.5l-73 302l-73 -302q-3 -13 -16 -24t-28 -11h-174q-13 0 -28 10t-20 24zM304 429q1 0 71.5 -2.5t109.5 -2.5q15 0 25.5 10t10.5 24t-11.5 24.5t-28.5 10.5q-38 0 -106 -2.5t-71 -2.5v-59zM24 36v628q0 14 10.5 25t25.5 11q57 0 182 3t222 3
q148 0 248 -67.5t100 -168.5q0 -66 -46.5 -120.5t-124.5 -83.5l207 -239q6 -7 7 -14q0 -13 -19 -13h-297q-38 0 -55 32l-106 208h-74v-204q0 -13 -11 -24.5t-25 -11.5h-208q-13 0 -24.5 10.5t-11.5 25.5z" />
    <glyph glyph-name="B_Y" unicode="BY" horiz-adv-x="1568" 
d="M24 0zM24 36v628q0 14 10.5 25t25.5 11q56 0 182.5 3t207.5 3q134 0 216 -51t82 -135q0 -78 -59 -131q62 -27 98.5 -78t36.5 -115q0 -91 -86.5 -146.5t-227.5 -55.5q-95 0 -243.5 3t-206.5 3q-12 0 -24 11t-12 25zM298 448h148q17 0 29.5 10.5t12.5 24.5q0 16 -13 27.5
t-32 11.5q-40 0 -89.5 -2.5t-55.5 -2.5v-69zM298 198q5 0 82.5 -2.5t120.5 -2.5q18 0 30.5 11.5t12.5 27.5q0 15 -12 26t-28 11h-206v-71zM727 671q-5 7 -5 14q0 15 20 15h267q37 0 50 -33l89 -220l93 220q14 33 50 33h239q20 0 20 -17q0 -5 -5 -12l-267 -380v-255
q0 -14 -10.5 -25t-25.5 -11h-212q-13 0 -24.5 11t-11.5 25v261z" />
    <glyph glyph-name="B_W" unicode="BW" horiz-adv-x="1888" 
d="M24 0zM24 36v628q0 14 10.5 25t25.5 11q56 0 182.5 3t207.5 3q134 0 216 -51t82 -135q0 -78 -59 -131q62 -27 98.5 -78t36.5 -115q0 -91 -86.5 -146.5t-227.5 -55.5q-95 0 -243.5 3t-206.5 3q-12 0 -24 11t-12 25zM298 448h148q17 0 29.5 10.5t12.5 24.5q0 16 -13 27.5
t-32 11.5q-40 0 -89.5 -2.5t-55.5 -2.5v-69zM298 198q5 0 82.5 -2.5t120.5 -2.5q18 0 30.5 11.5t12.5 27.5q0 15 -12 26t-28 11h-206v-71zM750 666q-2 5 -2 10q0 10 7 17t19 7h225q13 0 27 -10.5t18 -24.5l76 -310l64 310q3 13 15.5 24t27.5 11h170q13 0 26.5 -10.5
t16.5 -24.5l64 -310l76 310q3 13 16.5 24t28.5 11h225q11 0 18.5 -7t7.5 -17q0 -5 -2 -10l-223 -632q-5 -14 -19 -24t-29 -10h-174q-13 0 -27 10.5t-17 24.5l-73 302l-73 -302q-3 -13 -16 -24t-28 -11h-174q-13 0 -28 10t-20 24z" />
    <glyph glyph-name="Lslash_A" unicode="&#x141;A" horiz-adv-x="1560" 
d="M4 0zM688 34l262 633q5 12 20 23q15 10 30 10h240q13 0 28 -10q16 -10 21 -23l256 -634q2 -5 2 -11q0 -10 -7 -16t-18 -6h-207q-13 0 -28 10t-20 24l-31 90h-245l-32 -90q-4 -11 -19 -22.5t-29 -11.5h-201q-12 0 -18 6q-7 8 -7 16q0 5 3 12zM1050 290h130l-64 186zM4 229
v162q0 16 9.5 28.5t25.5 16.5l39 10v218q0 13 11 24.5t25 11.5h212q13 0 24.5 -11t11.5 -25v-144l223 58q13 3 24 -4.5t11 -22.5v-162q0 -16 -9.5 -28.5t-25.5 -16.5l-223 -58v-72h148l172 5q10 0 17 -6.5t7 -15.5q0 -5 -2 -10l-62 -154q-14 -33 -50 -33h-478
q-14 0 -25 10.5t-11 25.5v176l-39 -10q-13 -3 -24 5.5t-11 21.5z" />
    <glyph glyph-name="K_A" unicode="KA" horiz-adv-x="1574" 
d="M24 0zM24 36v628q0 14 10.5 25t25.5 11h212q13 0 24.5 -11t11.5 -25v-206h41l113 210q17 32 53 32h263q14 0 18 -8q5 -9 -4 -20l-242 -313l252 -330q6 -8 6 -15q0 -14 -20 -14h-279q-35 0 -53 32l-116 212h-32v-208q0 -13 -11 -24.5t-25 -11.5h-212q-13 0 -24.5 10.5
t-11.5 25.5zM771 201l193 466q14 33 50 33h240q36 0 49 -33l256 -634q1 -2 1 -9q0 -10 -7 -17t-17 -7h-207q-16 0 -29 9q-14 9 -19 25l-31 90q-40 0 -64 -1t-62 -4t-65.5 -11.5t-59.5 -21.5t-59.5 -35t-50.5 -51l-109 139q-23 29 -9 62zM1060 278q38 12 134 12l-64 186z" />
    <glyph glyph-name="R_A" unicode="RA" horiz-adv-x="1624" 
d="M1110 278q38 12 134 12l-64 186zM817 190l197 477q14 33 50 33h240q36 0 49 -33l256 -634q5 -13 -1.5 -23t-21.5 -10h-207q-16 0 -29 9t-19 25l-31 90q-47 0 -75 -1t-69.5 -6.5t-71 -15.5t-63 -29t-61.5 -47q-9 -9 -21.5 -9t-23.5 11l-88 102q-24 28 -10 61zM304 429
q1 0 71.5 -2.5t109.5 -2.5q15 0 25.5 10t10.5 24t-11.5 24.5t-28.5 10.5q-38 0 -106 -2.5t-71 -2.5v-59zM24 36v628q0 14 10.5 25t25.5 11q57 0 182 3t222 3q148 0 248 -67.5t100 -168.5q0 -66 -46.5 -120.5t-124.5 -83.5l207 -239q9 -10 6 -18.5t-18 -8.5h-299
q-14 0 -30 9.5t-23 22.5l-106 208h-74v-240h-244q-13 0 -24.5 10.5t-11.5 25.5z" />
    <glyph glyph-name="Y_T" unicode="YT" horiz-adv-x="1458" 
d="M18 0zM23 671q-5 7 -5 14q0 15 20 15h267q37 0 50 -33l89 -220l93 220q14 33 50 33h239q20 0 20 -17q0 -5 -5 -12l-267 -380v-255q0 -14 -10.5 -25t-25.5 -11h-212q-13 0 -24.5 11t-11.5 25v261zM777 524l104 147q8 11 25.5 20t31.5 9h474q14 0 25 -10.5t11 -25.5v-133
q0 -13 -11 -24.5t-25 -11.5h-176v-459q0 -14 -10.5 -25t-25.5 -11h-224q-13 0 -24.5 10.5t-11.5 25.5v459h-148q-9 0 -14.5 4.5t-5.5 11.5q0 6 5 13z" />
    <glyph glyph-name="T_Y" unicode="TY" horiz-adv-x="1458" 
d="M10 0zM617 671q-5 7 -5 14q0 15 20 15h267q37 0 50 -33l89 -220l93 220q14 33 50 33h239q20 0 20 -17q0 -5 -5 -12l-267 -380v-255q0 -14 -10.5 -25t-25.5 -11h-212q-13 0 -24.5 11t-11.5 25v261zM10 531v133q0 13 11 24.5t25 11.5h474q14 0 31 -8.5t26 -20.5l104 -147
q5 -7 5 -13q0 -16 -20 -16h-148v-459q0 -14 -10.5 -25t-25.5 -11h-224q-13 0 -24.5 10.5t-11.5 25.5v459h-176q-13 0 -24.5 11t-11.5 25z" />
    <glyph glyph-name="W_Y" unicode="WY" horiz-adv-x="1759" 
d="M12 0zM918 671q-5 7 -5 14q0 15 20 15h267q37 0 50 -33l89 -220l93 220q14 33 50 33h239q20 0 20 -17q0 -5 -5 -12l-267 -380v-255q0 -14 -10.5 -25t-25.5 -11h-212q-13 0 -24.5 11t-11.5 25v261zM14 666q-2 5 -2 10q0 10 7 17t19 7h225q13 0 27 -10.5t18 -24.5l76 -310
l64 310q3 13 15.5 24t27.5 11h170q13 0 26.5 -10.5t16.5 -24.5l64 -310l76 310q3 13 12 15.5t18 -9.5l178 -250l-137 -387q-5 -13 -19 -23.5t-29 -10.5h-174q-13 0 -27 10.5t-17 24.5l-73 302l-73 -302q-3 -13 -16 -24t-28 -11h-174q-13 0 -28 10t-20 24z" />
    <glyph glyph-name="Y_W" unicode="YW" horiz-adv-x="1759" 
d="M18 0zM23 671q-5 7 -5 14q0 15 20 15h267q37 0 50 -33l89 -220l93 220q14 33 50 33h239q20 0 20 -17q0 -5 -5 -12l-267 -380v-255q0 -14 -10.5 -25t-25.5 -11h-212q-13 0 -24.5 11t-11.5 25v261zM708 418l177 253q8 11 17 9.5t13 -15.5l76 -310l64 310q3 13 15.5 24
t27.5 11h170q13 0 26.5 -10.5t16.5 -24.5l64 -310l76 310q3 13 16.5 24t28.5 11h225q11 0 18.5 -7t7.5 -17q0 -5 -2 -10l-223 -632q-5 -14 -19 -24t-29 -10h-174q-13 0 -27 10.5t-17 24.5l-73 302l-73 -302q-3 -13 -16 -24t-28 -11h-174q-13 0 -28 10t-20 24z" />
    <glyph glyph-name="V_Y" unicode="VY" horiz-adv-x="1451" 
d="M13 0zM610 671q-5 7 -5 14q0 15 20 15h267q37 0 50 -33l89 -220l93 220q14 33 50 33h239q20 0 20 -17q0 -5 -5 -12l-267 -380v-255q0 -14 -10.5 -25t-25.5 -11h-212q-13 0 -24.5 11t-11.5 25v261zM15 666q-2 4 -2 9q0 10 7.5 17.5t17.5 7.5h225q16 0 28.5 -9.5
t17.5 -25.5l111 -383l115 384q3 10 14 11.5t17 -6.5l147 -206q21 -29 8 -63l-142 -368q-13 -34 -49 -34h-230q-17 0 -30 9t-19 25z" />
    <glyph glyph-name="Y_V" unicode="YV" horiz-adv-x="1445" 
d="M18 0zM23 671q-5 7 -5 14q0 15 20 15h267q37 0 50 -33l89 -220l93 220q14 33 50 33h239q20 0 20 -17q0 -5 -5 -12l-267 -380v-255q0 -14 -10.5 -25t-25.5 -11h-212q-13 0 -24.5 11t-11.5 25v261zM725 391q-13 34 8 63l152 217q6 8 17 6t14 -12l111 -383l115 384
q5 16 17.5 25t28.5 9h219q10 0 17.5 -7.5t7.5 -17.5q0 -4 -2 -9l-244 -632q-13 -34 -49 -34h-230q-17 0 -30 9t-19 25z" />
    <glyph glyph-name="E_Y" unicode="EY" horiz-adv-x="1471" 
d="M24 0zM630 671q-5 7 -5 14q0 15 20 15h267q37 0 50 -33l89 -220l93 220q14 33 50 33h239q20 0 20 -17q0 -5 -5 -12l-267 -380v-255q0 -14 -10.5 -25t-25.5 -11h-212q-13 0 -24.5 11t-11.5 25v261zM24 36v628q0 15 10.5 25.5t25.5 10.5h469q36 0 57 -29l107 -151
q6 -9 1 -19t-16 -10h-370v-58h310q15 0 25.5 -10.5t10.5 -25.5v-94q0 -15 -10.5 -25.5t-25.5 -10.5h-310v-58h370q15 0 25.5 -10.5t10.5 -25.5v-137q0 -15 -10.5 -25.5t-25.5 -10.5h-618q-15 0 -25.5 10.5t-10.5 25.5z" />
    <glyph glyph-name="E_V" unicode="EV" horiz-adv-x="1462" 
d="M24 0zM639 666q-2 5 -2 11q0 10 6.5 16.5t18.5 6.5h225q13 0 27.5 -10.5t18.5 -24.5l111 -383l115 384q4 13 17.5 23.5t28.5 10.5h219q11 0 18 -6.5t7 -16.5q0 -5 -2 -11l-244 -632q-5 -13 -19.5 -23.5t-29.5 -10.5h-230q-13 0 -28.5 10t-20.5 24zM24 36v628
q0 14 10.5 25t25.5 11h480q17 0 30 -9t18 -25l62 -175h-342v-58h310q14 0 25 -10.5t11 -25.5v-94q0 -12 -11 -24t-25 -12h-310v-58h370q14 0 25 -10.5t11 -25.5v-137q0 -13 -11 -24.5t-25 -11.5h-618q-14 0 -25 10.5t-11 25.5z" />
    <glyph glyph-name="E_W" unicode="EW" horiz-adv-x="1776" 
d="M24 0zM638 666q-2 5 -2 10q0 10 7 17t19 7h225q13 0 27 -10.5t18 -24.5l76 -310l64 310q3 13 15.5 24t27.5 11h170q13 0 26.5 -10.5t16.5 -24.5l64 -310l76 310q3 13 16.5 24t28.5 11h225q11 0 18.5 -7t7.5 -17q0 -5 -2 -10l-223 -632q-5 -14 -19 -24t-29 -10h-174
q-13 0 -27 10.5t-17 24.5l-73 302l-73 -302q-3 -13 -16 -24t-28 -11h-174q-13 0 -28 10t-20 24zM24 36v628q0 14 10.5 25t25.5 11h480q17 0 30 -9t18 -25l62 -175h-342v-58h310q14 0 25 -10.5t11 -25.5v-94q0 -12 -11 -24t-25 -12h-310v-58h370q14 0 25 -10.5t11 -25.5v-137
q0 -13 -11 -24.5t-25 -11.5h-618q-14 0 -25 10.5t-11 25.5z" />
    <glyph glyph-name="X_A" unicode="XA" horiz-adv-x="1581" 
d="M21 0zM26 30l226 346l-215 295q-8 11 -4 20t19 9h236q13 0 29.5 -9.5t23.5 -22.5l77 -145l77 145q6 11 23 22q16 10 30 10h236q13 0 18 -8q5 -10 -3 -21l-215 -295l226 -346q5 -8 5 -14q0 -16 -21 -16h-235q-13 0 -29 10q-17 10 -23 22l-89 187l-89 -187q-6 -12 -22 -22
t-30 -10h-235q-9 0 -15 4.5t-6 12.5q0 5 5 13zM787 222l184 445q5 13 20 23t30 10h240q13 0 28.5 -10t20.5 -23l256 -634q2 -6 2 -11q0 -10 -7 -16t-18 -6h-207q-13 0 -28 10t-20 24l-31 90q-40 0 -64 -1t-62 -4t-65.5 -11.5t-59.5 -21.5t-59.5 -35t-50.5 -51l-103 158
q-20 31 -6 64zM1067 278q38 12 134 12l-64 186z" />
    <glyph glyph-name="A_X" unicode="AX" horiz-adv-x="1581" 
d="M14 0zM15 33l256 634q13 33 49 33h240q36 0 50 -33l184 -445q14 -34 -6 -64l-103 -158q-23 29 -50.5 51t-59.5 35t-59.5 21.5t-65.5 11.5t-62 4t-64 1l-31 -90q-6 -16 -19 -25t-29 -9h-207q-10 0 -17 7t-7 17q0 7 1 9zM380 290q95 0 134 -12l-70 198zM771 30l226 346
l-215 295q-8 11 -4 20t19 9h236q13 0 29.5 -9.5t23.5 -22.5l77 -145l77 145q6 11 23 22q16 10 30 10h236q13 0 18 -8q5 -10 -3 -21l-215 -295l226 -346q5 -8 5 -14q0 -16 -21 -16h-235q-13 0 -29 10q-17 10 -23 22l-89 187l-89 -187q-6 -12 -22 -22t-30 -10h-235
q-9 0 -15 4.5t-6 12.5q0 5 5 13z" />
    <glyph glyph-name="X_Y" unicode="XY" horiz-adv-x="1524" 
d="M21 0zM683 671q-5 7 -5 14q0 15 20 15h267q37 0 50 -33l89 -220l93 220q14 33 50 33h239q20 0 20 -17q0 -5 -5 -12l-267 -380v-255q0 -14 -10.5 -25t-25.5 -11h-212q-13 0 -24.5 11t-11.5 25v261zM26 30l226 346l-215 295q-8 11 -4 20t19 9h236q36 0 53 -32l77 -145
l77 145q17 32 53 32h34q36 0 57 -29l79 -111l-134 -184l226 -346q5 -7 5 -14q0 -16 -21 -16h-235q-13 0 -29 9.5t-23 22.5l-89 187l-89 -187q-6 -12 -22 -22t-30 -10h-235q-9 0 -15 4.5t-6 12.5q0 6 5 13z" />
    <glyph glyph-name="Y_X" unicode="Yx" horiz-adv-x="1524" 
d="M18 0zM23 671q-5 7 -5 14q0 15 20 15h267q37 0 50 -33l89 -220l93 220q14 33 50 33h239q20 0 20 -17q0 -5 -5 -12l-267 -380v-255q0 -14 -10.5 -25t-25.5 -11h-212q-13 0 -24.5 11t-11.5 25v261zM714 30l226 346l-134 184l79 111q21 29 57 29h34q36 0 53 -32l77 -145
l77 145q17 32 53 32h236q13 0 18 -8.5t-3 -20.5l-215 -295l226 -346q5 -7 5 -14q0 -16 -21 -16h-235q-13 0 -29 9.5t-23 22.5l-89 187l-89 -187q-6 -12 -22 -22t-30 -10h-235q-9 0 -15 4.5t-6 12.5q0 6 5 13z" />
    <glyph glyph-name="c_a" unicode="Ca" horiz-adv-x="1473" 
d="M12 0zM721 213q0 90 85.5 158t196.5 68q57 0 97 -9t83 -38v40q0 34 -41 56t-106 22q-113 0 -214 -53q-8 -5 -19 0t-11 19v124q0 37 31 52q125 58 257 58q152 0 264.5 -76.5t112.5 -173.5v-424q0 -14 -10.5 -25t-25.5 -11h-194q-14 0 -25 9.5t-13 24.5v9
q-100 -49 -202 -49q-113 0 -189.5 55.5t-76.5 163.5zM1004 213q0 -28 26 -43t66 -15q46 0 87 16v81q-43 21 -87 21q-39 0 -65.5 -16t-26.5 -44zM12 350q0 163 125.5 261.5t334.5 98.5q73 0 143.5 -15.5t101.5 -37.5q13 -9 22 -23.5t9 -29.5v-156q0 -15 -7.5 -19.5t-19.5 3.5
q-38 28 -101.5 46.5t-135.5 18.5q-83 0 -135.5 -37t-52.5 -110t52.5 -110t135.5 -37q112 0 195 40q-2 -15 -2 -30q0 -46 12 -81.5t26 -53.5q9 -12 4 -25t-19 -19q-36 -18 -98 -31t-130 -13q-210 0 -335 98.5t-125 261.5z" />
    <glyph glyph-name="L_S" unicode="LS" horiz-adv-x="1286" 
d="M24 36v628q0 14 10.5 25t25.5 11h212q13 0 24.5 -11t11.5 -25v-450h122l164 5q13 0 24.5 -10.5t11.5 -24.5v-148q0 -13 -11 -24.5t-25 -11.5h-534q-14 0 -25 10.5t-11 25.5zM473 495q0 77 54 126.5t140 69.5t204 20q90 0 180.5 -16.5t131.5 -39.5q10 -6 20.5 -21
t10.5 -29v-123q0 -12 -9.5 -19t-22.5 -1q-138 65 -319 65q-97 0 -97 -35q0 -30 87 -30q48 0 99.5 -5.5t111.5 -21t106 -39.5t77 -65.5t31 -94.5q0 -109 -120 -177.5t-303 -68.5q-100 0 -155 13q-16 4 -25.5 16t-9.5 27v138q0 13 10 21t24 5q59 -16 139 -16q150 0 150 36
q0 18 -14.5 23.5t-47.5 5.5q-10 0 -38.5 -0.5t-46.5 -0.5q-166 4 -267 71t-101 166z" />
    <glyph glyph-name="Lslash_Y" unicode="&#x141;Y" horiz-adv-x="1412" 
d="M4 0zM39 212q-14 -4 -24.5 4t-10.5 23v152q0 15 10 28t25 17l39 10v218q0 15 10.5 25.5t25.5 10.5h212q15 0 25.5 -10.5t10.5 -25.5v-144l169 44q14 4 30.5 -2t24.5 -19l111 -160l-335 -87v-82h148l172 5q15 0 25.5 -10t10.5 -25v-148q0 -15 -10.5 -25.5t-25.5 -10.5
h-568q-15 0 -25.5 10.5t-10.5 25.5v186zM571 671q-5 7 -5 14q0 15 20 15h267q37 0 50 -33l89 -220l93 220q14 33 50 33h239q20 0 20 -17q0 -5 -5 -12l-267 -380v-255q0 -14 -10.5 -25t-25.5 -11h-212q-13 0 -24.5 11t-11.5 25v261z" />
    <glyph glyph-name="Y_t" unicode="Yt" horiz-adv-x="1437" 
d="M18 0zM694 388l207 284q9 12 25.5 20t31.5 8h74q15 0 25.5 -11t10.5 -26v-63h315q15 0 25.5 -10.5t10.5 -25.5v-140q0 -15 -10.5 -25.5t-25.5 -10.5h-315v-104q0 -29 28 -50.5t72 -21.5q110 0 224 64q13 7 22 2t9 -20v-154q0 -15 -9 -30.5t-22 -23.5
q-46 -27 -111.5 -43.5t-129.5 -16.5q-149 0 -258 76.5t-109 173.5v148h-90zM23 671q-5 7 -5 14q0 15 20 15h267q37 0 50 -33l89 -220l93 220q14 33 50 33h239q20 0 20 -17q0 -5 -5 -12l-267 -380v-255q0 -14 -10.5 -25t-25.5 -11h-212q-13 0 -24.5 11t-11.5 25v261z" />
    <glyph glyph-name="X_T" unicode="XT" horiz-adv-x="1425" 
d="M21 0zM26 30l226 346l-215 295q-8 11 -4 20t19 9h236q13 0 29.5 -9.5t23.5 -22.5l77 -145l77 145q6 11 23 22q16 10 30 10h236q13 0 18 -8q5 -10 -3 -21l-215 -295l226 -346q5 -8 5 -14q0 -16 -21 -16h-235q-13 0 -29 10q-17 10 -23 22l-89 187l-89 -187q-6 -12 -22 -22
t-30 -10h-235q-9 0 -15 4.5t-6 12.5q0 5 5 13zM744 524l104 147q8 11 25.5 20t31.5 9h474q14 0 25 -10.5t11 -25.5v-133q0 -13 -11 -24.5t-25 -11.5h-176v-459q0 -14 -10.5 -25t-25.5 -11h-224q-13 0 -24.5 10.5t-11.5 25.5v459h-148q-9 0 -14.5 4.5t-5.5 11.5q0 6 5 13z
" />
    <glyph glyph-name="L_y" unicode="Ly" horiz-adv-x="1218" 
d="M475 494v167q0 15 10.5 25.5t25.5 10.5h211q15 0 25.5 -10.5t10.5 -25.5v-143q0 -32 22 -52t58 -20t80 12v207q0 15 10.5 25.5t25.5 10.5h212q15 0 25.5 -10.5t10.5 -25.5v-424q0 -103 -119.5 -176.5t-287.5 -73.5q-49 0 -80 7q-15 3 -25 15t-10 27v141q0 15 10.5 23.5
t25.5 5.5q25 -5 62 -5q61 0 100.5 15.5t39.5 44.5v18q-67 -22 -132 -22q-146 0 -228.5 67t-82.5 166zM24 36v628q0 14 10.5 25t25.5 11h212q13 0 24.5 -11t11.5 -25v-450h122l164 5q13 0 24.5 -10.5t11.5 -24.5v-148q0 -13 -11 -24.5t-25 -11.5h-534q-14 0 -25 10.5
t-11 25.5z" />
    <glyph glyph-name=".notdef" horiz-adv-x="448" 
d="M118 396l53 -54l-52 -52l53 -53l52 52l53 -53l53 53l-53 53l52 53l-53 53l-52 -52l-53 53zM44 110v465h360v-465h-360z" />
    <glyph glyph-name=".null" horiz-adv-x="0" 
 />
    <glyph glyph-name="nonmarkingreturn" horiz-adv-x="341" 
 />
    <glyph glyph-name="uni001A" horiz-adv-x="10" 
 />
    <glyph glyph-name="space" unicode=" " horiz-adv-x="380" 
 />
    <glyph glyph-name="exclam" unicode="!" horiz-adv-x="320" 
d="M18 432v262q0 15 11.5 25.5t24.5 10.5h212q15 0 25.5 -11t10.5 -25v-262q0 -36 -6 -72l-12 -71q-2 -14 -15.5 -25t-26.5 -11h-164q-14 0 -27 12.5t-15 23.5l-12 71q-6 36 -6 72zM50 36v148q0 13 11 24.5t25 11.5h148q13 0 24.5 -11t11.5 -25v-148q0 -13 -11 -24.5
t-25 -11.5h-148q-13 0 -24.5 11t-11.5 25z" />
    <glyph glyph-name="quotedbl" unicode="&#x22;" horiz-adv-x="488" 
d="M12 345zM12 539v125q0 15 10.5 25.5t25.5 10.5h148q15 0 25.5 -10.5t10.5 -25.5v-128q0 -36 -15 -69l-39 -89q-15 -33 -51 -33h-69q-13 0 -18.5 10.5t-1.5 24.5l30 123h-20q-15 0 -25.5 10.5t-10.5 25.5zM256 539v125q0 15 10.5 25.5t25.5 10.5h148q15 0 25.5 -10.5
t10.5 -25.5v-128q0 -36 -15 -69l-39 -89q-15 -33 -51 -33h-69q-13 0 -18.5 10.5t-1.5 24.5l30 123h-20q-15 0 -25.5 10.5t-10.5 25.5z" />
    <glyph glyph-name="numbersign" unicode="#" horiz-adv-x="490" 
d="M10 217v54h117l8 138h-115v54h118l8 136h52l-8 -136h124l8 136h52l-8 -136h114v-54h-117l-8 -138h115v-54h-118l-8 -136h-52l8 136h-124l-8 -136h-52l8 136h-114zM179 271h124l8 138h-124z" />
    <glyph glyph-name="dollar" unicode="$" horiz-adv-x="715" 
d="M12 162v144q0 13 7 18t18 -5q57 -53 137 -79.5t159 -26.5q127 0 127 34q0 16 -14 21t-45 5q-8 0 -30 -0.5t-36 -0.5q-141 4 -227 61.5t-86 141.5q0 76 56 121.5t155 62.5v55q0 10 11 23t25 13h174q13 0 24.5 -11t11.5 -25v-54q44 -7 86 -19t56 -19q31 -18 31 -51v-99
q0 -12 -9.5 -19t-22.5 -1q-50 23 -121 38t-145 15q-82 0 -82 -32q0 -28 73 -28q53 0 109 -8.5t116.5 -28t98.5 -60t38 -95.5q0 -71 -62.5 -125t-165.5 -79v-63q0 -11 -11 -23.5t-25 -12.5h-174q-13 0 -24.5 11t-11.5 25v55q-96 18 -189 69q-32 17 -32 52z" />
    <glyph glyph-name="percent" unicode="%" horiz-adv-x="886" 
d="M129 100l559 521q11 10 26 9.5t25 -11.5l18 -19l-560 -521q-11 -10 -25.5 -9.5t-24.5 11.5zM480 189q0 83 58.5 141.5t141.5 58.5t141.5 -58.5t58.5 -141.5t-58.5 -141t-141.5 -58t-141.5 58t-58.5 141zM624 189q0 -25 16.5 -42t39.5 -17t39.5 17t16.5 42q0 26 -17 43
t-39 17t-39 -17t-17 -43zM6 510q0 83 58.5 141.5t141.5 58.5t141.5 -58.5t58.5 -141.5t-58.5 -141t-141.5 -58t-141.5 58t-58.5 141zM150 510q0 -25 16.5 -42t39.5 -17t39.5 17t16.5 42q0 26 -17 43t-39 17t-39 -17t-17 -43z" />
    <glyph glyph-name="ampersand" unicode="&#x26;" horiz-adv-x="809" 
d="M12 227q0 40 23 81t65 67q-67 40 -67 126q0 70 81 118t203 48t234 -50l75 26q11 4 22.5 -3t11.5 -21v-175h102q12 0 21.5 -10.5t5.5 -24.5l-22 -92q-4 -16 -16.5 -25.5t-28.5 -9.5h-62v-2q0 -26 22.5 -45t58.5 -19q15 0 28 1q15 2 22.5 -5.5t7.5 -19.5v-115
q0 -16 -10 -28t-25 -14q-20 -2 -38 -2q-127 0 -207 67q-99 -67 -228 -67q-66 0 -128 21t-106.5 66.5t-44.5 106.5zM248 467q0 -10 8.5 -16.5t20.5 -6.5h174v42q-77 18 -132 18q-71 0 -71 -37zM228 259q0 -18 21 -31t58 -13q62 0 144 38v29h-177q-19 0 -32.5 -6.5
t-13.5 -16.5z" />
    <glyph glyph-name="quotesingle" unicode="'" horiz-adv-x="244" 
d="M12 539v125q0 15 10.5 25.5t25.5 10.5h148q15 0 25.5 -10.5t10.5 -25.5v-128q0 -36 -15 -69l-39 -89q-15 -33 -51 -33h-69q-13 0 -18.5 10.5t-1.5 24.5l30 123h-20q-15 0 -25.5 10.5t-10.5 25.5z" />
    <glyph glyph-name="parenleft" unicode="(" horiz-adv-x="404" 
d="M16 350q0 161 107.5 280t235.5 119q15 0 25 -10t10 -25v-139q-60 0 -98 -62t-38 -163t38 -163t98 -62v-139q0 -15 -10.5 -24.5t-25.5 -9.5q-128 0 -235 118.5t-107 279.5z" />
    <glyph glyph-name="parenright" unicode=")" horiz-adv-x="404" 
d="M10 0zM388 350q0 -161 -107.5 -280t-235.5 -119q-15 0 -25 10t-10 25v139q60 0 98 62t38 163t-38 163t-98 62v139q0 15 10.5 24.5t25.5 9.5q128 0 235 -118.5t107 -279.5z" />
    <glyph glyph-name="asterisk" unicode="*" horiz-adv-x="304" 
d="M6 606l17 46l104 -38v111h50v-111l104 38l17 -46l-107 -38l67 -91l-40 -30l-66 92l-66 -92l-40 30l67 91z" />
    <glyph glyph-name="plus" unicode="+" horiz-adv-x="550" 
d="M10 279v142q0 13 11 24.5t25 11.5h117v117q0 12 11 24t25 12h152q13 0 24.5 -11t11.5 -25v-117h117q12 0 24 -11t12 -25v-142q0 -13 -11 -24.5t-25 -11.5h-117v-117q0 -12 -11 -24t-25 -12h-152q-13 0 -24.5 11t-11.5 25v117h-117q-12 0 -24 11t-12 25z" />
    <glyph glyph-name="comma" unicode="," horiz-adv-x="260" 
d="M12 59v125q0 15 10.5 25.5t25.5 10.5h164q13 0 24.5 -11t11.5 -25v-128q0 -36 -15 -69l-39 -89q-15 -33 -51 -33h-75q-13 0 -18.5 10.5t-1.5 24.5l30 123h-30q-15 0 -25.5 10.5t-10.5 25.5z" />
    <glyph glyph-name="hyphen" unicode="-" horiz-adv-x="500" 
d="M10 279v142q0 13 11 24.5t25 11.5h408q14 0 25 -10.5t11 -25.5v-142q0 -13 -11 -24.5t-25 -11.5h-408q-14 0 -25 10.5t-11 25.5z" />
    <glyph glyph-name="period" unicode="." horiz-adv-x="244" 
d="M12 36v148q0 13 11 24.5t25 11.5h148q13 0 24.5 -11t11.5 -25v-148q0 -13 -11 -24.5t-25 -11.5h-148q-13 0 -24.5 11t-11.5 25z" />
    <glyph glyph-name="slash" unicode="/" horiz-adv-x="700" 
d="M683 669l-364 -638q-7 -13 -23.5 -22t-30.5 -9h-230q-15 0 -20 9.5t2 21.5l364 638q7 13 24 22t30 9h230q15 0 20 -9.5t-2 -21.5z" />
    <glyph glyph-name="zero" unicode="0" horiz-adv-x="824" 
d="M12 350q0 160 110.5 260t289.5 100t289.5 -100t110.5 -260t-110.5 -260t-289.5 -100t-289.5 100t-110.5 260zM299 350q0 -66 31 -106t82 -40t82 40t31 106t-31 106t-82 40t-82 -40t-31 -106z" />
    <glyph glyph-name="one" unicode="1" horiz-adv-x="373" 
d="M6 542v102q0 16 10 27.5t26 13.5l95 15h176q13 0 24.5 -11t11.5 -25v-628q0 -14 -10.5 -25t-25.5 -11h-210q-13 0 -24.5 11t-11.5 25v470h-25q-15 0 -25.5 10.5t-10.5 25.5z" />
    <glyph glyph-name="two" unicode="2" horiz-adv-x="718" 
d="M12 34v6q0 43 11 83t29 70t45 59t53.5 49.5t61 42.5t61 36t59.5 32q32 16 51 28q27 16 26 33q0 10 -10 16.5t-25 6.5q-68 0 -150.5 -24.5t-137.5 -63.5q-6 -6 -14 -3t-8 17v155q0 32 24 51q41 33 130 57.5t156 24.5q154 0 243 -54t89 -138q0 -63 -38 -120t-103 -94
l-154 -90h254q14 0 25 -10.5t11 -25.5v-142q0 -13 -11 -24.5t-25 -11.5h-621q-13 0 -22.5 10t-9.5 24z" />
    <glyph glyph-name="three" unicode="3" horiz-adv-x="722" 
d="M16 107v154q0 11 10 17.5t21 1.5q41 -20 138 -49t159 -29q39 0 65.5 16.5t26.5 34.5q0 23 -40 23h-143q-13 0 -24.5 11t-11.5 25v105q0 12 11 24t25 12h133q26 0 26 16q0 14 -20.5 26.5t-54.5 12.5q-57 0 -143 -15.5t-122 -27.5q-12 -4 -23 4.5t-11 21.5v131q0 32 32 48
q29 14 115 27t145 13q151 0 250.5 -54t99.5 -135q0 -29 -6.5 -52.5t-19.5 -42t-23 -28.5t-26 -25q51 -32 76.5 -73.5t25.5 -84.5q0 -100 -102 -162.5t-268 -62.5q-66 0 -161.5 21.5t-130.5 45.5q-29 19 -29 50z" />
    <glyph glyph-name="four" unicode="4" horiz-adv-x="782" 
d="M8 160v112q35 29 73.5 73t75.5 97t61.5 112.5t24.5 108.5v13q0 10 7.5 17t18.5 7h216q9 0 15.5 -7.5t6.5 -18.5v-6q0 -83 -65.5 -202.5t-120.5 -163.5h136v132q0 12 11 24t25 12h168q13 0 24.5 -11t11.5 -25v-132h39q9 0 22.5 -11t13.5 -25v-106q0 -12 -11 -24t-25 -12
h-39v-88q0 -12 -11 -24t-25 -12h-168q-13 0 -24.5 11t-11.5 25v88h-413q-14 0 -25 10.5t-11 25.5z" />
    <glyph glyph-name="five" unicode="5" horiz-adv-x="723" 
d="M14 105v107q0 12 6.5 18t20.5 0q35 -19 111 -38t148 -19q56 0 91 20.5t35 53t-40.5 53.5t-106.5 21q-69 0 -137 -10.5t-95 -20.5q-12 -4 -22.5 3.5t-10.5 20.5v350q0 14 10.5 25t25.5 11h576q14 0 25 -10.5t11 -25.5v-106q0 -12 -11 -23.5t-25 -11.5l-164 5h-234v-52
q68 5 103 5q169 0 276.5 -62.5t107.5 -183.5q0 -106 -113.5 -175.5t-288.5 -69.5q-63 0 -145.5 21t-122.5 43q-31 17 -31 51z" />
    <glyph glyph-name="six" unicode="6" horiz-adv-x="818" 
d="M12 350q0 161 113 260.5t297 99.5q86 0 165.5 -18t134.5 -49q30 -18 30 -53v-112q0 -12 -5.5 -16.5t-18.5 3.5q-102 70 -247 69q-157 0 -223 -80q77 29 175 29q164 0 270.5 -65.5t106.5 -187.5q0 -64 -52 -119.5t-141.5 -88t-194.5 -32.5q-113 0 -207.5 49t-148.5 131.5
t-54 179.5zM272 261q70 -85 165 -85q41 0 71 19t30 40q0 37 -31.5 57t-80.5 20q-72 0 -154 -51z" />
    <glyph glyph-name="seven" unicode="7" horiz-adv-x="672" 
d="M10 522v142q0 13 11 24.5t25 11.5h584q14 0 25 -10.5t11 -25.5v-88q0 -36 -20 -66q-64 -94 -114.5 -206t-71 -180t-20.5 -88q0 -9 -11.5 -22.5t-24.5 -13.5h-245q-13 0 -24 10.5t-11 25.5q0 54 75 187.5t176 262.5h-329q-14 0 -25 10.5t-11 25.5z" />
    <glyph glyph-name="eight" unicode="8" horiz-adv-x="850" 
d="M12 200q0 69 43 121.5t112 68.5q-47 16 -75 56t-28 90q0 77 99.5 125.5t261.5 48.5q163 0 262 -48.5t99 -125.5q0 -50 -28 -89.5t-75 -56.5q69 -16 112 -68.5t43 -121.5q0 -95 -113 -152.5t-300 -57.5q-186 0 -299.5 57.5t-113.5 152.5zM292 224q0 -31 36.5 -50t96.5 -19
t96.5 19t36.5 50q0 33 -38.5 54.5t-94.5 21.5t-94.5 -21.5t-38.5 -54.5zM348 516q0 -25 22.5 -42.5t54.5 -17.5t54.5 17.5t22.5 42.5q0 19 -22.5 32t-54.5 13t-54.5 -13t-22.5 -32z" />
    <glyph glyph-name="nine" unicode="9" horiz-adv-x="826" 
d="M16 0zM814 350q0 -161 -113 -260.5t-297 -99.5q-86 0 -165.5 18t-134.5 49q-30 18 -30 53v112q0 12 5.5 16.5t18.5 -3.5q102 -70 247 -69q157 0 223 80q-77 -29 -175 -29q-164 0 -270.5 65.5t-106.5 187.5q0 64 52 119.5t141.5 88t194.5 32.5q113 0 207.5 -49
t148.5 -131.5t54 -179.5zM554 439q-70 85 -165 85q-41 0 -71 -19t-30 -40q0 -37 31.5 -57t80.5 -20q72 0 154 51z" />
    <glyph glyph-name="colon" unicode=":" horiz-adv-x="244" 
d="M12 0zM12 36v148q0 13 11 24.5t25 11.5h148q13 0 24.5 -11t11.5 -25v-148q0 -13 -11 -24.5t-25 -11.5h-148q-13 0 -24.5 11t-11.5 25zM12 356v148q0 13 11 24.5t25 11.5h148q13 0 24.5 -11t11.5 -25v-148q0 -13 -11 -24.5t-25 -11.5h-148q-13 0 -24.5 11t-11.5 25z" />
    <glyph glyph-name="semicolon" unicode=";" horiz-adv-x="260" 
d="M12 0zM20 356v148q0 13 11 24.5t25 11.5h148q13 0 24.5 -11t11.5 -25v-148q0 -13 -11 -24.5t-25 -11.5h-148q-13 0 -24.5 11t-11.5 25zM12 59v125q0 15 10.5 25.5t25.5 10.5h164q13 0 24.5 -11t11.5 -25v-128q0 -36 -15 -69l-39 -89q-15 -33 -51 -33h-75
q-13 0 -18.5 10.5t-1.5 24.5l30 123h-30q-15 0 -25.5 10.5t-10.5 25.5z" />
    <glyph glyph-name="less" unicode="&#x3c;" horiz-adv-x="422" 
d="M31 327q-11 8 -11 22t11 22l344 258q8 6 18.5 1t10.5 -15v-184l-122 -82l122 -82v-184q0 -10 -10 -15.5t-19 1.5z" />
    <glyph glyph-name="equal" unicode="=" horiz-adv-x="500" 
d="M46 141q-15 0 -25.5 10.5t-10.5 25.5v102q0 15 10.5 25.5t25.5 10.5h408q15 0 25.5 -10.5t10.5 -25.5v-102q0 -15 -10.5 -25.5t-25.5 -10.5h-408zM46 385q-15 0 -25.5 10.5t-10.5 25.5v102q0 15 10.5 25.5t25.5 10.5h408q15 0 25.5 -10.5t10.5 -25.5v-102
q0 -15 -10.5 -25.5t-25.5 -10.5h-408z" />
    <glyph glyph-name="greater" unicode="&#x3e;" horiz-adv-x="422" 
d="M18 68zM391 371q11 -8 11 -22t-11 -22l-344 -258q-8 -6 -18.5 -1t-10.5 15v184l122 82l-122 82v184q0 10 10 15.5t19 -1.5z" />
    <glyph glyph-name="question" unicode="?" horiz-adv-x="595" 
d="M10 494v131q0 34 29 54q32 22 97 37t129 15q146 1 232 -51t86 -165q0 -43 -21 -79q-20 -36 -50 -56t-60 -37q-30 -16 -50 -29q-21 -13 -21 -25q1 -10 -11 -23t-26 -13h-169q-13 0 -25 11t-11 25q0 38 19 68t46 49t54 35q27 17 46 33t19 34q0 33 -69 33q-117 0 -214 -65
q-8 -6 -19 -1t-11 19zM147 36v148q0 13 11 24.5t25 11.5h148q13 0 24.5 -11t11.5 -25v-148q0 -13 -11 -24.5t-25 -11.5h-148q-13 0 -24.5 11t-11.5 25z" />
    <glyph glyph-name="at" unicode="@" horiz-adv-x="846" 
d="M12 350q0 160 123.5 273t297.5 113q181 0 291 -96.5t110 -258.5q0 -95 -53 -160.5t-142 -65.5q-46 0 -89 25q-50 -35 -110 -35q-82 0 -141 38.5t-59 91.5q0 49 47 87.5t124 38.5q37 0 70 -8v7q0 43 -67 43q-57 0 -112 -27q-9 -4 -16 -0.5t-7 8.5v66q0 19 18 28
q66 32 141 32q82 0 132.5 -41.5t50.5 -96.5v-111q0 -17 8.5 -28t21.5 -11q21 0 31.5 27t10.5 62q0 112 -69 175.5t-186 63.5q-121 0 -194 -65.5t-73 -174.5q0 -104 76.5 -176t187.5 -72q110 0 202 12q14 2 25.5 -7t12.5 -23l5 -64q1 -16 -9 -27.5t-25 -13.5
q-95 -11 -216 -11q-174 0 -296 112t-122 270zM398 277q0 -29 50 -29q22 0 39 3q-6 16 -6 32v21q-15 2 -34 2q-49 0 -49 -29z" />
    <glyph glyph-name="A" unicode="A" horiz-adv-x="888" 
d="M16 34l262 633q5 12 20 23q15 10 30 10h240q13 0 28 -10q16 -10 21 -23l256 -634q2 -5 2 -11q0 -10 -7 -16t-18 -6h-207q-13 0 -28 10t-20 24l-31 90h-245l-32 -90q-4 -11 -19 -22.5t-29 -11.5h-201q-12 0 -18 6q-7 8 -7 16q0 5 3 12zM378 290h130l-64 186z" />
    <glyph glyph-name="B" unicode="B" horiz-adv-x="839" 
d="M24 36v628q0 14 10.5 25t25.5 11q56 0 212.5 3t237.5 3q134 0 216 -51t82 -135q0 -46 -22 -85t-60 -67q46 -30 72 -74.5t26 -97.5q0 -91 -86.5 -146.5t-227.5 -55.5q-95 0 -243.5 3t-206.5 3q-12 0 -24 11t-12 25zM298 448h201q17 0 29.5 10t12.5 24q0 16 -13.5 28
t-31.5 12q-40 0 -116 -2.5t-82 -2.5v-69zM298 198q5 0 82.5 -2.5t120.5 -2.5q18 0 30.5 11.5t12.5 27.5q0 15 -12 26t-28 11h-206v-71z" />
    <glyph glyph-name="C" unicode="C" horiz-adv-x="766" 
d="M12 350q0 163 124 261.5t331 98.5q73 0 145.5 -15.5t105.5 -37.5q30 -20 30 -53v-156q0 -13 -7.5 -18t-19.5 3q-39 28 -102 46t-135 18q-82 0 -135 -37.5t-53 -109.5t52.5 -109.5t135.5 -37.5q72 0 136 18t101 47q7 7 17 2.5t10 -18.5v-156q0 -36 -30 -54
q-35 -21 -104 -36.5t-142 -15.5q-209 0 -334.5 98.5t-125.5 261.5z" />
    <glyph glyph-name="D" unicode="D" horiz-adv-x="854" 
d="M304 214h86q74 0 119 39t45 97t-45 97t-119 39h-86v-272zM24 36v628q0 14 10.5 25t25.5 11q39 0 150 3t184 3q191 0 319.5 -104.5t128.5 -251.5t-128.5 -251.5t-319.5 -104.5q-73 0 -184.5 3t-149.5 3q-12 0 -24 11t-12 25z" />
    <glyph glyph-name="E" unicode="E" horiz-adv-x="729" 
d="M24 36v628q0 14 10.5 25t25.5 11h618q14 0 25 -10.5t11 -25.5v-137q0 -13 -11 -24.5t-25 -11.5h-370v-58h310q14 0 25 -10.5t11 -25.5v-94q0 -12 -11 -24t-25 -12h-310v-58h370q14 0 25 -10.5t11 -25.5v-137q0 -13 -11 -24.5t-25 -11.5h-618q-14 0 -25 10.5t-11 25.5z
" />
    <glyph glyph-name="F" unicode="F" horiz-adv-x="681" 
d="M24 36v628q0 14 10.5 25t25.5 11h575q14 0 25 -10.5t11 -25.5v-140q0 -13 -11 -24.5t-25 -11.5h-327v-62h287q14 0 25 -10.5t11 -25.5v-140q0 -13 -11 -24.5t-25 -11.5h-287v-178q0 -13 -11 -24.5t-25 -11.5h-212q-13 0 -24.5 11t-11.5 25z" />
    <glyph glyph-name="G" unicode="G" horiz-adv-x="836" 
d="M12 350q0 163 115 261.5t319 98.5q72 0 146.5 -8t113 -15.5t50.5 -11.5q15 -5 24.5 -17.5t9.5 -28.5v-141q0 -13 -10.5 -21.5t-23.5 -4.5q-31 10 -103 23t-145 13q-212 0 -212 -148q0 -66 43.5 -106t124.5 -40q72 0 138 9v44h-102q-12 0 -24 11t-12 25v89q0 12 11 24
t25 12h286q14 0 25 -10.5t11 -25.5v-246q0 -37 -30 -56q-80 -49 -149.5 -69.5t-178.5 -20.5q-206 0 -329 99.5t-123 260.5z" />
    <glyph glyph-name="H" unicode="H" horiz-adv-x="838" 
d="M24 36v628q0 14 10.5 25t25.5 11h212q13 0 24.5 -11t11.5 -25v-206h222v206q0 13 11 24.5t25 11.5h212q13 0 24.5 -11t11.5 -25v-628q0 -14 -10.5 -25t-25.5 -11h-212q-13 0 -24.5 11t-11.5 25v208h-222v-208q0 -13 -11 -24.5t-25 -11.5h-212q-13 0 -24.5 10.5
t-11.5 25.5z" />
    <glyph glyph-name="I" unicode="I" horiz-adv-x="332" 
d="M24 36v628q0 14 10.5 25t25.5 11h212q13 0 24.5 -11t11.5 -25v-628q0 -14 -10.5 -25t-25.5 -11h-212q-13 0 -24.5 10.5t-11.5 25.5z" />
    <glyph glyph-name="J" unicode="J" horiz-adv-x="673" 
d="M18 104v154q0 13 9 19t22 -1q114 -64 224 -64q44 0 72 21.5t28 50.5v204h-315q-14 0 -25 10.5t-11 25.5v140q0 13 11 24.5t25 11.5h563q14 0 25 -10.5t11 -25.5v-424q0 -97 -109 -173.5t-258 -76.5q-62 0 -126 17t-115 44q-31 17 -31 53z" />
    <glyph glyph-name="K" unicode="K" horiz-adv-x="826" 
d="M24 36v628q0 14 10.5 25t25.5 11h212q13 0 24.5 -11t11.5 -25v-206h41l113 210q17 32 53 32h263q14 0 18 -8q5 -9 -4 -20l-242 -313l252 -330q6 -8 6 -15q0 -14 -20 -14h-279q-35 0 -53 32l-116 212h-32v-208q0 -13 -11 -24.5t-25 -11.5h-212q-13 0 -24.5 10.5
t-11.5 25.5z" />
    <glyph glyph-name="L" unicode="L" horiz-adv-x="638" 
d="M24 36v628q0 14 10.5 25t25.5 11h212q13 0 24.5 -11t11.5 -25v-450h122l164 5q13 0 24.5 -10.5t11.5 -24.5v-148q0 -13 -11 -24.5t-25 -11.5h-534q-14 0 -25 10.5t-11 25.5z" />
    <glyph glyph-name="M" unicode="M" horiz-adv-x="976" 
d="M24 36v628q0 14 10.5 25t25.5 11h260q14 0 29.5 -10t21.5 -23l117 -264l116 264q5 13 20 23t30 10h262q14 0 25 -10.5t11 -25.5v-628q0 -14 -10.5 -25t-25.5 -11h-178q-13 0 -24.5 11t-11.5 25v352l-151 -338q-6 -13 -21 -23t-30 -10h-32q-11 0 -28 10t-22 23l-144 338
v-352q0 -14 -10.5 -25t-25.5 -11h-178q-13 0 -24.5 11t-11.5 25z" />
    <glyph glyph-name="N" unicode="N" horiz-adv-x="848" 
d="M24 36v628q0 14 10.5 25t25.5 11h314q14 0 29 -10t21 -23l164 -405v402q0 14 10.5 25t25.5 11h164q13 0 24.5 -11t11.5 -25v-628q0 -14 -10.5 -25t-25.5 -11h-310q-14 0 -29 10t-21 23l-168 401v-398q0 -14 -10.5 -25t-25.5 -11h-164q-13 0 -24.5 11t-11.5 25z" />
    <glyph glyph-name="O" unicode="O" 
d="M12 350q0 161 118.5 260.5t311.5 99.5t311.5 -99.5t118.5 -260.5t-118.5 -260.5t-311.5 -99.5t-311.5 99.5t-118.5 260.5zM309 350q0 -66 36.5 -106t96.5 -40t96.5 40t36.5 106t-36.5 106t-96.5 40t-96.5 -40t-36.5 -106z" />
    <glyph glyph-name="P" unicode="P" horiz-adv-x="834" 
d="M306 414q5 0 73.5 -2.5t102.5 -2.5q25 0 42.5 11.5t17.5 28.5q0 16 -17.5 27.5t-42.5 11.5q-41 0 -106 -2.5t-70 -2.5v-69zM24 36v628q0 14 10.5 25t25.5 11q59 0 195.5 3t220.5 3q150 0 249 -75t99 -181q0 -105 -99 -178.5t-249 -73.5q-103 0 -168 7v-169
q0 -13 -11 -24.5t-25 -11.5h-212q-13 0 -24.5 11t-11.5 25z" />
    <glyph glyph-name="Q" unicode="Q" horiz-adv-x="960" 
d="M12 350q0 160 128.5 258t339.5 98t339.5 -98t128.5 -258q0 -92 -44.5 -165.5t-127.5 -120.5l106 -99q7 -6 3 -15.5t-13 -9.5h-200q-36 0 -63 24l-40 35q-43 -5 -89 -5q-211 0 -339.5 98t-128.5 258zM296 350q0 -62 48 -101t128 -41v107q0 12 7.5 15.5t18.5 -6.5l96 -90
q70 39 70 116q0 64 -50.5 103t-133.5 39t-133.5 -39t-50.5 -103z" />
    <glyph glyph-name="R" unicode="R" horiz-adv-x="846" 
d="M24 36v628q0 14 10.5 25t25.5 11q57 0 192 3t232 3q148 0 248 -68t100 -168q0 -74 -58 -133t-150 -83l185 -226q9 -10 5.5 -19t-18.5 -9h-298q-14 0 -29.5 9.5t-21.5 23.5l-94 207h-49v-204q0 -13 -11 -24.5t-25 -11.5h-208q-13 0 -24.5 11t-11.5 25zM304 429
q1 0 81.5 -2.5t119.5 -2.5q15 0 25.5 10t10.5 24t-11.5 24.5t-28.5 10.5q-38 0 -116 -2.5t-81 -2.5v-59z" />
    <glyph glyph-name="S" unicode="S" horiz-adv-x="839" 
d="M14 134v175q0 13 7 17.5t18 -5.5q71 -66 164 -96.5t188 -30.5q150 0 150 36q0 18 -14.5 23.5t-47.5 5.5q-10 0 -38.5 -0.5t-46.5 -0.5q-166 4 -267 71t-101 166q0 77 54 126.5t140 69.5t204 20q92 0 181 -16t131 -40q31 -18 31 -50v-123q0 -12 -9.5 -19.5t-22.5 -1.5
q-59 30 -144.5 48t-174.5 18q-97 0 -97 -35q0 -30 87 -30q48 0 99.5 -5.5t111.5 -21t106 -39.5t77 -65.5t31 -94.5q0 -108 -129 -177t-314 -69q-173 0 -342 93q-32 17 -32 51z" />
    <glyph glyph-name="T" unicode="T" horiz-adv-x="740" 
d="M10 531v133q0 13 11 24.5t25 11.5h648q14 0 25 -10.5t11 -25.5v-133q0 -13 -11 -24.5t-25 -11.5h-176v-459q0 -14 -10.5 -25t-25.5 -11h-224q-13 0 -24.5 10.5t-11.5 25.5v459h-176q-13 0 -24.5 11t-11.5 25z" />
    <glyph glyph-name="U" unicode="U" horiz-adv-x="780" 
d="M16 306v358q0 14 10.5 25t25.5 11h216q13 0 24.5 -11t11.5 -25v-359q0 -45 22.5 -71t63.5 -26t63.5 26t22.5 71v359q0 14 10.5 25t25.5 11h216q13 0 24.5 -11t11.5 -25v-358q0 -141 -103 -228.5t-271 -87.5t-271 87.5t-103 228.5z" />
    <glyph glyph-name="V" unicode="V" horiz-adv-x="838" 
d="M15 666q-2 5 -2 11q0 10 6.5 16.5t18.5 6.5h225q13 0 27.5 -10.5t18.5 -24.5l111 -383l115 384q4 13 17.5 23.5t28.5 10.5h219q11 0 18 -6.5t7 -16.5q0 -5 -2 -11l-244 -632q-5 -13 -19.5 -23.5t-29.5 -10.5h-230q-13 0 -28.5 10t-20.5 24z" />
    <glyph glyph-name="W" unicode="W" horiz-adv-x="1152" 
d="M14 666q-2 5 -2 10q0 10 7 17t19 7h225q13 0 27 -10.5t18 -24.5l76 -310l64 310q3 13 15.5 24t27.5 11h170q13 0 26.5 -10.5t16.5 -24.5l64 -310l76 310q3 13 16.5 24t28.5 11h225q11 0 18.5 -7t7.5 -17q0 -5 -2 -10l-223 -632q-5 -14 -19 -24t-29 -10h-174
q-13 0 -27 10.5t-17 24.5l-73 302l-73 -302q-3 -13 -16 -24t-28 -11h-174q-13 0 -28 10t-20 24z" />
    <glyph glyph-name="X" unicode="X" horiz-adv-x="836" 
d="M26 30l226 346l-215 295q-8 11 -4 20t19 9h236q13 0 29.5 -9.5t23.5 -22.5l77 -145l77 145q6 11 23 22q16 10 30 10h236q13 0 18 -8q5 -10 -3 -21l-215 -295l226 -346q5 -8 5 -14q0 -16 -21 -16h-235q-13 0 -29 10q-17 10 -23 22l-89 187l-89 -187q-6 -12 -22 -22
t-30 -10h-235q-9 0 -15 4.5t-6 12.5q0 5 5 13z" />
    <glyph glyph-name="Y" unicode="Y" horiz-adv-x="864" 
d="M23 671q-5 7 -5 14q0 15 20 15h267q37 0 50 -33l89 -220l93 220q14 33 50 33h239q20 0 20 -17q0 -5 -5 -12l-267 -380v-255q0 -14 -10.5 -25t-25.5 -11h-212q-13 0 -24.5 11t-11.5 25v261z" />
    <glyph glyph-name="Z" unicode="Z" horiz-adv-x="728" 
d="M14 36v106q0 36 26 61l300 283h-283q-14 0 -25 10.5t-11 25.5v142q0 13 11 24.5t25 11.5h616q14 0 25 -10.5t11 -25.5v-106q0 -36 -26 -61l-300 -283h295q14 0 25 -10.5t11 -25.5v-142q0 -13 -11 -24.5t-25 -11.5h-628q-14 0 -25 10.5t-11 25.5z" />
    <glyph glyph-name="bracketleft" unicode="[" horiz-adv-x="414" 
d="M26 -14v728q0 14 10.5 25t25.5 11h306q14 0 25 -10.5t11 -25.5v-103q0 -12 -11 -24t-25 -12h-96v-450h96q12 0 24 -11t12 -25v-103q0 -12 -11 -24t-25 -12h-306q-14 0 -25 10.5t-11 25.5z" />
    <glyph glyph-name="backslash" unicode="\" horiz-adv-x="700" 
d="M17 669q-7 12 -2 21.5t20 9.5h230q13 0 30 -9.5t24 -21.5l364 -638q7 -12 2 -21.5t-20 -9.5h-230q-14 0 -30.5 9.5t-23.5 21.5z" />
    <glyph glyph-name="bracketright" unicode="]" horiz-adv-x="414" 
d="M10 0zM388 714v-728q0 -14 -10.5 -25t-25.5 -11h-306q-14 0 -25 10.5t-11 25.5v103q0 12 11 24t25 12h96v450h-96q-12 0 -24 11t-12 25v103q0 12 11 24t25 12h306q14 0 25 -10.5t11 -25.5z" />
    <glyph glyph-name="asciicircum" unicode="^" horiz-adv-x="606" 
d="M23 417l191 254q22 29 53 29h72q32 0 53 -29l191 -254q6 -8 1 -18.5t-15 -10.5h-184l-82 122l-82 -122h-184q-10 0 -15 10.5t1 18.5z" />
    <glyph glyph-name="underscore" unicode="_" horiz-adv-x="490" 
d="M10 31q0 13 11 24.5t25 11.5h398q14 0 25 -10.5t11 -25.5v-142q0 -13 -11 -24.5t-25 -11.5h-398q-14 0 -25 10.5t-11 25.5v142z" />
    <glyph glyph-name="grave" unicode="`" horiz-adv-x="295" 
d="M2 700h183q36 0 50 -33l38 -96q5 -11 -1.5 -22t-20.5 -11h-83q-36 0 -59 28z" />
    <glyph glyph-name="a" unicode="a" horiz-adv-x="760" 
d="M8 213q0 90 85.5 158t196.5 68q57 0 97 -9t83 -38v40q0 34 -41 56t-106 22q-113 0 -214 -53q-8 -5 -19 0t-11 19v124q0 37 31 52q125 58 257 58q152 0 264.5 -76.5t112.5 -173.5v-424q0 -14 -10.5 -25t-25.5 -11h-194q-14 0 -25 9.5t-13 24.5v9q-100 -49 -202 -49
q-113 0 -189.5 55.5t-76.5 163.5zM291 213q0 -28 26 -43t66 -15q46 0 87 16v81q-43 21 -87 21q-39 0 -65.5 -16t-26.5 -44z" />
    <glyph glyph-name="b" unicode="b" horiz-adv-x="839" 
d="M24 0zM24 36v628q0 14 10.5 25t25.5 11q56 0 212.5 3t237.5 3q134 0 216 -51t82 -135q0 -46 -22 -85t-60 -67q46 -30 72 -74.5t26 -97.5q0 -91 -86.5 -146.5t-227.5 -55.5q-95 0 -243.5 3t-206.5 3q-12 0 -24 11t-12 25zM298 448h201q17 0 29.5 10t12.5 24q0 16 -13.5 28
t-31.5 12q-40 0 -116 -2.5t-82 -2.5v-69zM298 198q5 0 82.5 -2.5t120.5 -2.5q18 0 30.5 11.5t12.5 27.5q0 15 -12 26t-28 11h-206v-71z" />
    <glyph glyph-name="c" unicode="c" horiz-adv-x="766" 
d="M12 0zM12 350q0 163 124 261.5t331 98.5q73 0 145.5 -15.5t105.5 -37.5q30 -20 30 -53v-156q0 -13 -7.5 -18t-19.5 3q-39 28 -102 46t-135 18q-82 0 -135 -37.5t-53 -109.5t52.5 -109.5t135.5 -37.5q72 0 136 18t101 47q7 7 17 2.5t10 -18.5v-156q0 -36 -30 -54
q-35 -21 -104 -36.5t-142 -15.5q-209 0 -334.5 98.5t-125.5 261.5z" />
    <glyph glyph-name="d" unicode="d" horiz-adv-x="854" 
d="M24 0zM304 214h86q74 0 119 39t45 97t-45 97t-119 39h-86v-272zM24 36v628q0 14 10.5 25t25.5 11q39 0 150 3t184 3q191 0 319.5 -104.5t128.5 -251.5t-128.5 -251.5t-319.5 -104.5q-73 0 -184.5 3t-149.5 3q-12 0 -24 11t-12 25z" />
    <glyph glyph-name="e" unicode="e" horiz-adv-x="854" 
d="M12 350q0 162 119 261t313 99t296 -88.5t102 -257.5v-42q0 -13 -11.5 -24.5t-24.5 -11.5h-496q40 -80 198 -80q51 0 108.5 7.5t88 14.5t51.5 14q12 4 23 -4.5t11 -21.5v-145q0 -16 -9.5 -28.5t-24.5 -17.5q-12 -4 -50.5 -11.5t-113 -15.5t-146.5 -8q-204 0 -319 98.5
t-115 261.5zM306 422h266v17q0 25 -36.5 45t-91.5 20q-109 0 -138 -82z" />
    <glyph glyph-name="f" unicode="f" horiz-adv-x="681" 
d="M24 0zM24 36v628q0 14 10.5 25t25.5 11h575q14 0 25 -10.5t11 -25.5v-140q0 -13 -11 -24.5t-25 -11.5h-327v-62h287q14 0 25 -10.5t11 -25.5v-140q0 -13 -11 -24.5t-25 -11.5h-287v-178q0 -13 -11 -24.5t-25 -11.5h-212q-13 0 -24.5 11t-11.5 25z" />
    <glyph glyph-name="g" unicode="g" horiz-adv-x="836" 
d="M12 0zM12 350q0 163 115 261.5t319 98.5q72 0 146.5 -8t113 -15.5t50.5 -11.5q15 -5 24.5 -17.5t9.5 -28.5v-141q0 -13 -10.5 -21.5t-23.5 -4.5q-31 10 -103 23t-145 13q-212 0 -212 -148q0 -66 43.5 -106t124.5 -40q72 0 138 9v44h-102q-12 0 -24 11t-12 25v89
q0 12 11 24t25 12h286q14 0 25 -10.5t11 -25.5v-246q0 -37 -30 -56q-80 -49 -149.5 -69.5t-178.5 -20.5q-206 0 -329 99.5t-123 260.5z" />
    <glyph glyph-name="h" unicode="h" horiz-adv-x="838" 
d="M24 0zM24 36v628q0 14 10.5 25t25.5 11h212q13 0 24.5 -11t11.5 -25v-206h222v206q0 13 11 24.5t25 11.5h212q13 0 24.5 -11t11.5 -25v-628q0 -14 -10.5 -25t-25.5 -11h-212q-13 0 -24.5 11t-11.5 25v208h-222v-208q0 -13 -11 -24.5t-25 -11.5h-212q-13 0 -24.5 10.5
t-11.5 25.5z" />
    <glyph glyph-name="i" unicode="i" horiz-adv-x="328" 
d="M22 576v88q0 12 11 24t25 12h212q13 0 24.5 -11t11.5 -25v-88q0 -12 -11 -24t-25 -12h-212q-13 0 -24.5 10.5t-11.5 25.5zM22 36v418q0 14 10.5 25t25.5 11h212q13 0 24.5 -11t11.5 -25v-418q0 -14 -10.5 -25t-25.5 -11h-212q-13 0 -24.5 10.5t-11.5 25.5z" />
    <glyph glyph-name="j" unicode="j" horiz-adv-x="673" 
d="M18 0zM18 104v154q0 13 9 19t22 -1q114 -64 224 -64q44 0 72 21.5t28 50.5v204h-315q-14 0 -25 10.5t-11 25.5v140q0 13 11 24.5t25 11.5h563q14 0 25 -10.5t11 -25.5v-424q0 -97 -109 -173.5t-258 -76.5q-62 0 -126 17t-115 44q-31 17 -31 53z" />
    <glyph glyph-name="k" unicode="k" horiz-adv-x="826" 
d="M24 0zM24 36v628q0 14 10.5 25t25.5 11h212q13 0 24.5 -11t11.5 -25v-206h41l113 210q17 32 53 32h263q14 0 18 -8q5 -9 -4 -20l-242 -313l252 -330q6 -8 6 -15q0 -14 -20 -14h-279q-35 0 -53 32l-116 212h-32v-208q0 -13 -11 -24.5t-25 -11.5h-212q-13 0 -24.5 10.5
t-11.5 25.5z" />
    <glyph glyph-name="l" unicode="l" horiz-adv-x="638" 
d="M24 0zM24 36v628q0 14 10.5 25t25.5 11h212q13 0 24.5 -11t11.5 -25v-450h122l164 5q13 0 24.5 -10.5t11.5 -24.5v-148q0 -13 -11 -24.5t-25 -11.5h-534q-14 0 -25 10.5t-11 25.5z" />
    <glyph glyph-name="m" unicode="m" horiz-adv-x="1118" 
d="M24 36v628q0 14 10.5 25t25.5 11h148q34 0 48 -31l6 -11q96 48 195 48q98 0 170 -64q113 64 225 64q71 0 121.5 -20t77.5 -55.5t39 -77t12 -92.5v-425q0 -14 -10.5 -25t-25.5 -11h-214q-13 0 -24.5 11t-11.5 25v411q0 14 -10 24.5t-24 10.5q-27 0 -75 -22v-424
q0 -14 -10.5 -25t-25.5 -11h-214q-13 0 -24.5 11t-11.5 25v411q0 14 -10 24.5t-24 10.5q-27 0 -75 -22v-424q0 -14 -10.5 -25t-25.5 -11h-216q-14 0 -25 10.5t-11 25.5z" />
    <glyph glyph-name="n" unicode="n" horiz-adv-x="826" 
d="M24 36v628q0 14 10.5 25t25.5 11h206q13 0 25 -10.5t13 -25.5v-9q99 51 201 51q145 0 225 -71.5t80 -173.5v-425q0 -14 -10.5 -25t-25.5 -11h-214q-13 0 -24.5 11t-11.5 25v381q0 31 -19 51.5t-61 20.5q-67 0 -134 -31v-422q0 -14 -10.5 -25t-25.5 -11h-214
q-14 0 -25 10.5t-11 25.5z" />
    <glyph glyph-name="o" unicode="o" 
d="M12 0zM12 350q0 161 118.5 260.5t311.5 99.5t311.5 -99.5t118.5 -260.5t-118.5 -260.5t-311.5 -99.5t-311.5 99.5t-118.5 260.5zM309 350q0 -66 36.5 -106t96.5 -40t96.5 40t36.5 106t-36.5 106t-96.5 40t-96.5 -40t-36.5 -106z" />
    <glyph glyph-name="p" unicode="p" horiz-adv-x="834" 
d="M24 0zM306 414q5 0 73.5 -2.5t102.5 -2.5q25 0 42.5 11.5t17.5 28.5q0 16 -17.5 27.5t-42.5 11.5q-41 0 -106 -2.5t-70 -2.5v-69zM24 36v628q0 14 10.5 25t25.5 11q59 0 195.5 3t220.5 3q150 0 249 -75t99 -181q0 -105 -99 -178.5t-249 -73.5q-103 0 -168 7v-169
q0 -13 -11 -24.5t-25 -11.5h-212q-13 0 -24.5 11t-11.5 25z" />
    <glyph glyph-name="q" unicode="q" horiz-adv-x="960" 
d="M12 0zM12 350q0 160 128.5 258t339.5 98t339.5 -98t128.5 -258q0 -92 -44.5 -165.5t-127.5 -120.5l106 -99q7 -6 3 -15.5t-13 -9.5h-200q-36 0 -63 24l-40 35q-43 -5 -89 -5q-211 0 -339.5 98t-128.5 258zM296 350q0 -62 48 -101t128 -41v107q0 12 7.5 15.5t18.5 -6.5
l96 -90q70 39 70 116q0 64 -50.5 103t-133.5 39t-133.5 -39t-50.5 -103z" />
    <glyph glyph-name="r" unicode="r" horiz-adv-x="846" 
d="M24 0zM24 36v628q0 14 10.5 25t25.5 11q57 0 192 3t232 3q148 0 248 -68t100 -168q0 -74 -58 -133t-150 -83l185 -226q9 -10 5.5 -19t-18.5 -9h-298q-14 0 -29.5 9.5t-21.5 23.5l-94 207h-49v-204q0 -13 -11 -24.5t-25 -11.5h-208q-13 0 -24.5 11t-11.5 25zM304 429
q1 0 81.5 -2.5t119.5 -2.5q15 0 25.5 10t10.5 24t-11.5 24.5t-28.5 10.5q-38 0 -116 -2.5t-81 -2.5v-59z" />
    <glyph glyph-name="s" unicode="s" horiz-adv-x="839" 
d="M14 0zM14 134v175q0 13 7 17.5t18 -5.5q71 -66 164 -96.5t188 -30.5q150 0 150 36q0 18 -14.5 23.5t-47.5 5.5q-10 0 -38.5 -0.5t-46.5 -0.5q-166 4 -267 71t-101 166q0 77 54 126.5t140 69.5t204 20q92 0 181 -16t131 -40q31 -18 31 -50v-123q0 -12 -9.5 -19.5
t-22.5 -1.5q-59 30 -144.5 48t-174.5 18q-97 0 -97 -35q0 -30 87 -30q48 0 99.5 -5.5t111.5 -21t106 -39.5t77 -65.5t31 -94.5q0 -108 -129 -177t-314 -69q-173 0 -342 93q-32 17 -32 51z" />
    <glyph glyph-name="t" unicode="t" horiz-adv-x="669" 
d="M16 240v422q0 14 10.5 26t25.5 14l212 22q13 1 24.5 -8.5t11.5 -23.5v-92h315q14 0 25 -10.5t11 -25.5v-140q0 -13 -11 -24.5t-25 -11.5h-315v-104q0 -29 28 -50.5t72 -21.5q102 0 224 64q8 6 19.5 1t11.5 -19v-154q0 -34 -31 -52q-48 -27 -113 -44.5t-128 -17.5
q-149 0 -258 76.5t-109 173.5z" />
    <glyph glyph-name="u" unicode="u" horiz-adv-x="780" 
d="M16 0zM16 306v358q0 14 10.5 25t25.5 11h216q13 0 24.5 -11t11.5 -25v-359q0 -45 22.5 -71t63.5 -26t63.5 26t22.5 71v359q0 14 10.5 25t25.5 11h216q13 0 24.5 -11t11.5 -25v-358q0 -141 -103 -228.5t-271 -87.5t-271 87.5t-103 228.5z" />
    <glyph glyph-name="v" unicode="v" horiz-adv-x="838" 
d="M13 0zM15 666q-2 5 -2 11q0 10 6.5 16.5t18.5 6.5h225q13 0 27.5 -10.5t18.5 -24.5l111 -383l115 384q4 13 17.5 23.5t28.5 10.5h219q11 0 18 -6.5t7 -16.5q0 -5 -2 -11l-244 -632q-5 -13 -19.5 -23.5t-29.5 -10.5h-230q-13 0 -28.5 10t-20.5 24z" />
    <glyph glyph-name="w" unicode="w" horiz-adv-x="1152" 
d="M12 0zM14 666q-2 5 -2 10q0 10 7 17t19 7h225q13 0 27 -10.5t18 -24.5l76 -310l64 310q3 13 15.5 24t27.5 11h170q13 0 26.5 -10.5t16.5 -24.5l64 -310l76 310q3 13 16.5 24t28.5 11h225q11 0 18.5 -7t7.5 -17q0 -5 -2 -10l-223 -632q-5 -14 -19 -24t-29 -10h-174
q-13 0 -27 10.5t-17 24.5l-73 302l-73 -302q-3 -13 -16 -24t-28 -11h-174q-13 0 -28 10t-20 24z" />
    <glyph glyph-name="x" unicode="x" horiz-adv-x="836" 
d="M21 0zM26 30l226 346l-215 295q-8 11 -4 20t19 9h236q13 0 29.5 -9.5t23.5 -22.5l77 -145l77 145q6 11 23 22q16 10 30 10h236q13 0 18 -8q5 -10 -3 -21l-215 -295l226 -346q5 -8 5 -14q0 -16 -21 -16h-235q-13 0 -29 10q-17 10 -23 22l-89 187l-89 -187q-6 -12 -22 -22
t-30 -10h-235q-9 0 -15 4.5t-6 12.5q0 5 5 13z" />
    <glyph glyph-name="y" unicode="y" horiz-adv-x="746" 
d="M31 106v134q0 13 9.5 19.5t21.5 -0.5q125 -67 244 -67q58 0 99 21t41 51v6q-55 -18 -122 -18q-146 0 -228.5 67t-82.5 166v179q0 13 11 24.5t25 11.5h211q13 0 24.5 -10.5t11.5 -25.5v-155q0 -32 22 -51.5t58 -19.5q37 0 70 8v218q0 14 10.5 25t25.5 11h212
q13 0 24.5 -11t11.5 -25v-424q0 -104 -119.5 -177t-287.5 -73q-63 0 -138.5 19t-123.5 45q-30 17 -30 52z" />
    <glyph glyph-name="z" unicode="z" horiz-adv-x="728" 
d="M14 0zM14 36v106q0 36 26 61l300 283h-283q-14 0 -25 10.5t-11 25.5v142q0 13 11 24.5t25 11.5h616q14 0 25 -10.5t11 -25.5v-106q0 -36 -26 -61l-300 -283h295q14 0 25 -10.5t11 -25.5v-142q0 -13 -11 -24.5t-25 -11.5h-628q-14 0 -25 10.5t-11 25.5z" />
    <glyph glyph-name="braceleft" unicode="{" horiz-adv-x="435" 
d="M10 306v88q0 16 10 27t24 11q23 0 37.5 9t22.5 28t11.5 38t5.5 48t11 55t30 52.5t53.5 45t86.5 30.5t123 12v-175q-24 0 -41.5 -7.5t-26.5 -17t-14.5 -27.5t-7 -30.5t-2.5 -34.5t-4 -37t-10 -30.5t-21.5 -23t-35.5 -7.5v-20q21 0 35.5 -7.5t21.5 -23t10 -30.5t4 -37
t2.5 -34.5t7 -30.5t14.5 -27.5t26.5 -17t41.5 -7.5v-175q-69 0 -123 12t-86.5 30.5t-53.5 45t-30 52t-11 55.5t-5.5 48.5t-11.5 37.5t-22.5 28t-37.5 9q-14 0 -24 11t-10 27z" />
    <glyph glyph-name="bar" unicode="|" horiz-adv-x="298" 
d="M26 -114v928q0 15 10.5 25.5t25.5 10.5h174q13 0 24.5 -11t11.5 -25v-928q0 -15 -10.5 -25.5t-25.5 -10.5h-174q-13 0 -24.5 11t-11.5 25z" />
    <glyph glyph-name="braceright" unicode="}" horiz-adv-x="424" 
d="M0 0zM414 394v-88q0 -16 -10 -27t-24 -11q-23 0 -37.5 -9t-22.5 -28t-11.5 -38t-5.5 -48t-11 -55t-30 -52.5t-53.5 -45t-86.5 -30.5t-123 -12v175q24 0 41.5 7.5t26.5 17t14.5 27.5t7 30.5t2.5 34.5t4 37t10 30.5t21.5 23t35.5 7.5v20q-21 0 -35.5 7.5t-21.5 23t-10 30.5
t-4 37t-2.5 34.5t-7 30.5t-14.5 27.5t-26.5 17t-41.5 7.5v175q69 0 123 -12t86.5 -30.5t53.5 -45t30 -52t11 -55.5t5.5 -48.5t11.5 -37.5t22.5 -28t37.5 -9q14 0 24 -11t10 -27z" />
    <glyph glyph-name="asciitilde" unicode="~" horiz-adv-x="500" 
d="M10 253v140q0 36 25 61q33 33 86 34q47 0 129 -31q73 -27 119 -27q52 0 93 31q8 7 18 3.5t10 -17.5v-140q0 -36 -25 -61q-33 -33 -86 -34q-47 0 -129 31q-73 27 -119 27q-52 0 -93 -31q-8 -7 -18 -3.5t-10 17.5z" />
    <glyph glyph-name="exclamdown" unicode="&#xa1;" horiz-adv-x="320" 
d="M18 0zM302 268v-262q0 -15 -11.5 -25.5t-24.5 -10.5h-212q-15 0 -25.5 11t-10.5 25v262q0 36 6 72l12 71q2 14 15.5 25t26.5 11h164q14 0 27 -12.5t15 -23.5l12 -71q6 -36 6 -72zM270 664v-148q0 -13 -11 -24.5t-25 -11.5h-148q-13 0 -24.5 11t-11.5 25v148q0 13 11 24.5
t25 11.5h148q13 0 24.5 -11t11.5 -25z" />
    <glyph glyph-name="cent" unicode="&#xa2;" horiz-adv-x="656" 
d="M12 350q0 103 59.5 178.5t166.5 108.5v77q0 11 11 23.5t25 12.5h174q13 0 24.5 -11t11.5 -25v-60q80 -10 125 -36q29 -18 29 -53v-126q0 -12 -7.5 -17t-19.5 2q-85 51 -198 51q-70 0 -114.5 -31.5t-44.5 -93.5q0 -61 44.5 -93t114.5 -32q60 0 114.5 15t83.5 37
q6 6 16.5 2t10.5 -18v-126q0 -12 -9 -28t-21 -24q-11 -7 -48 -19.5t-76 -17.5v-60q0 -11 -11 -23.5t-25 -12.5h-174q-13 0 -24.5 11t-11.5 25v78q-106 34 -166 109t-60 177z" />
    <glyph glyph-name="sterling" unicode="&#xa3;" horiz-adv-x="718" 
d="M6 26v124q16 13 25.5 22t23.5 26t21.5 38.5t9.5 47.5h-44q-15 0 -25.5 10.5t-10.5 25.5v70q0 15 10.5 25.5t25.5 10.5h32q-4 36 -4 48q0 93 100 164.5t245 71.5q53 0 107.5 -11.5t90.5 -28.5q33 -15 33 -49v-134q0 -12 -10.5 -18.5t-21.5 -1.5q-88 41 -176 41
q-44 0 -69.5 -20t-25.5 -48q0 -2 1 -14h140q15 0 25.5 -10.5t10.5 -25.5v-70q0 -15 -10.5 -25.5t-25.5 -10.5h-127v-5q0 -26 -26 -55q17 0 90.5 -10.5t128.5 -10.5q39 0 75.5 6.5t48.5 12.5q10 6 21 -1t11 -20v-133q0 -32 -29 -54q-12 -9 -40.5 -16t-64.5 -7
q-37 0 -144.5 17t-182.5 17q-110 0 -204 -26q-13 -3 -24 5.5t-11 21.5z" />
    <glyph glyph-name="currency" unicode="&#xa4;" horiz-adv-x="610" 
d="M150 350q0 -62 44.5 -108.5t110.5 -46.5t110.5 46.5t44.5 108.5q0 66 -46.5 110.5t-108.5 44.5t-108.5 -44.5t-46.5 -110.5zM31 176q-9 9 -9.5 24.5t9.5 26.5l75 75q-6 24 -6 48t6 48l-75 75q-9 9 -9.5 24t9.5 27l100 100q9 9 24.5 9.5t26.5 -9.5l75 -75q24 6 48 6t48 -6
l75 75q9 9 24 9.5t27 -9.5l100 -100q9 -9 9.5 -24.5t-9.5 -26.5l-75 -75q6 -24 6 -48t-6 -48l75 -75q9 -9 9.5 -24t-9.5 -27l-100 -100q-9 -9 -24.5 -9.5t-26.5 9.5l-75 75q-24 -6 -48 -6t-48 6l-75 -75q-9 -9 -24 -9.5t-27 9.5z" />
    <glyph glyph-name="yen" unicode="&#xa5;" horiz-adv-x="864" 
d="M170 185v50h120v60h-125v50h90l-232 326q-5 7 -5 14q0 15 20 15h267q36 0 50 -33l89 -220l93 220q14 33 50 33h239q20 0 20 -16q0 -7 -5 -13l-229 -326h87v-50h-122l-3 -4v-56h120v-50h-120v-149q0 -14 -10.5 -25t-25.5 -11h-212q-13 0 -24.5 11t-11.5 25v149h-120z" />
    <glyph glyph-name="brokenbar" unicode="&#xa6;" horiz-adv-x="298" 
d="M26 -150v440h246v-440h-246zM26 410v440h246v-440h-246z" />
    <glyph glyph-name="dieresis" unicode="&#xa8;" horiz-adv-x="428" 
d="M10 578zM250 614v50q0 15 10.5 25.5t25.5 10.5h96q15 0 25.5 -10.5t10.5 -25.5v-50q0 -15 -10.5 -25.5t-25.5 -10.5h-96q-15 0 -25.5 10.5t-10.5 25.5zM10 614v50q0 15 10.5 25.5t25.5 10.5h96q15 0 25.5 -10.5t10.5 -25.5v-50q0 -15 -10.5 -25.5t-25.5 -10.5h-96
q-15 0 -25.5 10.5t-10.5 25.5z" />
    <glyph glyph-name="copyright" unicode="&#xa9;" horiz-adv-x="774" 
d="M62 350q0 -135 95 -230t230 -95t230 95t95 230t-95 230t-230 95t-230 -95t-95 -230zM12 350q0 155 110 265t265 110t265 -110t110 -265t-110 -265t-265 -110t-265 110t-110 265zM165 350.5q0 89.5 68 143.5t182 54q40 0 80 -8.5t58 -20.5q16 -11 16 -29v-86q0 -7 -4 -9.5
t-10 1.5q-22 16 -56.5 25.5t-74.5 9.5q-45 0 -74 -20.5t-29 -60t29 -60t74 -20.5q40 0 75 9.5t56 25.5q3 4 8.5 1.5t5.5 -9.5v-86q0 -20 -16 -30q-19 -11 -57 -20t-78 -9q-115 0 -184 54.5t-69 144z" />
    <glyph glyph-name="ordfeminine" unicode="&#xaa;" horiz-adv-x="540" 
d="M8 211zM8.59961 365.09q0 62.9951 59.8457 110.592t137.541 47.5967q39.8965 0 67.8945 -6.2998q27.998 -6.29883 58.0957 -26.5977v27.998q0 23.7988 -28.6973 39.1973q-28.6982 15.3984 -74.1953 15.3984q-79.0938 0 -149.789 -37.0967q-5.59961 -3.5 -13.2988 0
q-7.7002 3.49902 -7.7002 13.2988v86.7939q0 25.8984 21.6982 36.3975q87.4941 40.5967 179.888 40.5967q106.393 0 185.138 -53.5459q78.7441 -53.5459 78.7441 -121.441v-296.779q0 -9.7998 -7.34961 -17.499t-17.8486 -7.69922h-135.79q-9.7998 0 -17.499 6.64941
q-7.7002 6.64941 -9.09961 17.1494v6.29883q-69.9951 -34.2969 -141.39 -34.2969q-79.0947 0 -132.642 38.8467q-53.5459 38.8477 -53.5459 114.442zM206.686 365.09q0 -19.5986 18.1992 -30.0977q18.1982 -10.5 46.1963 -10.5q32.1982 0 60.8955 11.1992v56.6963
q-30.0977 14.6992 -60.8955 14.6992q-27.2979 0 -45.8467 -11.1992t-18.5488 -30.7979z" />
    <glyph glyph-name="guillemotleft" unicode="&#xab;" horiz-adv-x="716" 
d="M338 323q-10 12 -9.5 28t9.5 26l193 220q9 11 25.5 11.5t25.5 -8.5l124 -108l-125 -142l125 -142l-124 -108q-11 -10 -26.5 -8.5t-24.5 11.5zM26 323q-10 12 -9.5 28t9.5 26l193 220q9 11 25.5 11.5t25.5 -8.5l124 -108l-125 -142l125 -142l-124 -108q-11 -10 -26.5 -8.5
t-24.5 11.5z" />
    <glyph glyph-name="uni00AD" unicode="&#xad;" horiz-adv-x="490" 
d="M10 243zM10 279v142q0 13 11 24.5t25 11.5h408q14 0 25 -10.5t11 -25.5v-142q0 -13 -11 -24.5t-25 -11.5h-408q-14 0 -25 10.5t-11 25.5z" />
    <glyph glyph-name="registered" unicode="&#xae;" horiz-adv-x="774" 
d="M62 350q0 -135 95 -230t230 -95t230 95t95 230t-95 230t-230 95t-230 -95t-95 -230zM12 350q0 155 110 265t265 110t265 -110t110 -265t-110 -265t-265 -110t-265 110t-110 265zM185 179v345q0 8 6 14t14 6q31 0 105.5 1.5t127.5 1.5q82 0 137 -37.5t55 -91.5
q0 -41 -32 -73.5t-83 -45.5l102 -125q5 -5 3 -10t-10 -5h-164q-8 0 -16.5 5t-11.5 13l-52 114h-27v-112q0 -7 -6 -13.5t-14 -6.5h-114q-7 0 -13.5 6t-6.5 14zM339 395q1 0 45 -1.5t66 -1.5q8 0 14 5.5t6 13.5t-6.5 13.5t-15.5 5.5q-21 0 -64 -1.5t-45 -1.5v-32z" />
    <glyph glyph-name="macron" unicode="&#xaf;" horiz-adv-x="348" 
d="M10 578zM10 614v50q0 15 10.5 25.5t25.5 10.5h256q15 0 25.5 -10.5t10.5 -25.5v-50q0 -15 -10.5 -25.5t-25.5 -10.5h-256q-15 0 -25.5 10.5t-10.5 25.5z" />
    <glyph glyph-name="degree" unicode="&#xb0;" horiz-adv-x="322" 
d="M6 555q0 64 45.5 109.5t109.5 45.5t109.5 -45.5t45.5 -109.5t-45.5 -109.5t-109.5 -45.5t-109.5 45.5t-45.5 109.5zM56 555q0 -44 30.5 -74.5t74.5 -30.5t74.5 30.5t30.5 74.5t-30.5 74.5t-74.5 30.5t-74.5 -30.5t-30.5 -74.5z" />
    <glyph glyph-name="plusminus" unicode="&#xb1;" horiz-adv-x="450" 
d="M10 40zM10.0996 390.989v115.02q0 10.5303 8.91016 19.8447q8.91016 9.31543 20.25 9.31543h94.7695v94.7695q0 9.71973 8.91016 19.4404q8.91016 9.71973 20.25 9.71973h123.12q10.5293 0 19.8447 -8.91016q9.31445 -8.91016 9.31445 -20.25v-94.7695h94.7695
q9.7207 0 19.4404 -8.91016t9.71973 -20.25v-115.02q0 -10.5303 -8.91016 -19.8447q-8.90918 -9.31543 -20.25 -9.31543h-94.7695v-94.7695q0 -9.71973 -8.91016 -19.4395q-8.90918 -9.7207 -20.249 -9.7207h-123.12q-10.5303 0 -19.8447 8.91016
q-9.31543 8.91016 -9.31543 20.25v94.7695h-94.7695q-9.71973 0 -19.4395 8.91016q-9.7207 8.91016 -9.7207 20.25zM30.0996 69.9893v115.02q0 10.5303 8.91016 19.8447q8.91016 9.31543 20.25 9.31543h330.479q11.3398 0 20.25 -8.50488q8.90918 -8.50488 8.90918 -20.6553
v-115.02q0 -10.5303 -8.90918 -19.8447q-8.91016 -9.31543 -20.25 -9.31543h-330.479q-11.3398 0 -20.25 8.50488q-8.91016 8.50586 -8.91016 20.6553z" />
    <glyph glyph-name="acute" unicode="&#xb4;" horiz-adv-x="295" 
d="M22 571l38 96q14 33 50 33h183l-107 -134q-23 -28 -59 -28h-83q-12 0 -19.5 10.5t-2.5 22.5z" />
    <glyph glyph-name="periodcentered" unicode="&#xb7;" horiz-adv-x="244" 
d="M12 240zM12 276v148q0 13 11 24.5t25 11.5h148q13 0 24.5 -11t11.5 -25v-148q0 -13 -11 -24.5t-25 -11.5h-148q-13 0 -24.5 11t-11.5 25z" />
    <glyph glyph-name="cedilla" unicode="&#xb8;" horiz-adv-x="236" 
d="M8 -148l13 62q23 -9 41 -9q31 0 31 16q0 7 -9.5 14t-27.5 7h-29l17 79l62 -4l-8 -42h13q46 0 78 -21.5t32 -51.5q0 -33 -35.5 -52.5t-84.5 -19.5q-53 0 -93 22z" />
    <glyph glyph-name="ordmasculine" unicode="&#xba;" horiz-adv-x="634" 
d="M16 208zM16.3994 459.982q0 112.692 82.9443 182.338q82.9443 69.6445 218.035 69.6445q135.09 0 218.034 -69.6445q82.9443 -69.6455 82.9443 -182.338q0 -112.691 -82.9443 -182.337t-218.034 -69.6455q-135.091 0 -218.035 69.6455t-82.9443 182.337zM224.285 459.982
q0 -46.1963 25.5479 -74.1943t67.5459 -27.998q41.9961 0 67.5449 27.998q25.5479 27.998 25.5479 74.1943q0 46.1973 -25.5479 74.1953q-25.5488 27.998 -67.5449 27.998q-41.998 0 -67.5459 -27.998t-25.5479 -74.1953z" />
    <glyph glyph-name="guillemotright" unicode="&#xbb;" horiz-adv-x="716" 
d="M10 90zM378 376q10 -12 9.5 -28t-9.5 -26l-193 -220q-9 -11 -25.5 -11.5t-25.5 8.5l-124 108l125 142l-125 142l124 108q11 10 26.5 8.5t24.5 -11.5zM690 376q10 -12 9.5 -28t-9.5 -26l-193 -220q-9 -11 -25.5 -11.5t-25.5 8.5l-124 108l125 142l-125 142l124 108
q11 10 26.5 8.5t24.5 -11.5z" />
    <glyph glyph-name="questiondown" unicode="&#xbf;" horiz-adv-x="595" 
d="M12 0zM585 207v-131q0 -34 -29 -54q-32 -22 -97 -37t-129 -15q-146 -1 -232 51t-86 165q0 43 21 79q20 36 50 56t60 37q30 16 50 29q21 13 21 25q-1 10 11 23t26 13h169q13 0 25 -11t11 -25q0 -38 -19 -68t-46 -49t-54 -35q-27 -17 -46 -33t-19 -34q0 -33 69 -33
q117 0 214 65q8 6 19 1t11 -19zM448 665v-148q0 -13 -11 -24.5t-25 -11.5h-148q-13 0 -24.5 11t-11.5 25v148q0 13 11 24.5t25 11.5h148q13 0 24.5 -11t11.5 -25z" />
    <glyph glyph-name="Agrave" unicode="&#xc0;" horiz-adv-x="888" 
d="M13 0zM16 34l262 633q5 12 20 23q15 10 30 10h240q13 0 28 -10q16 -10 21 -23l256 -634q2 -5 2 -11q0 -10 -7 -16t-18 -6h-207q-13 0 -28 10t-20 24l-31 90h-245l-32 -90q-4 -11 -19 -22.5t-29 -11.5h-201q-12 0 -18 6q-7 8 -7 16q0 5 3 12zM378 290h130l-64 186z
M232 850h213q36 0 53 -32l32 -58q6 -10 -0.5 -21t-18.5 -11h-109q-36 0 -63 24z" />
    <glyph glyph-name="Aacute" unicode="&#xc1;" horiz-adv-x="888" 
d="M13 0zM16 34l262 633q5 12 20 23q15 10 30 10h240q13 0 28 -10q16 -10 21 -23l256 -634q2 -5 2 -11q0 -10 -7 -16t-18 -6h-207q-13 0 -28 10t-20 24l-31 90h-245l-32 -90q-4 -11 -19 -22.5t-29 -11.5h-201q-12 0 -18 6q-7 8 -7 16q0 5 3 12zM378 290h130l-64 186z
M364 760l32 58q17 32 53 32h213l-107 -98q-27 -24 -63 -24h-109q-12 0 -18.5 11t-0.5 21z" />
    <glyph glyph-name="Acircumflex" unicode="&#xc2;" horiz-adv-x="888" 
d="M13 0zM16 34l262 633q5 12 20 23q15 10 30 10h240q13 0 28 -10q16 -10 21 -23l256 -634q2 -5 2 -11q0 -10 -7 -16t-18 -6h-207q-13 0 -28 10t-20 24l-31 90h-245l-32 -90q-4 -11 -19 -22.5t-29 -11.5h-201q-12 0 -18 6q-7 8 -7 16q0 5 3 12zM378 290h130l-64 186z
M199 752l80 74q27 24 60 24h216q33 0 60 -24l80 -74q9 -8 7 -16t-16 -8h-150q-33 0 -52 31l-37 59l-37 -59q-19 -31 -52 -31h-150q-13 0 -16 7t7 17z" />
    <glyph glyph-name="Atilde" unicode="&#xc3;" horiz-adv-x="888" 
d="M13 0zM16 34l262 633q5 12 20 23q15 10 30 10h240q13 0 28 -10q16 -10 21 -23l256 -634q2 -5 2 -11q0 -10 -7 -16t-18 -6h-207q-13 0 -28 10t-20 24l-31 90h-245l-32 -90q-4 -11 -19 -22.5t-29 -11.5h-201q-12 0 -18 6q-7 8 -7 16q0 5 3 12zM378 290h130l-64 186z
M292 741v69q-1 13 11 21q26 19 63 19q35 0 81 -18q33 -12 67 -12q40 0 71 17q17 9 17 -7v-63q0 -18 -13 -27q-29 -20 -70 -20q-36 0 -72 14q-40 16 -75 16t-63 -16q-17 -9 -17 7z" />
    <glyph glyph-name="Adieresis" unicode="&#xc4;" horiz-adv-x="888" 
d="M13 0zM16 34l262 633q5 12 20 23q15 10 30 10h240q13 0 28 -10q16 -10 21 -23l256 -634q2 -5 2 -11q0 -10 -7 -16t-18 -6h-207q-13 0 -28 10t-20 24l-31 90h-245l-32 -90q-4 -11 -19 -22.5t-29 -11.5h-201q-12 0 -18 6q-7 8 -7 16q0 5 3 12zM378 290h130l-64 186z
M483 764v50q0 15 10.5 25.5t25.5 10.5h96q15 0 25.5 -10.5t10.5 -25.5v-50q0 -15 -10.5 -25.5t-25.5 -10.5h-96q-15 0 -25.5 10.5t-10.5 25.5zM243 764v50q0 15 10.5 25.5t25.5 10.5h96q15 0 25.5 -10.5t10.5 -25.5v-50q0 -15 -10.5 -25.5t-25.5 -10.5h-96q-15 0 -25.5 10.5
t-10.5 25.5z" />
    <glyph glyph-name="Aring" unicode="&#xc5;" horiz-adv-x="888" 
d="M343 695q0 -44 30.5 -74.5t74.5 -30.5t74.5 30.5t30.5 74.5t-30.5 74.5t-74.5 30.5t-74.5 -30.5t-30.5 -74.5zM378 290h130l-64 186zM16 33l276 667q2 63 47.5 106.5t108.5 43.5t108.5 -44t47.5 -106l269 -667q1 -2 1 -9q0 -10 -7 -17t-17 -7h-207q-16 0 -29 9
q-14 9 -19 25l-31 90h-245l-32 -90q-7 -16 -19 -25t-29 -9h-201q-10 0 -17 7.5t-7 17.5q0 3 2 8z" />
    <glyph glyph-name="AE" unicode="&#xc6;" horiz-adv-x="1133" 
d="M16 33l262 634q14 33 50 33h754q14 0 25 -10.5t11 -25.5v-142q0 -13 -11 -24.5t-25 -11.5h-340v-49h280q14 0 25 -10.5t11 -25.5v-102q0 -12 -11 -24t-25 -12h-280v-49h340q14 0 25 -10.5t11 -25.5v-142q0 -15 -10.5 -25.5t-25.5 -10.5h-568q-15 0 -25.5 10.5t-10.5 25.5
v88h-159l-32 -90q-6 -16 -18.5 -25t-29.5 -9h-201q-10 0 -17 7.5t-7 17.5q0 4 2 8zM378 290h100v196h-31z" />
    <glyph glyph-name="Ccedilla" unicode="&#xc7;" horiz-adv-x="766" 
d="M12 350q0 163 124 261.5t331 98.5q73 0 145.5 -15.5t105.5 -37.5q30 -20 30 -53v-156q0 -13 -7.5 -18t-19.5 3q-39 28 -102 46t-135 18q-82 0 -135 -37.5t-53 -109.5t52.5 -109.5t135.5 -37.5q72 0 136 18t101 47q7 7 17 2.5t10 -18.5v-156q0 -36 -30 -54
q-35 -21 -104 -36.5t-142 -15.5q-20 0 -40 1l-3 -16h13q46 0 78 -21.5t32 -51.5q0 -33 -35.5 -52.5t-84.5 -19.5q-53 0 -93 22l13 62q23 -9 41 -9q31 0 31 16q0 7 -9.5 14t-27.5 7h-29l12 55q-166 23 -262 117.5t-96 235.5z" />
    <glyph glyph-name="Egrave" unicode="&#xc8;" horiz-adv-x="729" 
d="M24 0zM24 36v628q0 14 10.5 25t25.5 11h618q14 0 25 -10.5t11 -25.5v-137q0 -13 -11 -24.5t-25 -11.5h-370v-58h310q14 0 25 -10.5t11 -25.5v-94q0 -12 -11 -24t-25 -12h-310v-58h370q14 0 25 -10.5t11 -25.5v-137q0 -13 -11 -24.5t-25 -11.5h-618q-14 0 -25 10.5
t-11 25.5zM153 850h213q36 0 53 -32l32 -58q6 -10 -0.5 -21t-18.5 -11h-109q-36 0 -63 24z" />
    <glyph glyph-name="Eacute" unicode="&#xc9;" horiz-adv-x="729" 
d="M24 0zM24 36v628q0 14 10.5 25t25.5 11h618q14 0 25 -10.5t11 -25.5v-137q0 -13 -11 -24.5t-25 -11.5h-370v-58h310q14 0 25 -10.5t11 -25.5v-94q0 -12 -11 -24t-25 -12h-310v-58h370q14 0 25 -10.5t11 -25.5v-137q0 -13 -11 -24.5t-25 -11.5h-618q-14 0 -25 10.5
t-11 25.5zM285 760l32 58q17 32 53 32h213l-107 -98q-27 -24 -63 -24h-109q-12 0 -18.5 11t-0.5 21z" />
    <glyph glyph-name="Ecircumflex" unicode="&#xca;" horiz-adv-x="729" 
d="M24 0zM24 36v628q0 14 10.5 25t25.5 11h618q14 0 25 -10.5t11 -25.5v-137q0 -13 -11 -24.5t-25 -11.5h-370v-58h310q14 0 25 -10.5t11 -25.5v-94q0 -12 -11 -24t-25 -12h-310v-58h370q14 0 25 -10.5t11 -25.5v-137q0 -13 -11 -24.5t-25 -11.5h-618q-14 0 -25 10.5
t-11 25.5zM120 752l80 74q27 24 60 24h216q33 0 60 -24l80 -74q9 -8 7 -16t-16 -8h-150q-33 0 -52 31l-37 59l-37 -59q-19 -31 -52 -31h-150q-13 0 -16 7t7 17z" />
    <glyph glyph-name="Edieresis" unicode="&#xcb;" horiz-adv-x="729" 
d="M24 0zM24 36v628q0 14 10.5 25t25.5 11h618q14 0 25 -10.5t11 -25.5v-137q0 -13 -11 -24.5t-25 -11.5h-370v-58h310q14 0 25 -10.5t11 -25.5v-94q0 -12 -11 -24t-25 -12h-310v-58h370q14 0 25 -10.5t11 -25.5v-137q0 -13 -11 -24.5t-25 -11.5h-618q-14 0 -25 10.5
t-11 25.5zM404 764v50q0 15 10.5 25.5t25.5 10.5h96q15 0 25.5 -10.5t10.5 -25.5v-50q0 -15 -10.5 -25.5t-25.5 -10.5h-96q-15 0 -25.5 10.5t-10.5 25.5zM164 764v50q0 15 10.5 25.5t25.5 10.5h96q15 0 25.5 -10.5t10.5 -25.5v-50q0 -15 -10.5 -25.5t-25.5 -10.5h-96
q-15 0 -25.5 10.5t-10.5 25.5z" />
    <glyph glyph-name="Igrave" unicode="&#xcc;" horiz-adv-x="332" 
d="M0 0zM24 36v628q0 14 10.5 25t25.5 11h212q13 0 24.5 -11t11.5 -25v-628q0 -14 -10.5 -25t-25.5 -11h-212q-13 0 -24.5 10.5t-11.5 25.5zM-49 850h213q36 0 53 -32l32 -58q6 -10 -0.5 -21t-18.5 -11h-109q-36 0 -63 24z" />
    <glyph glyph-name="Iacute" unicode="&#xcd;" horiz-adv-x="332" 
d="M24 0zM24 36v628q0 14 10.5 25t25.5 11h212q13 0 24.5 -11t11.5 -25v-628q0 -14 -10.5 -25t-25.5 -11h-212q-13 0 -24.5 10.5t-11.5 25.5zM83 760l32 58q17 32 53 32h213l-107 -98q-27 -24 -63 -24h-109q-12 0 -18.5 11t-0.5 21z" />
    <glyph glyph-name="Icircumflex" unicode="&#xce;" horiz-adv-x="332" 
d="M0 0zM24 36v628q0 14 10.5 25t25.5 11h212q13 0 24.5 -11t11.5 -25v-628q0 -14 -10.5 -25t-25.5 -11h-212q-13 0 -24.5 10.5t-11.5 25.5zM-82 752l80 74q27 24 60 24h216q33 0 60 -24l80 -74q9 -8 7 -16t-16 -8h-150q-33 0 -52 31l-37 59l-37 -59q-19 -31 -52 -31h-150
q-13 0 -16 7t7 17z" />
    <glyph glyph-name="Idieresis" unicode="&#xcf;" horiz-adv-x="332" 
d="M0 0zM24 36v628q0 14 10.5 25t25.5 11h212q13 0 24.5 -11t11.5 -25v-628q0 -14 -10.5 -25t-25.5 -11h-212q-13 0 -24.5 10.5t-11.5 25.5zM202 764v50q0 15 10.5 25.5t25.5 10.5h96q15 0 25.5 -10.5t10.5 -25.5v-50q0 -15 -10.5 -25.5t-25.5 -10.5h-96q-15 0 -25.5 10.5
t-10.5 25.5zM-38 764v50q0 15 10.5 25.5t25.5 10.5h96q15 0 25.5 -10.5t10.5 -25.5v-50q0 -15 -10.5 -25.5t-25.5 -10.5h-96q-15 0 -25.5 10.5t-10.5 25.5z" />
    <glyph glyph-name="Eth" unicode="&#xd0;" horiz-adv-x="896" 
d="M4 309v82q0 11 11 23.5t25 12.5h26v237q0 14 10.5 25t25.5 11q39 0 150 3t184 3q191 0 319.5 -104.5t128.5 -251.5t-128.5 -251.5t-319.5 -104.5q-73 0 -184.5 3t-149.5 3q-12 0 -24 11t-12 25v237h-26q-14 0 -25 10.5t-11 25.5zM346 209h96q73 0 113.5 40.5t40.5 100.5
t-40.5 100.5t-113.5 40.5h-96v-64h70q14 0 25 -10.5t11 -25.5v-82q0 -11 -11 -23.5t-25 -12.5h-70v-64z" />
    <glyph glyph-name="Ntilde" unicode="&#xd1;" horiz-adv-x="848" 
d="M24 0zM24 36v628q0 14 10.5 25t25.5 11h314q14 0 29 -10t21 -23l164 -405v402q0 14 10.5 25t25.5 11h164q13 0 24.5 -11t11.5 -25v-628q0 -14 -10.5 -25t-25.5 -11h-310q-14 0 -29 10t-21 23l-168 401v-398q0 -14 -10.5 -25t-25.5 -11h-164q-13 0 -24.5 11t-11.5 25z
M271 741v69q-1 13 11 21q26 19 63 19q35 0 81 -18q33 -12 67 -12q40 0 71 17q17 9 17 -7v-63q0 -18 -13 -27q-29 -20 -70 -20q-36 0 -72 14q-40 16 -75 16t-63 -16q-17 -9 -17 7z" />
    <glyph glyph-name="Ograve" unicode="&#xd2;" 
d="M12 0zM12 350q0 161 118.5 260.5t311.5 99.5t311.5 -99.5t118.5 -260.5t-118.5 -260.5t-311.5 -99.5t-311.5 99.5t-118.5 260.5zM309 350q0 -66 36.5 -106t96.5 -40t96.5 40t36.5 106t-36.5 106t-96.5 40t-96.5 -40t-36.5 -106zM227 850h213q36 0 53 -32l32 -58
q6 -10 -0.5 -21t-18.5 -11h-109q-36 0 -63 24z" />
    <glyph glyph-name="Oacute" unicode="&#xd3;" 
d="M12 0zM12 350q0 161 118.5 260.5t311.5 99.5t311.5 -99.5t118.5 -260.5t-118.5 -260.5t-311.5 -99.5t-311.5 99.5t-118.5 260.5zM309 350q0 -66 36.5 -106t96.5 -40t96.5 40t36.5 106t-36.5 106t-96.5 40t-96.5 -40t-36.5 -106zM359 760l32 58q17 32 53 32h213l-107 -98
q-27 -24 -63 -24h-109q-12 0 -18.5 11t-0.5 21z" />
    <glyph glyph-name="Ocircumflex" unicode="&#xd4;" 
d="M12 0zM12 350q0 161 118.5 260.5t311.5 99.5t311.5 -99.5t118.5 -260.5t-118.5 -260.5t-311.5 -99.5t-311.5 99.5t-118.5 260.5zM309 350q0 -66 36.5 -106t96.5 -40t96.5 40t36.5 106t-36.5 106t-96.5 40t-96.5 -40t-36.5 -106zM194 752l80 74q27 24 60 24h216
q33 0 60 -24l80 -74q9 -8 7 -16t-16 -8h-150q-33 0 -52 31l-37 59l-37 -59q-19 -31 -52 -31h-150q-13 0 -16 7t7 17z" />
    <glyph glyph-name="Otilde" unicode="&#xd5;" 
d="M12 0zM12 350q0 161 118.5 260.5t311.5 99.5t311.5 -99.5t118.5 -260.5t-118.5 -260.5t-311.5 -99.5t-311.5 99.5t-118.5 260.5zM309 350q0 -66 36.5 -106t96.5 -40t96.5 40t36.5 106t-36.5 106t-96.5 40t-96.5 -40t-36.5 -106zM287 741v69q-1 13 11 21q26 19 63 19
q35 0 81 -18q33 -12 67 -12q40 0 71 17q17 9 17 -7v-63q0 -18 -13 -27q-29 -20 -70 -20q-36 0 -72 14q-40 16 -75 16t-63 -16q-17 -9 -17 7z" />
    <glyph glyph-name="Odieresis" unicode="&#xd6;" 
d="M12 0zM12 350q0 161 118.5 260.5t311.5 99.5t311.5 -99.5t118.5 -260.5t-118.5 -260.5t-311.5 -99.5t-311.5 99.5t-118.5 260.5zM309 350q0 -66 36.5 -106t96.5 -40t96.5 40t36.5 106t-36.5 106t-96.5 40t-96.5 -40t-36.5 -106zM478 764v50q0 15 10.5 25.5t25.5 10.5h96
q15 0 25.5 -10.5t10.5 -25.5v-50q0 -15 -10.5 -25.5t-25.5 -10.5h-96q-15 0 -25.5 10.5t-10.5 25.5zM238 764v50q0 15 10.5 25.5t25.5 10.5h96q15 0 25.5 -10.5t10.5 -25.5v-50q0 -15 -10.5 -25.5t-25.5 -10.5h-96q-15 0 -25.5 10.5t-10.5 25.5z" />
    <glyph glyph-name="multiply" unicode="&#xd7;" horiz-adv-x="550" 
d="M37 213q-9 9 -9.5 24.5t9.5 26.5l87 86l-87 86q-9 9 -9.5 24.5t9.5 26.5l101 101q9 9 24.5 9.5t26.5 -9.5l86 -87l86 87q9 9 24.5 9.5t26.5 -9.5l101 -101q9 -9 9.5 -24.5t-9.5 -26.5l-87 -86l87 -86q9 -9 9.5 -24.5t-9.5 -26.5l-101 -101q-9 -9 -24.5 -9.5t-26.5 9.5
l-86 87l-86 -87q-9 -9 -24.5 -9.5t-26.5 9.5z" />
    <glyph glyph-name="Oslash" unicode="&#xd8;" 
d="M12 350q0 161 118.5 260.5t311.5 99.5q112 0 203 -36l58 78q9 12 23.5 14t26.5 -7l21 -15l-72 -97q81 -47 125.5 -124t44.5 -173q0 -161 -118.5 -260.5t-311.5 -99.5q-111 0 -202 35l-57 -77q-9 -12 -23.5 -14t-26.5 7l-21 15l72 97q-82 47 -127 124t-45 173zM382 217
q27 -13 60 -13q60 0 96.5 40t36.5 106q0 54 -26 92zM309 350q0 -55 26 -93l168 225q-27 14 -61 14q-60 0 -96.5 -40t-36.5 -106z" />
    <glyph glyph-name="Ugrave" unicode="&#xd9;" horiz-adv-x="780" 
d="M16 0zM16 306v358q0 14 10.5 25t25.5 11h216q13 0 24.5 -11t11.5 -25v-359q0 -45 22.5 -71t63.5 -26t63.5 26t22.5 71v359q0 14 10.5 25t25.5 11h216q13 0 24.5 -11t11.5 -25v-358q0 -141 -103 -228.5t-271 -87.5t-271 87.5t-103 228.5zM173 850h213q36 0 53 -32l32 -58
q6 -10 -0.5 -21t-18.5 -11h-109q-36 0 -63 24z" />
    <glyph glyph-name="Uacute" unicode="&#xda;" horiz-adv-x="780" 
d="M16 0zM16 306v358q0 14 10.5 25t25.5 11h216q13 0 24.5 -11t11.5 -25v-359q0 -45 22.5 -71t63.5 -26t63.5 26t22.5 71v359q0 14 10.5 25t25.5 11h216q13 0 24.5 -11t11.5 -25v-358q0 -141 -103 -228.5t-271 -87.5t-271 87.5t-103 228.5zM305 760l32 58q17 32 53 32h213
l-107 -98q-27 -24 -63 -24h-109q-12 0 -18.5 11t-0.5 21z" />
    <glyph glyph-name="Ucircumflex" unicode="&#xdb;" horiz-adv-x="780" 
d="M16 0zM16 306v358q0 14 10.5 25t25.5 11h216q13 0 24.5 -11t11.5 -25v-359q0 -45 22.5 -71t63.5 -26t63.5 26t22.5 71v359q0 14 10.5 25t25.5 11h216q13 0 24.5 -11t11.5 -25v-358q0 -141 -103 -228.5t-271 -87.5t-271 87.5t-103 228.5zM140 752l80 74q27 24 60 24h216
q33 0 60 -24l80 -74q9 -8 7 -16t-16 -8h-150q-33 0 -52 31l-37 59l-37 -59q-19 -31 -52 -31h-150q-13 0 -16 7t7 17z" />
    <glyph glyph-name="Udieresis" unicode="&#xdc;" horiz-adv-x="780" 
d="M16 0zM16 306v358q0 14 10.5 25t25.5 11h216q13 0 24.5 -11t11.5 -25v-359q0 -45 22.5 -71t63.5 -26t63.5 26t22.5 71v359q0 14 10.5 25t25.5 11h216q13 0 24.5 -11t11.5 -25v-358q0 -141 -103 -228.5t-271 -87.5t-271 87.5t-103 228.5zM424 764v50q0 15 10.5 25.5
t25.5 10.5h96q15 0 25.5 -10.5t10.5 -25.5v-50q0 -15 -10.5 -25.5t-25.5 -10.5h-96q-15 0 -25.5 10.5t-10.5 25.5zM184 764v50q0 15 10.5 25.5t25.5 10.5h96q15 0 25.5 -10.5t10.5 -25.5v-50q0 -15 -10.5 -25.5t-25.5 -10.5h-96q-15 0 -25.5 10.5t-10.5 25.5z" />
    <glyph glyph-name="Yacute" unicode="&#xdd;" horiz-adv-x="864" 
d="M18 0zM23 671q-5 7 -5 14q0 15 20 15h267q37 0 50 -33l89 -220l93 220q14 33 50 33h239q20 0 20 -17q0 -5 -5 -12l-267 -380v-255q0 -14 -10.5 -25t-25.5 -11h-212q-13 0 -24.5 11t-11.5 25v261zM366 760l32 58q17 32 53 32h213l-107 -98q-27 -24 -63 -24h-109
q-12 0 -18.5 11t-0.5 21z" />
    <glyph glyph-name="Thorn" unicode="&#xde;" horiz-adv-x="818" 
d="M308 366q5 0 67.5 -2.5t96.5 -2.5q25 0 41.5 11.5t16.5 26.5t-16.5 26t-41.5 11q-41 0 -100 -2.5t-64 -2.5v-65zM24 36v628q0 14 10.5 25t25.5 11h217q13 0 22 -9t9 -22v-27q65 7 158 7q150 0 246 -72t96 -177t-96 -176.5t-246 -71.5q-93 0 -158 7v-123q0 -12 -11 -24
t-25 -12h-212q-13 0 -24.5 10.5t-11.5 25.5z" />
    <glyph glyph-name="germandbls" unicode="&#xdf;" horiz-adv-x="804" 
d="M16 36v424q0 78 60.5 136.5t149 86t187.5 27.5q130 0 220 -49.5t90 -139.5q0 -44 -20 -82t-55 -63q64 -19 106 -62.5t42 -98.5q0 -101 -90.5 -161t-254.5 -60q-30 0 -55 4q-16 2 -26 13t-10 26v141q0 14 12.5 22.5t23.5 6.5q29 -5 57 -5q35 0 55 13.5t20 29.5
q0 13 -12.5 22t-36.5 9h-83q-14 0 -25 12t-11 24v114q0 11 8 19t20 8h61q14 0 22 6.5t8 14.5q0 15 -22.5 24.5t-59.5 9.5q-43 0 -70 -21.5t-27 -50.5v-400q0 -15 -10.5 -25.5t-25.5 -10.5h-212q-15 0 -25.5 11t-10.5 25z" />
    <glyph glyph-name="agrave" unicode="&#xe0;" horiz-adv-x="760" 
d="M8 0zM8 213q0 90 85.5 158t196.5 68q57 0 97 -9t83 -38v40q0 34 -41 56t-106 22q-113 0 -214 -53q-8 -5 -19 0t-11 19v124q0 37 31 52q125 58 257 58q152 0 264.5 -76.5t112.5 -173.5v-424q0 -14 -10.5 -25t-25.5 -11h-194q-14 0 -25 9.5t-13 24.5v9q-100 -49 -202 -49
q-113 0 -189.5 55.5t-76.5 163.5zM291 213q0 -28 26 -43t66 -15q46 0 87 16v81q-43 21 -87 21q-39 0 -65.5 -16t-26.5 -44zM169 850h213q36 0 53 -32l32 -58q6 -10 -0.5 -21t-18.5 -11h-109q-36 0 -63 24z" />
    <glyph glyph-name="aacute" unicode="&#xe1;" horiz-adv-x="760" 
d="M8 0zM8 213q0 90 85.5 158t196.5 68q57 0 97 -9t83 -38v40q0 34 -41 56t-106 22q-113 0 -214 -53q-8 -5 -19 0t-11 19v124q0 37 31 52q125 58 257 58q152 0 264.5 -76.5t112.5 -173.5v-424q0 -14 -10.5 -25t-25.5 -11h-194q-14 0 -25 9.5t-13 24.5v9q-100 -49 -202 -49
q-113 0 -189.5 55.5t-76.5 163.5zM291 213q0 -28 26 -43t66 -15q46 0 87 16v81q-43 21 -87 21q-39 0 -65.5 -16t-26.5 -44zM301 760l32 58q17 32 53 32h213l-107 -98q-27 -24 -63 -24h-109q-12 0 -18.5 11t-0.5 21z" />
    <glyph glyph-name="acircumflex" unicode="&#xe2;" horiz-adv-x="760" 
d="M8 0zM8 213q0 90 85.5 158t196.5 68q57 0 97 -9t83 -38v40q0 34 -41 56t-106 22q-113 0 -214 -53q-8 -5 -19 0t-11 19v124q0 37 31 52q125 58 257 58q152 0 264.5 -76.5t112.5 -173.5v-424q0 -14 -10.5 -25t-25.5 -11h-194q-14 0 -25 9.5t-13 24.5v9q-100 -49 -202 -49
q-113 0 -189.5 55.5t-76.5 163.5zM291 213q0 -28 26 -43t66 -15q46 0 87 16v81q-43 21 -87 21q-39 0 -65.5 -16t-26.5 -44zM136 752l80 74q27 24 60 24h216q33 0 60 -24l80 -74q9 -8 7 -16t-16 -8h-150q-33 0 -52 31l-37 59l-37 -59q-19 -31 -52 -31h-150q-13 0 -16 7t7 17z
" />
    <glyph glyph-name="atilde" unicode="&#xe3;" horiz-adv-x="760" 
d="M8 0zM8 213q0 90 85.5 158t196.5 68q57 0 97 -9t83 -38v40q0 34 -41 56t-106 22q-113 0 -214 -53q-8 -5 -19 0t-11 19v124q0 37 31 52q125 58 257 58q152 0 264.5 -76.5t112.5 -173.5v-424q0 -14 -10.5 -25t-25.5 -11h-194q-14 0 -25 9.5t-13 24.5v9q-100 -49 -202 -49
q-113 0 -189.5 55.5t-76.5 163.5zM291 213q0 -28 26 -43t66 -15q46 0 87 16v81q-43 21 -87 21q-39 0 -65.5 -16t-26.5 -44zM229 741v69q-1 13 11 21q26 19 63 19q35 0 81 -18q33 -12 67 -12q40 0 71 17q17 9 17 -7v-63q0 -18 -13 -27q-29 -20 -70 -20q-36 0 -72 14
q-40 16 -75 16t-63 -16q-17 -9 -17 7z" />
    <glyph glyph-name="adieresis" unicode="&#xe4;" horiz-adv-x="760" 
d="M8 0zM8 213q0 90 85.5 158t196.5 68q57 0 97 -9t83 -38v40q0 34 -41 56t-106 22q-113 0 -214 -53q-8 -5 -19 0t-11 19v124q0 37 31 52q125 58 257 58q152 0 264.5 -76.5t112.5 -173.5v-424q0 -14 -10.5 -25t-25.5 -11h-194q-14 0 -25 9.5t-13 24.5v9q-100 -49 -202 -49
q-113 0 -189.5 55.5t-76.5 163.5zM291 213q0 -28 26 -43t66 -15q46 0 87 16v81q-43 21 -87 21q-39 0 -65.5 -16t-26.5 -44zM420 764v50q0 15 10.5 25.5t25.5 10.5h96q15 0 25.5 -10.5t10.5 -25.5v-50q0 -15 -10.5 -25.5t-25.5 -10.5h-96q-15 0 -25.5 10.5t-10.5 25.5z
M180 764v50q0 15 10.5 25.5t25.5 10.5h96q15 0 25.5 -10.5t10.5 -25.5v-50q0 -15 -10.5 -25.5t-25.5 -10.5h-96q-15 0 -25.5 10.5t-10.5 25.5z" />
    <glyph glyph-name="aring" unicode="&#xe5;" horiz-adv-x="760" 
d="M8 213q0 90 85.5 158t196.5 68q57 0 97 -9t83 -38v40q0 34 -41.5 56t-105.5 22q-112 0 -214 -53q-8 -5 -19 0t-11 19v124q0 15 9 30.5t22 23.5q29 16 102 36v5q0 64 45.5 109.5t109.5 45.5t109.5 -45.5t45.5 -109.5v-9q98 -32 160 -94.5t62 -131.5v-424
q0 -15 -10.5 -25.5t-25.5 -10.5h-192q-15 0 -26.5 11t-13.5 25v7q-100 -49 -202 -49q-113 0 -189.5 55.5t-76.5 163.5zM262 695q0 -44 30.5 -74.5t74.5 -30.5t74.5 30.5t30.5 74.5t-30.5 74.5t-74.5 30.5t-74.5 -30.5t-30.5 -74.5zM291 213q0 -28 26 -43t66 -15q46 0 87 16
v81q-43 21 -87 21q-39 0 -65.5 -16t-26.5 -44z" />
    <glyph glyph-name="ae" unicode="&#xe6;" horiz-adv-x="1302" 
d="M8 213q0 90 85.5 158t196.5 68q57 0 97 -9t83 -38v40q0 34 -41.5 56t-105.5 22q-54 0 -112.5 -14t-101.5 -39q-8 -6 -19 -0.5t-11 19.5v124q0 32 32 51q45 26 117.5 42.5t138.5 16.5q151 0 256 -78q110 78 269 78q194 0 296 -88.5t102 -257.5v-42q0 -15 -10.5 -25.5
t-25.5 -10.5h-496q40 -80 198 -80q73 0 144.5 12.5t102.5 23.5q13 4 24 -4.5t11 -21.5v-145q0 -16 -9.5 -28t-25.5 -18q-12 -4 -50.5 -11.5t-112.5 -15.5t-146 -8q-205 0 -314 103q-147 -99 -306 -99q-113 0 -189.5 55.5t-76.5 163.5zM291 222q0 -23 26.5 -38t65.5 -15
q59 0 122 38q-6 15 -11 31q-57 35 -111 35q-38 0 -65 -15t-27 -36zM754 422h266v17q0 25 -36.5 45t-91.5 20q-109 0 -138 -82z" />
    <glyph glyph-name="ccedilla" unicode="&#xe7;" horiz-adv-x="766" 
d="M12 0zM12 350q0 163 124 261.5t331 98.5q73 0 145.5 -15.5t105.5 -37.5q30 -20 30 -53v-156q0 -13 -7.5 -18t-19.5 3q-39 28 -102 46t-135 18q-82 0 -135 -37.5t-53 -109.5t52.5 -109.5t135.5 -37.5q72 0 136 18t101 47q7 7 17 2.5t10 -18.5v-156q0 -36 -30 -54
q-35 -21 -104 -36.5t-142 -15.5q-20 0 -40 1l-3 -16h13q46 0 78 -21.5t32 -51.5q0 -33 -35.5 -52.5t-84.5 -19.5q-53 0 -93 22l13 62q23 -9 41 -9q31 0 31 16q0 7 -9.5 14t-27.5 7h-29l12 55q-166 23 -262 117.5t-96 235.5z" />
    <glyph glyph-name="egrave" unicode="&#xe8;" horiz-adv-x="854" 
d="M12 0zM12 350q0 162 119 261t313 99t296 -88.5t102 -257.5v-42q0 -13 -11.5 -24.5t-24.5 -11.5h-496q40 -80 198 -80q51 0 108.5 7.5t88 14.5t51.5 14q12 4 23 -4.5t11 -21.5v-145q0 -16 -9.5 -28.5t-24.5 -17.5q-12 -4 -50.5 -11.5t-113 -15.5t-146.5 -8
q-204 0 -319 98.5t-115 261.5zM306 422h266v17q0 25 -36.5 45t-91.5 20q-109 0 -138 -82zM227 850h213q36 0 53 -32l32 -58q6 -10 -0.5 -21t-18.5 -11h-109q-36 0 -63 24z" />
    <glyph glyph-name="eacute" unicode="&#xe9;" horiz-adv-x="854" 
d="M12 0zM12 350q0 162 119 261t313 99t296 -88.5t102 -257.5v-42q0 -13 -11.5 -24.5t-24.5 -11.5h-496q40 -80 198 -80q51 0 108.5 7.5t88 14.5t51.5 14q12 4 23 -4.5t11 -21.5v-145q0 -16 -9.5 -28.5t-24.5 -17.5q-12 -4 -50.5 -11.5t-113 -15.5t-146.5 -8
q-204 0 -319 98.5t-115 261.5zM306 422h266v17q0 25 -36.5 45t-91.5 20q-109 0 -138 -82zM359 760l32 58q17 32 53 32h213l-107 -98q-27 -24 -63 -24h-109q-12 0 -18.5 11t-0.5 21z" />
    <glyph glyph-name="ecircumflex" unicode="&#xea;" horiz-adv-x="854" 
d="M12 0zM12 350q0 162 119 261t313 99t296 -88.5t102 -257.5v-42q0 -13 -11.5 -24.5t-24.5 -11.5h-496q40 -80 198 -80q51 0 108.5 7.5t88 14.5t51.5 14q12 4 23 -4.5t11 -21.5v-145q0 -16 -9.5 -28.5t-24.5 -17.5q-12 -4 -50.5 -11.5t-113 -15.5t-146.5 -8
q-204 0 -319 98.5t-115 261.5zM306 422h266v17q0 25 -36.5 45t-91.5 20q-109 0 -138 -82zM194 752l80 74q27 24 60 24h216q33 0 60 -24l80 -74q9 -8 7 -16t-16 -8h-150q-33 0 -52 31l-37 59l-37 -59q-19 -31 -52 -31h-150q-13 0 -16 7t7 17z" />
    <glyph glyph-name="edieresis" unicode="&#xeb;" horiz-adv-x="854" 
d="M12 0zM12 350q0 162 119 261t313 99t296 -88.5t102 -257.5v-42q0 -13 -11.5 -24.5t-24.5 -11.5h-496q40 -80 198 -80q51 0 108.5 7.5t88 14.5t51.5 14q12 4 23 -4.5t11 -21.5v-145q0 -16 -9.5 -28.5t-24.5 -17.5q-12 -4 -50.5 -11.5t-113 -15.5t-146.5 -8
q-204 0 -319 98.5t-115 261.5zM306 422h266v17q0 25 -36.5 45t-91.5 20q-109 0 -138 -82zM478 764v50q0 15 10.5 25.5t25.5 10.5h96q15 0 25.5 -10.5t10.5 -25.5v-50q0 -15 -10.5 -25.5t-25.5 -10.5h-96q-15 0 -25.5 10.5t-10.5 25.5zM238 764v50q0 15 10.5 25.5t25.5 10.5
h96q15 0 25.5 -10.5t10.5 -25.5v-50q0 -15 -10.5 -25.5t-25.5 -10.5h-96q-15 0 -25.5 10.5t-10.5 25.5z" />
    <glyph glyph-name="igrave" unicode="&#xec;" horiz-adv-x="332" 
d="M0 0zM24 36v628q0 15 10.5 25.5t25.5 10.5h212q15 0 25.5 -10.5t10.5 -25.5v-628q0 -15 -10.5 -25.5t-25.5 -10.5h-212q-15 0 -25.5 10.5t-10.5 25.5zM-49 850h213q36 0 53 -32l32 -58q6 -10 -0.5 -21t-18.5 -11h-109q-36 0 -63 24z" />
    <glyph glyph-name="iacute" unicode="&#xed;" horiz-adv-x="332" 
d="M24 0zM24 36v628q0 15 10.5 25.5t25.5 10.5h212q15 0 25.5 -10.5t10.5 -25.5v-628q0 -15 -10.5 -25.5t-25.5 -10.5h-212q-15 0 -25.5 10.5t-10.5 25.5zM83 760l32 58q17 32 53 32h213l-107 -98q-27 -24 -63 -24h-109q-12 0 -18.5 11t-0.5 21z" />
    <glyph glyph-name="icircumflex" unicode="&#xee;" horiz-adv-x="332" 
d="M0 0zM24 36v628q0 15 10.5 25.5t25.5 10.5h212q15 0 25.5 -10.5t10.5 -25.5v-628q0 -15 -10.5 -25.5t-25.5 -10.5h-212q-15 0 -25.5 10.5t-10.5 25.5zM-82 752l80 74q27 24 60 24h216q33 0 60 -24l80 -74q9 -8 7 -16t-16 -8h-150q-33 0 -52 31l-37 59l-37 -59
q-19 -31 -52 -31h-150q-13 0 -16 7t7 17z" />
    <glyph glyph-name="idieresis" unicode="&#xef;" horiz-adv-x="332" 
d="M0 0zM24 36v628q0 15 10.5 25.5t25.5 10.5h212q15 0 25.5 -10.5t10.5 -25.5v-628q0 -15 -10.5 -25.5t-25.5 -10.5h-212q-15 0 -25.5 10.5t-10.5 25.5zM202 764v50q0 15 10.5 25.5t25.5 10.5h96q15 0 25.5 -10.5t10.5 -25.5v-50q0 -15 -10.5 -25.5t-25.5 -10.5h-96
q-15 0 -25.5 10.5t-10.5 25.5zM-38 764v50q0 15 10.5 25.5t25.5 10.5h96q15 0 25.5 -10.5t10.5 -25.5v-50q0 -15 -10.5 -25.5t-25.5 -10.5h-96q-15 0 -25.5 10.5t-10.5 25.5z" />
    <glyph glyph-name="eth" unicode="&#xf0;" horiz-adv-x="896" 
d="M4 0zM4 309v82q0 11 11 23.5t25 12.5h26v237q0 14 10.5 25t25.5 11q39 0 150 3t184 3q191 0 319.5 -104.5t128.5 -251.5t-128.5 -251.5t-319.5 -104.5q-73 0 -184.5 3t-149.5 3q-12 0 -24 11t-12 25v237h-26q-14 0 -25 10.5t-11 25.5zM346 209h96q73 0 113.5 40.5
t40.5 100.5t-40.5 100.5t-113.5 40.5h-96v-64h70q14 0 25 -10.5t11 -25.5v-82q0 -11 -11 -23.5t-25 -12.5h-70v-64z" />
    <glyph glyph-name="ntilde" unicode="&#xf1;" horiz-adv-x="826" 
d="M24 0zM24 36v628q0 14 10.5 25t25.5 11h206q13 0 25 -10.5t13 -25.5v-9q99 51 201 51q145 0 225 -71.5t80 -173.5v-425q0 -14 -10.5 -25t-25.5 -11h-214q-13 0 -24.5 11t-11.5 25v381q0 31 -19 51.5t-61 20.5q-67 0 -134 -31v-422q0 -14 -10.5 -25t-25.5 -11h-214
q-14 0 -25 10.5t-11 25.5zM271 741v69q-1 13 11 21q26 19 63 19q35 0 81 -18q33 -12 67 -12q40 0 71 17q17 9 17 -7v-63q0 -18 -13 -27q-29 -20 -70 -20q-36 0 -72 14q-40 16 -75 16t-63 -16q-17 -9 -17 7z" />
    <glyph glyph-name="ograve" unicode="&#xf2;" 
d="M12 0zM12 0zM12 350q0 161 118.5 260.5t311.5 99.5t311.5 -99.5t118.5 -260.5t-118.5 -260.5t-311.5 -99.5t-311.5 99.5t-118.5 260.5zM309 350q0 -66 36.5 -106t96.5 -40t96.5 40t36.5 106t-36.5 106t-96.5 40t-96.5 -40t-36.5 -106zM227 850h213q36 0 53 -32l32 -58
q6 -10 -0.5 -21t-18.5 -11h-109q-36 0 -63 24z" />
    <glyph glyph-name="oacute" unicode="&#xf3;" 
d="M12 0zM12 0zM12 350q0 161 118.5 260.5t311.5 99.5t311.5 -99.5t118.5 -260.5t-118.5 -260.5t-311.5 -99.5t-311.5 99.5t-118.5 260.5zM309 350q0 -66 36.5 -106t96.5 -40t96.5 40t36.5 106t-36.5 106t-96.5 40t-96.5 -40t-36.5 -106zM359 760l32 58q17 32 53 32h213
l-107 -98q-27 -24 -63 -24h-109q-12 0 -18.5 11t-0.5 21z" />
    <glyph glyph-name="ocircumflex" unicode="&#xf4;" 
d="M12 0zM12 0zM12 350q0 161 118.5 260.5t311.5 99.5t311.5 -99.5t118.5 -260.5t-118.5 -260.5t-311.5 -99.5t-311.5 99.5t-118.5 260.5zM309 350q0 -66 36.5 -106t96.5 -40t96.5 40t36.5 106t-36.5 106t-96.5 40t-96.5 -40t-36.5 -106zM194 752l80 74q27 24 60 24h216
q33 0 60 -24l80 -74q9 -8 7 -16t-16 -8h-150q-33 0 -52 31l-37 59l-37 -59q-19 -31 -52 -31h-150q-13 0 -16 7t7 17z" />
    <glyph glyph-name="otilde" unicode="&#xf5;" 
d="M12 0zM12 0zM12 350q0 161 118.5 260.5t311.5 99.5t311.5 -99.5t118.5 -260.5t-118.5 -260.5t-311.5 -99.5t-311.5 99.5t-118.5 260.5zM309 350q0 -66 36.5 -106t96.5 -40t96.5 40t36.5 106t-36.5 106t-96.5 40t-96.5 -40t-36.5 -106zM287 741v69q-1 13 11 21
q26 19 63 19q35 0 81 -18q33 -12 67 -12q40 0 71 17q17 9 17 -7v-63q0 -18 -13 -27q-29 -20 -70 -20q-36 0 -72 14q-40 16 -75 16t-63 -16q-17 -9 -17 7z" />
    <glyph glyph-name="odieresis" unicode="&#xf6;" 
d="M12 0zM12 0zM12 350q0 161 118.5 260.5t311.5 99.5t311.5 -99.5t118.5 -260.5t-118.5 -260.5t-311.5 -99.5t-311.5 99.5t-118.5 260.5zM309 350q0 -66 36.5 -106t96.5 -40t96.5 40t36.5 106t-36.5 106t-96.5 40t-96.5 -40t-36.5 -106zM478 764v50q0 15 10.5 25.5
t25.5 10.5h96q15 0 25.5 -10.5t10.5 -25.5v-50q0 -15 -10.5 -25.5t-25.5 -10.5h-96q-15 0 -25.5 10.5t-10.5 25.5zM238 764v50q0 15 10.5 25.5t25.5 10.5h96q15 0 25.5 -10.5t10.5 -25.5v-50q0 -15 -10.5 -25.5t-25.5 -10.5h-96q-15 0 -25.5 10.5t-10.5 25.5z" />
    <glyph glyph-name="divide" unicode="&#xf7;" horiz-adv-x="450" 
d="M10 295v105q0 15 10.5 25.5t25.5 10.5h358q15 0 25.5 -10.5t10.5 -25.5v-105q0 -15 -10.5 -25.5t-25.5 -10.5h-358q-15 0 -25.5 10.5t-10.5 25.5zM136 89v106q0 15 10.5 25.5t25.5 10.5h106q15 0 25.5 -10.5t10.5 -25.5v-106q0 -15 -10.5 -25.5t-25.5 -10.5h-106
q-15 0 -25.5 10.5t-10.5 25.5zM136 505v106q0 15 10.5 25.5t25.5 10.5h106q15 0 25.5 -10.5t10.5 -25.5v-106q0 -15 -10.5 -25.5t-25.5 -10.5h-106q-15 0 -25.5 10.5t-10.5 25.5z" />
    <glyph glyph-name="oslash" unicode="&#xf8;" 
d="M12 0zM12 350q0 161 118.5 260.5t311.5 99.5q112 0 203 -36l58 78q9 12 23.5 14t26.5 -7l21 -15l-72 -97q81 -47 125.5 -124t44.5 -173q0 -161 -118.5 -260.5t-311.5 -99.5q-111 0 -202 35l-57 -77q-9 -12 -23.5 -14t-26.5 7l-21 15l72 97q-82 47 -127 124t-45 173z
M382 217q27 -13 60 -13q60 0 96.5 40t36.5 106q0 54 -26 92zM309 350q0 -55 26 -93l168 225q-27 14 -61 14q-60 0 -96.5 -40t-36.5 -106z" />
    <glyph glyph-name="ugrave" unicode="&#xf9;" horiz-adv-x="780" 
d="M16 0zM16 0zM16 306v358q0 14 10.5 25t25.5 11h216q13 0 24.5 -11t11.5 -25v-359q0 -45 22.5 -71t63.5 -26t63.5 26t22.5 71v359q0 14 10.5 25t25.5 11h216q13 0 24.5 -11t11.5 -25v-358q0 -141 -103 -228.5t-271 -87.5t-271 87.5t-103 228.5zM165 892h213q36 0 53 -32
l32 -58q6 -10 -0.5 -21t-18.5 -11h-109q-36 0 -63 24z" />
    <glyph glyph-name="uacute" unicode="&#xfa;" horiz-adv-x="780" 
d="M16 0zM16 0zM16 306v358q0 14 10.5 25t25.5 11h216q13 0 24.5 -11t11.5 -25v-359q0 -45 22.5 -71t63.5 -26t63.5 26t22.5 71v359q0 14 10.5 25t25.5 11h216q13 0 24.5 -11t11.5 -25v-358q0 -141 -103 -228.5t-271 -87.5t-271 87.5t-103 228.5zM173 850h213q36 0 53 -32
l32 -58q6 -10 -0.5 -21t-18.5 -11h-109q-36 0 -63 24z" />
    <glyph glyph-name="ucircumflex" unicode="&#xfb;" horiz-adv-x="780" 
d="M16 0zM16 0zM16 306v358q0 14 10.5 25t25.5 11h216q13 0 24.5 -11t11.5 -25v-359q0 -45 22.5 -71t63.5 -26t63.5 26t22.5 71v359q0 14 10.5 25t25.5 11h216q13 0 24.5 -11t11.5 -25v-358q0 -141 -103 -228.5t-271 -87.5t-271 87.5t-103 228.5zM140 752l80 74q27 24 60 24
h216q33 0 60 -24l80 -74q9 -8 7 -16t-16 -8h-150q-33 0 -52 31l-37 59l-37 -59q-19 -31 -52 -31h-150q-13 0 -16 7t7 17z" />
    <glyph glyph-name="udieresis" unicode="&#xfc;" horiz-adv-x="780" 
d="M16 0zM16 0zM16 306v358q0 14 10.5 25t25.5 11h216q13 0 24.5 -11t11.5 -25v-359q0 -45 22.5 -71t63.5 -26t63.5 26t22.5 71v359q0 14 10.5 25t25.5 11h216q13 0 24.5 -11t11.5 -25v-358q0 -141 -103 -228.5t-271 -87.5t-271 87.5t-103 228.5zM424 764v50q0 15 10.5 25.5
t25.5 10.5h96q15 0 25.5 -10.5t10.5 -25.5v-50q0 -15 -10.5 -25.5t-25.5 -10.5h-96q-15 0 -25.5 10.5t-10.5 25.5zM184 764v50q0 15 10.5 25.5t25.5 10.5h96q15 0 25.5 -10.5t10.5 -25.5v-50q0 -15 -10.5 -25.5t-25.5 -10.5h-96q-15 0 -25.5 10.5t-10.5 25.5z" />
    <glyph glyph-name="yacute" unicode="&#xfd;" horiz-adv-x="746" 
d="M13 0zM305 760l32 58q17 32 53 32h213l-107 -98q-27 -24 -63 -24h-109q-12 0 -18.5 11t-0.5 21zM31 106v134q0 13 9.5 19.5t21.5 -0.5q125 -67 244 -67q58 0 99 21t41 51v6q-55 -18 -122 -18q-146 0 -228.5 67t-82.5 166v179q0 13 11 24.5t25 11.5h211q13 0 24.5 -10.5
t11.5 -25.5v-155q0 -32 22 -51.5t58 -19.5q37 0 70 8v218q0 14 10.5 25t25.5 11h212q13 0 24.5 -11t11.5 -25v-424q0 -104 -119.5 -177t-287.5 -73q-63 0 -138.5 19t-123.5 45q-30 17 -30 52z" />
    <glyph glyph-name="thorn" unicode="&#xfe;" horiz-adv-x="818" 
d="M24 0zM308 366q5 0 67.5 -2.5t96.5 -2.5q25 0 41.5 11.5t16.5 26.5t-16.5 26t-41.5 11q-41 0 -100 -2.5t-64 -2.5v-65zM24 36v628q0 14 10.5 25t25.5 11h217q13 0 22 -9t9 -22v-27q65 7 158 7q150 0 246 -72t96 -177t-96 -176.5t-246 -71.5q-93 0 -158 7v-123
q0 -12 -11 -24t-25 -12h-212q-13 0 -24.5 10.5t-11.5 25.5z" />
    <glyph glyph-name="ydieresis" unicode="&#xff;" horiz-adv-x="746" 
d="M13 0zM424 764v50q0 15 10.5 25.5t25.5 10.5h96q15 0 25.5 -10.5t10.5 -25.5v-50q0 -15 -10.5 -25.5t-25.5 -10.5h-96q-15 0 -25.5 10.5t-10.5 25.5zM184 764v50q0 15 10.5 25.5t25.5 10.5h96q15 0 25.5 -10.5t10.5 -25.5v-50q0 -15 -10.5 -25.5t-25.5 -10.5h-96
q-15 0 -25.5 10.5t-10.5 25.5zM31 106v134q0 13 9.5 19.5t21.5 -0.5q125 -67 244 -67q58 0 99 21t41 51v6q-55 -18 -122 -18q-146 0 -228.5 67t-82.5 166v179q0 13 11 24.5t25 11.5h211q13 0 24.5 -10.5t11.5 -25.5v-155q0 -32 22 -51.5t58 -19.5q37 0 70 8v218
q0 14 10.5 25t25.5 11h212q13 0 24.5 -11t11.5 -25v-424q0 -104 -119.5 -177t-287.5 -73q-63 0 -138.5 19t-123.5 45q-30 17 -30 52z" />
    <glyph glyph-name="Amacron" unicode="&#x100;" horiz-adv-x="888" 
d="M13 0zM16 34l262 633q5 12 20 23q15 10 30 10h240q13 0 28 -10q16 -10 21 -23l256 -634q2 -5 2 -11q0 -10 -7 -16t-18 -6h-207q-13 0 -28 10t-20 24l-31 90h-245l-32 -90q-4 -11 -19 -22.5t-29 -11.5h-201q-12 0 -18 6q-7 8 -7 16q0 5 3 12zM378 290h130l-64 186z
M280 764v50q0 15 10.5 25.5t25.5 10.5h256q15 0 25.5 -10.5t10.5 -25.5v-50q0 -15 -10.5 -25.5t-25.5 -10.5h-256q-15 0 -25.5 10.5t-10.5 25.5z" />
    <glyph glyph-name="amacron" unicode="&#x101;" horiz-adv-x="760" 
d="M8 0zM8 213q0 90 85.5 158t196.5 68q57 0 97 -9t83 -38v40q0 34 -41 56t-106 22q-113 0 -214 -53q-8 -5 -19 0t-11 19v124q0 37 31 52q125 58 257 58q152 0 264.5 -76.5t112.5 -173.5v-424q0 -14 -10.5 -25t-25.5 -11h-194q-14 0 -25 9.5t-13 24.5v9q-100 -49 -202 -49
q-113 0 -189.5 55.5t-76.5 163.5zM291 213q0 -28 26 -43t66 -15q46 0 87 16v81q-43 21 -87 21q-39 0 -65.5 -16t-26.5 -44zM220 764v50q0 15 10.5 25.5t25.5 10.5h256q15 0 25.5 -10.5t10.5 -25.5v-50q0 -15 -10.5 -25.5t-25.5 -10.5h-256q-15 0 -25.5 10.5t-10.5 25.5z" />
    <glyph glyph-name="Abreve" unicode="&#x102;" horiz-adv-x="888" 
d="M13 0zM16 34l262 633q5 12 20 23q15 10 30 10h240q13 0 28 -10q16 -10 21 -23l256 -634q2 -5 2 -11q0 -10 -7 -16t-18 -6h-207q-13 0 -28 10t-20 24l-31 90h-245l-32 -90q-4 -11 -19 -22.5t-29 -11.5h-201q-12 0 -18 6q-7 8 -7 16q0 5 3 12zM378 290h130l-64 186z
M196 822q-4 9 3 18.5t20 9.5h164q5 0 7 -5q19 -38 54 -38t54 38q2 5 7 5h164q13 0 20 -10t3 -18q-20 -41 -89.5 -67.5t-158.5 -26.5t-158.5 26.5t-89.5 67.5z" />
    <glyph glyph-name="abreve" unicode="&#x103;" horiz-adv-x="760" 
d="M8 0zM8 213q0 90 85.5 158t196.5 68q57 0 97 -9t83 -38v40q0 34 -41 56t-106 22q-113 0 -214 -53q-8 -5 -19 0t-11 19v124q0 37 31 52q125 58 257 58q152 0 264.5 -76.5t112.5 -173.5v-424q0 -14 -10.5 -25t-25.5 -11h-194q-14 0 -25 9.5t-13 24.5v9q-100 -49 -202 -49
q-113 0 -189.5 55.5t-76.5 163.5zM291 213q0 -28 26 -43t66 -15q46 0 87 16v81q-43 21 -87 21q-39 0 -65.5 -16t-26.5 -44zM136 822q-4 9 3 18.5t20 9.5h164q5 0 7 -5q19 -38 54 -38t54 38q2 5 7 5h164q13 0 20 -10t3 -18q-20 -41 -89.5 -67.5t-158.5 -26.5t-158.5 26.5
t-89.5 67.5z" />
    <glyph glyph-name="Aogonek" unicode="&#x104;" horiz-adv-x="888" 
d="M378 290h130l-64 186zM16 33l262 634q6 13 20.5 23t29.5 10h240q13 0 28.5 -10t20.5 -23l256 -634q5 -13 -1.5 -21t-21.5 -8h-14q-34 0 -55.5 -6t-28 -12.5t-6.5 -14.5q0 -10 13 -16.5t36 -6.5q31 0 59 12q11 4 20.5 -2t8.5 -20l-2 -41q-2 -35 -33 -48q-42 -19 -114 -19
q-69 0 -117.5 32.5t-48.5 78.5q0 38 44 71q-13 10 -17 22l-31 90h-245l-32 -90q-4 -11 -19 -22.5t-29 -11.5h-201q-13 0 -20.5 10t-1.5 23z" />
    <glyph glyph-name="aogonek" unicode="&#x105;" horiz-adv-x="760" 
d="M291 213q0 -28 26 -43t66 -15q46 0 87 16v81q-43 21 -87 21q-39 0 -65.5 -16t-26.5 -44zM8 213q0 90 85.5 158t196.5 68q57 0 97 -9t83 -38v40q0 34 -41 56t-106 22q-113 0 -214 -53q-8 -5 -19 0t-11 19v124q0 37 31 52q125 58 257 58q152 0 264.5 -76.5t112.5 -173.5
v-424q0 -15 -7 -23.5t-21 -8.5q-28 0 -47.5 -6t-26 -13t-6.5 -14q0 -10 13 -16.5t36 -6.5q31 0 59 12q11 4 20.5 -2t8.5 -20l-2 -41q-2 -35 -33 -48q-42 -19 -114 -19q-69 0 -117.5 32.5t-48.5 78.5q0 34 36 65q12 9 12 20.5t-9 16.5t-21 0q-100 -49 -202 -49
q-113 0 -189.5 55.5t-76.5 163.5z" />
    <glyph glyph-name="Cacute" unicode="&#x106;" horiz-adv-x="766" 
d="M12 0zM12 350q0 163 124 261.5t331 98.5q73 0 145.5 -15.5t105.5 -37.5q30 -20 30 -53v-156q0 -13 -7.5 -18t-19.5 3q-39 28 -102 46t-135 18q-82 0 -135 -37.5t-53 -109.5t52.5 -109.5t135.5 -37.5q72 0 136 18t101 47q7 7 17 2.5t10 -18.5v-156q0 -36 -30 -54
q-35 -21 -104 -36.5t-142 -15.5q-209 0 -334.5 98.5t-125.5 261.5zM359 760l32 58q17 32 53 32h213l-107 -98q-27 -24 -63 -24h-109q-12 0 -18.5 11t-0.5 21z" />
    <glyph glyph-name="cacute" unicode="&#x107;" horiz-adv-x="766" 
d="M12 0zM12 0zM12 350q0 163 124 261.5t331 98.5q73 0 145.5 -15.5t105.5 -37.5q30 -20 30 -53v-156q0 -13 -7.5 -18t-19.5 3q-39 28 -102 46t-135 18q-82 0 -135 -37.5t-53 -109.5t52.5 -109.5t135.5 -37.5q72 0 136 18t101 47q7 7 17 2.5t10 -18.5v-156q0 -36 -30 -54
q-35 -21 -104 -36.5t-142 -15.5q-209 0 -334.5 98.5t-125.5 261.5zM359 760l32 58q17 32 53 32h213l-107 -98q-27 -24 -63 -24h-109q-12 0 -18.5 11t-0.5 21z" />
    <glyph glyph-name="Ccircumflex" unicode="&#x108;" horiz-adv-x="766" 
d="M12 0zM12 350q0 163 124 261.5t331 98.5q73 0 145.5 -15.5t105.5 -37.5q30 -20 30 -53v-156q0 -13 -7.5 -18t-19.5 3q-39 28 -102 46t-135 18q-82 0 -135 -37.5t-53 -109.5t52.5 -109.5t135.5 -37.5q72 0 136 18t101 47q7 7 17 2.5t10 -18.5v-156q0 -36 -30 -54
q-35 -21 -104 -36.5t-142 -15.5q-209 0 -334.5 98.5t-125.5 261.5zM194 752l80 74q27 24 60 24h216q33 0 60 -24l80 -74q9 -8 7 -16t-16 -8h-150q-33 0 -52 31l-37 59l-37 -59q-19 -31 -52 -31h-150q-13 0 -16 7t7 17z" />
    <glyph glyph-name="ccircumflex" unicode="&#x109;" horiz-adv-x="766" 
d="M12 0zM194 752l80 74q27 24 60 24h216q33 0 60 -24l80 -74q9 -8 7 -16t-16 -8h-150q-33 0 -52 31l-37 59l-37 -59q-19 -31 -52 -31h-150q-13 0 -16 7t7 17zM12 350q0 163 124 261.5t331 98.5q73 0 145.5 -15.5t105.5 -37.5q30 -20 30 -53v-156q0 -13 -7.5 -18t-19.5 3
q-39 28 -102 46t-135 18q-82 0 -135 -37.5t-53 -109.5t52.5 -109.5t135.5 -37.5q72 0 136 18t101 47q7 7 17 2.5t10 -18.5v-156q0 -36 -30 -54q-35 -21 -104 -36.5t-142 -15.5q-209 0 -334.5 98.5t-125.5 261.5z" />
    <glyph glyph-name="Cdotaccent" unicode="&#x10a;" horiz-adv-x="766" 
d="M12 0zM12 350q0 163 124 261.5t331 98.5q73 0 145.5 -15.5t105.5 -37.5q30 -20 30 -53v-156q0 -13 -7.5 -18t-19.5 3q-39 28 -102 46t-135 18q-82 0 -135 -37.5t-53 -109.5t52.5 -109.5t135.5 -37.5q72 0 136 18t101 47q7 7 17 2.5t10 -18.5v-156q0 -36 -30 -54
q-35 -21 -104 -36.5t-142 -15.5q-209 0 -334.5 98.5t-125.5 261.5zM328 764v50q0 10 11 23t25 13h156q13 0 24.5 -11t11.5 -25v-50q0 -10 -11 -23t-25 -13h-156q-13 0 -24.5 11t-11.5 25z" />
    <glyph glyph-name="cdotaccent" unicode="&#x10b;" horiz-adv-x="766" 
d="M12 0zM328 764v50q0 10 11 23t25 13h156q13 0 24.5 -11t11.5 -25v-50q0 -10 -11 -23t-25 -13h-156q-13 0 -24.5 11t-11.5 25zM12 350q0 163 124 261.5t331 98.5q73 0 145.5 -15.5t105.5 -37.5q30 -20 30 -53v-156q0 -13 -7.5 -18t-19.5 3q-39 28 -102 46t-135 18
q-82 0 -135 -37.5t-53 -109.5t52.5 -109.5t135.5 -37.5q72 0 136 18t101 47q7 7 17 2.5t10 -18.5v-156q0 -36 -30 -54q-35 -21 -104 -36.5t-142 -15.5q-209 0 -334.5 98.5t-125.5 261.5z" />
    <glyph glyph-name="Ccaron" unicode="&#x10c;" horiz-adv-x="766" 
d="M12 0zM12 350q0 163 124 261.5t331 98.5q73 0 145.5 -15.5t105.5 -37.5q30 -20 30 -53v-156q0 -13 -7.5 -18t-19.5 3q-39 28 -102 46t-135 18q-82 0 -135 -37.5t-53 -109.5t52.5 -109.5t135.5 -37.5q72 0 136 18t101 47q7 7 17 2.5t10 -18.5v-156q0 -36 -30 -54
q-35 -21 -104 -36.5t-142 -15.5q-209 0 -334.5 98.5t-125.5 261.5zM194 826q-7 6 -3.5 15t12.5 9h149q34 0 53 -31l37 -59l37 59q19 31 53 31h149q9 0 12.5 -9t-3.5 -15l-80 -74q-27 -24 -61 -24h-214q-34 0 -61 24z" />
    <glyph glyph-name="ccaron" unicode="&#x10d;" horiz-adv-x="766" 
d="M12 0zM194 826q-7 6 -3.5 15t12.5 9h149q34 0 53 -31l37 -59l37 59q19 31 53 31h149q9 0 12.5 -9t-3.5 -15l-80 -74q-27 -24 -61 -24h-214q-34 0 -61 24zM12 350q0 163 124 261.5t331 98.5q73 0 145.5 -15.5t105.5 -37.5q30 -20 30 -53v-156q0 -13 -7.5 -18t-19.5 3
q-39 28 -102 46t-135 18q-82 0 -135 -37.5t-53 -109.5t52.5 -109.5t135.5 -37.5q72 0 136 18t101 47q7 7 17 2.5t10 -18.5v-156q0 -36 -30 -54q-35 -21 -104 -36.5t-142 -15.5q-209 0 -334.5 98.5t-125.5 261.5z" />
    <glyph glyph-name="Dcaron" unicode="&#x10e;" horiz-adv-x="854" 
d="M24 0zM304 214h86q74 0 119 39t45 97t-45 97t-119 39h-86v-272zM24 36v628q0 14 10.5 25t25.5 11q39 0 150 3t184 3q191 0 319.5 -104.5t128.5 -251.5t-128.5 -251.5t-319.5 -104.5q-73 0 -184.5 3t-149.5 3q-12 0 -24 11t-12 25zM105 826q-7 6 -3.5 15t12.5 9h149
q34 0 53 -31l37 -59l37 59q19 31 53 31h149q9 0 12.5 -9t-3.5 -15l-80 -74q-27 -24 -61 -24h-214q-34 0 -61 24z" />
    <glyph glyph-name="dcaron" unicode="&#x10f;" horiz-adv-x="854" 
d="M24 0zM105 826q-7 6 -3.5 15t12.5 9h149q34 0 53 -31l37 -59l37 59q19 31 53 31h149q9 0 12.5 -9t-3.5 -15l-80 -74q-27 -24 -61 -24h-214q-34 0 -61 24zM304 214h86q74 0 119 39t45 97t-45 97t-119 39h-86v-272zM24 36v628q0 14 10.5 25t25.5 11q39 0 150 3t184 3
q191 0 319.5 -104.5t128.5 -251.5t-128.5 -251.5t-319.5 -104.5q-73 0 -184.5 3t-149.5 3q-12 0 -24 11t-12 25z" />
    <glyph glyph-name="Dcroat" unicode="&#x110;" horiz-adv-x="896" 
d="M4 0zM4 309v82q0 11 11 23.5t25 12.5h26v237q0 14 10.5 25t25.5 11q39 0 150 3t184 3q191 0 319.5 -104.5t128.5 -251.5t-128.5 -251.5t-319.5 -104.5q-73 0 -184.5 3t-149.5 3q-12 0 -24 11t-12 25v237h-26q-14 0 -25 10.5t-11 25.5zM346 209h96q73 0 113.5 40.5
t40.5 100.5t-40.5 100.5t-113.5 40.5h-96v-64h70q14 0 25 -10.5t11 -25.5v-82q0 -11 -11 -23.5t-25 -12.5h-70v-64z" />
    <glyph glyph-name="dcroat" unicode="&#x111;" horiz-adv-x="896" 
d="M4 0zM4 309v82q0 11 11 23.5t25 12.5h26v237q0 14 10.5 25t25.5 11q39 0 150 3t184 3q191 0 319.5 -104.5t128.5 -251.5t-128.5 -251.5t-319.5 -104.5q-73 0 -184.5 3t-149.5 3q-12 0 -24 11t-12 25v237h-26q-14 0 -25 10.5t-11 25.5zM346 209h96q73 0 113.5 40.5
t40.5 100.5t-40.5 100.5t-113.5 40.5h-96v-64h70q14 0 25 -10.5t11 -25.5v-82q0 -11 -11 -23.5t-25 -12.5h-70v-64z" />
    <glyph glyph-name="Emacron" unicode="&#x112;" horiz-adv-x="729" 
d="M24 0zM24 36v628q0 14 10.5 25t25.5 11h618q14 0 25 -10.5t11 -25.5v-137q0 -13 -11 -24.5t-25 -11.5h-370v-58h310q14 0 25 -10.5t11 -25.5v-94q0 -12 -11 -24t-25 -12h-310v-58h370q14 0 25 -10.5t11 -25.5v-137q0 -13 -11 -24.5t-25 -11.5h-618q-14 0 -25 10.5
t-11 25.5zM204 764v50q0 15 10.5 25.5t25.5 10.5h256q15 0 25.5 -10.5t10.5 -25.5v-50q0 -15 -10.5 -25.5t-25.5 -10.5h-256q-15 0 -25.5 10.5t-10.5 25.5z" />
    <glyph glyph-name="emacron" unicode="&#x113;" horiz-adv-x="854" 
d="M12 0zM12 350q0 162 119 261t313 99t296 -88.5t102 -257.5v-42q0 -13 -11.5 -24.5t-24.5 -11.5h-496q40 -80 198 -80q51 0 108.5 7.5t88 14.5t51.5 14q12 4 23 -4.5t11 -21.5v-145q0 -16 -9.5 -28.5t-24.5 -17.5q-12 -4 -50.5 -11.5t-113 -15.5t-146.5 -8
q-204 0 -319 98.5t-115 261.5zM306 422h266v17q0 25 -36.5 45t-91.5 20q-109 0 -138 -82zM278 764v50q0 15 10.5 25.5t25.5 10.5h256q15 0 25.5 -10.5t10.5 -25.5v-50q0 -15 -10.5 -25.5t-25.5 -10.5h-256q-15 0 -25.5 10.5t-10.5 25.5z" />
    <glyph glyph-name="Ebreve" unicode="&#x114;" horiz-adv-x="729" 
d="M24 0zM24 36v628q0 14 10.5 25t25.5 11h618q14 0 25 -10.5t11 -25.5v-137q0 -13 -11 -24.5t-25 -11.5h-370v-58h310q14 0 25 -10.5t11 -25.5v-94q0 -12 -11 -24t-25 -12h-310v-58h370q14 0 25 -10.5t11 -25.5v-137q0 -13 -11 -24.5t-25 -11.5h-618q-14 0 -25 10.5
t-11 25.5zM120 822q-4 9 3 18.5t20 9.5h164q5 0 7 -5q19 -38 54 -38t54 38q2 5 7 5h164q13 0 20 -10t3 -18q-20 -41 -89.5 -67.5t-158.5 -26.5t-158.5 26.5t-89.5 67.5z" />
    <glyph glyph-name="ebreve" unicode="&#x115;" horiz-adv-x="854" 
d="M12 0zM12 350q0 162 119 261t313 99t296 -88.5t102 -257.5v-42q0 -13 -11.5 -24.5t-24.5 -11.5h-496q40 -80 198 -80q51 0 108.5 7.5t88 14.5t51.5 14q12 4 23 -4.5t11 -21.5v-145q0 -16 -9.5 -28.5t-24.5 -17.5q-12 -4 -50.5 -11.5t-113 -15.5t-146.5 -8
q-204 0 -319 98.5t-115 261.5zM306 422h266v17q0 25 -36.5 45t-91.5 20q-109 0 -138 -82zM194 822q-4 9 3 18.5t20 9.5h164q5 0 7 -5q19 -38 54 -38t54 38q2 5 7 5h164q13 0 20 -10t3 -18q-20 -41 -89.5 -67.5t-158.5 -26.5t-158.5 26.5t-89.5 67.5z" />
    <glyph glyph-name="Edotaccent" unicode="&#x116;" horiz-adv-x="729" 
d="M24 0zM24 36v628q0 14 10.5 25t25.5 11h618q14 0 25 -10.5t11 -25.5v-137q0 -13 -11 -24.5t-25 -11.5h-370v-58h310q14 0 25 -10.5t11 -25.5v-94q0 -12 -11 -24t-25 -12h-310v-58h370q14 0 25 -10.5t11 -25.5v-137q0 -13 -11 -24.5t-25 -11.5h-618q-14 0 -25 10.5
t-11 25.5zM254 764v50q0 10 11 23t25 13h156q13 0 24.5 -11t11.5 -25v-50q0 -10 -11 -23t-25 -13h-156q-13 0 -24.5 11t-11.5 25z" />
    <glyph glyph-name="edotaccent" unicode="&#x117;" horiz-adv-x="854" 
d="M12 0zM12 350q0 162 119 261t313 99t296 -88.5t102 -257.5v-42q0 -13 -11.5 -24.5t-24.5 -11.5h-496q40 -80 198 -80q51 0 108.5 7.5t88 14.5t51.5 14q12 4 23 -4.5t11 -21.5v-145q0 -16 -9.5 -28.5t-24.5 -17.5q-12 -4 -50.5 -11.5t-113 -15.5t-146.5 -8
q-204 0 -319 98.5t-115 261.5zM306 422h266v17q0 25 -36.5 45t-91.5 20q-109 0 -138 -82zM328 764v50q0 10 11 23t25 13h156q13 0 24.5 -11t11.5 -25v-50q0 -10 -11 -23t-25 -13h-156q-13 0 -24.5 11t-11.5 25z" />
    <glyph glyph-name="Eogonek" unicode="&#x118;" horiz-adv-x="729" 
d="M24 36v628q0 14 10.5 25t25.5 11h618q14 0 25 -10.5t11 -25.5v-137q0 -13 -11 -24.5t-25 -11.5h-370v-58h310q14 0 25 -10.5t11 -25.5v-94q0 -12 -11 -24t-25 -12h-310v-58h370q14 0 25 -10.5t11 -25.5v-137q0 -12 -10.5 -22t-25.5 -10h-12q-34 0 -55.5 -6t-28 -12.5
t-6.5 -14.5q0 -10 13 -16.5t36 -6.5q31 0 59 12q11 4 20.5 -2t8.5 -20l-2 -41q-2 -35 -33 -48q-42 -19 -114 -19q-69 0 -117.5 32.5t-48.5 78.5q0 30 30 59h-368q-14 0 -25 10.5t-11 25.5z" />
    <glyph glyph-name="eogonek" unicode="&#x119;" horiz-adv-x="854" 
d="M306 422h266v17q0 25 -36.5 45t-91.5 20q-109 0 -138 -82zM12 350q0 162 119 261t313 99t296 -88.5t102 -257.5v-42q0 -10 -11 -23t-25 -13h-496q40 -80 198 -80q51 0 108.5 7.5t88 14.5t51.5 14q8 2 21 -5.5t13 -20.5v-145q0 -17 -11.5 -27.5t-23.5 -12.5
q-103 -15 -103 -48q0 -26 49 -26q31 0 59 12q11 4 20.5 -2t8.5 -20l-2 -50q-2 -34 -33 -48q-42 -19 -114 -19q-69 0 -117.5 32.5t-48.5 78.5q0 24 19 50q-24 -1 -47 -1q-204 0 -319 98.5t-115 261.5z" />
    <glyph glyph-name="Ecaron" unicode="&#x11a;" horiz-adv-x="729" 
d="M24 0zM24 36v628q0 14 10.5 25t25.5 11h618q14 0 25 -10.5t11 -25.5v-137q0 -13 -11 -24.5t-25 -11.5h-370v-58h310q14 0 25 -10.5t11 -25.5v-94q0 -12 -11 -24t-25 -12h-310v-58h370q14 0 25 -10.5t11 -25.5v-137q0 -13 -11 -24.5t-25 -11.5h-618q-14 0 -25 10.5
t-11 25.5zM120 826q-7 6 -3.5 15t12.5 9h149q34 0 53 -31l37 -59l37 59q19 31 53 31h149q9 0 12.5 -9t-3.5 -15l-80 -74q-27 -24 -61 -24h-214q-34 0 -61 24z" />
    <glyph glyph-name="ecaron" unicode="&#x11b;" horiz-adv-x="854" 
d="M12 0zM12 350q0 162 119 261t313 99t296 -88.5t102 -257.5v-42q0 -13 -11.5 -24.5t-24.5 -11.5h-496q40 -80 198 -80q51 0 108.5 7.5t88 14.5t51.5 14q12 4 23 -4.5t11 -21.5v-145q0 -16 -9.5 -28.5t-24.5 -17.5q-12 -4 -50.5 -11.5t-113 -15.5t-146.5 -8
q-204 0 -319 98.5t-115 261.5zM306 422h266v17q0 25 -36.5 45t-91.5 20q-109 0 -138 -82zM194 826q-7 6 -3.5 15t12.5 9h149q34 0 53 -31l37 -59l37 59q19 31 53 31h149q9 0 12.5 -9t-3.5 -15l-80 -74q-27 -24 -61 -24h-214q-34 0 -61 24z" />
    <glyph glyph-name="Gcircumflex" unicode="&#x11c;" horiz-adv-x="836" 
d="M12 0zM12 350q0 163 115 261.5t319 98.5q72 0 146.5 -8t113 -15.5t50.5 -11.5q15 -5 24.5 -17.5t9.5 -28.5v-141q0 -13 -10.5 -21.5t-23.5 -4.5q-31 10 -103 23t-145 13q-212 0 -212 -148q0 -66 43.5 -106t124.5 -40q72 0 138 9v44h-102q-12 0 -24 11t-12 25v89
q0 12 11 24t25 12h286q14 0 25 -10.5t11 -25.5v-246q0 -37 -30 -56q-80 -49 -149.5 -69.5t-178.5 -20.5q-206 0 -329 99.5t-123 260.5zM206 755l80 74q27 24 60 24h216q33 0 60 -24l80 -74q9 -8 7 -16t-16 -8h-150q-33 0 -52 31l-37 59l-37 -59q-19 -31 -52 -31h-150
q-13 0 -16 7t7 17z" />
    <glyph glyph-name="gcircumflex" unicode="&#x11d;" horiz-adv-x="836" 
d="M12 0zM12 0zM12 350q0 163 115 261.5t319 98.5q72 0 146.5 -8t113 -15.5t50.5 -11.5q15 -5 24.5 -17.5t9.5 -28.5v-141q0 -13 -10.5 -21.5t-23.5 -4.5q-31 10 -103 23t-145 13q-212 0 -212 -148q0 -66 43.5 -106t124.5 -40q72 0 138 9v44h-102q-12 0 -24 11t-12 25v89
q0 12 11 24t25 12h286q14 0 25 -10.5t11 -25.5v-246q0 -37 -30 -56q-80 -49 -149.5 -69.5t-178.5 -20.5q-206 0 -329 99.5t-123 260.5zM206 755l80 74q27 24 60 24h216q33 0 60 -24l80 -74q9 -8 7 -16t-16 -8h-150q-33 0 -52 31l-37 59l-37 -59q-19 -31 -52 -31h-150
q-13 0 -16 7t7 17z" />
    <glyph glyph-name="Gbreve" unicode="&#x11e;" horiz-adv-x="836" 
d="M12 0zM12 350q0 163 115 261.5t319 98.5q72 0 146.5 -8t113 -15.5t50.5 -11.5q15 -5 24.5 -17.5t9.5 -28.5v-141q0 -13 -10.5 -21.5t-23.5 -4.5q-31 10 -103 23t-145 13q-212 0 -212 -148q0 -66 43.5 -106t124.5 -40q72 0 138 9v44h-102q-12 0 -24 11t-12 25v89
q0 12 11 24t25 12h286q14 0 25 -10.5t11 -25.5v-246q0 -37 -30 -56q-80 -49 -149.5 -69.5t-178.5 -20.5q-206 0 -329 99.5t-123 260.5zM206 825q-4 9 3 18.5t20 9.5h164q5 0 7 -5q19 -38 54 -38t54 38q2 5 7 5h164q13 0 20 -10t3 -18q-20 -41 -89.5 -67.5t-158.5 -26.5
t-158.5 26.5t-89.5 67.5z" />
    <glyph glyph-name="gbreve" unicode="&#x11f;" horiz-adv-x="836" 
d="M12 0zM12 0zM12 350q0 163 115 261.5t319 98.5q72 0 146.5 -8t113 -15.5t50.5 -11.5q15 -5 24.5 -17.5t9.5 -28.5v-141q0 -13 -10.5 -21.5t-23.5 -4.5q-31 10 -103 23t-145 13q-212 0 -212 -148q0 -66 43.5 -106t124.5 -40q72 0 138 9v44h-102q-12 0 -24 11t-12 25v89
q0 12 11 24t25 12h286q14 0 25 -10.5t11 -25.5v-246q0 -37 -30 -56q-80 -49 -149.5 -69.5t-178.5 -20.5q-206 0 -329 99.5t-123 260.5zM206 825q-4 9 3 18.5t20 9.5h164q5 0 7 -5q19 -38 54 -38t54 38q2 5 7 5h164q13 0 20 -10t3 -18q-20 -41 -89.5 -67.5t-158.5 -26.5
t-158.5 26.5t-89.5 67.5z" />
    <glyph glyph-name="Gdotaccent" unicode="&#x120;" horiz-adv-x="836" 
d="M12 0zM12 350q0 163 115 261.5t319 98.5q72 0 146.5 -8t113 -15.5t50.5 -11.5q15 -5 24.5 -17.5t9.5 -28.5v-141q0 -13 -10.5 -21.5t-23.5 -4.5q-31 10 -103 23t-145 13q-212 0 -212 -148q0 -66 43.5 -106t124.5 -40q72 0 138 9v44h-102q-12 0 -24 11t-12 25v89
q0 12 11 24t25 12h286q14 0 25 -10.5t11 -25.5v-246q0 -37 -30 -56q-80 -49 -149.5 -69.5t-178.5 -20.5q-206 0 -329 99.5t-123 260.5zM340 767v50q0 10 11 23t25 13h156q13 0 24.5 -11t11.5 -25v-50q0 -10 -11 -23t-25 -13h-156q-13 0 -24.5 11t-11.5 25z" />
    <glyph glyph-name="gdotaccent" unicode="&#x121;" horiz-adv-x="836" 
d="M12 0zM12 0zM12 350q0 163 115 261.5t319 98.5q72 0 146.5 -8t113 -15.5t50.5 -11.5q15 -5 24.5 -17.5t9.5 -28.5v-141q0 -13 -10.5 -21.5t-23.5 -4.5q-31 10 -103 23t-145 13q-212 0 -212 -148q0 -66 43.5 -106t124.5 -40q72 0 138 9v44h-102q-12 0 -24 11t-12 25v89
q0 12 11 24t25 12h286q14 0 25 -10.5t11 -25.5v-246q0 -37 -30 -56q-80 -49 -149.5 -69.5t-178.5 -20.5q-206 0 -329 99.5t-123 260.5zM340 767v50q0 10 11 23t25 13h156q13 0 24.5 -11t11.5 -25v-50q0 -10 -11 -23t-25 -13h-156q-13 0 -24.5 11t-11.5 25z" />
    <glyph glyph-name="Gcommaaccent" unicode="&#x122;" horiz-adv-x="836" 
d="M12 0zM12 350q0 163 115 261.5t319 98.5q72 0 146.5 -8t113 -15.5t50.5 -11.5q15 -5 24.5 -17.5t9.5 -28.5v-141q0 -13 -10.5 -21.5t-23.5 -4.5q-31 10 -103 23t-145 13q-212 0 -212 -148q0 -66 43.5 -106t124.5 -40q72 0 138 9v44h-102q-12 0 -24 11t-12 25v89
q0 12 11 24t25 12h286q14 0 25 -10.5t11 -25.5v-246q0 -37 -30 -56q-80 -49 -149.5 -69.5t-178.5 -20.5q-206 0 -329 99.5t-123 260.5zM356 -68q0 10 11 23t25 13h144q13 0 24.5 -11t11.5 -25v-40l-20 -32q-20 -30 -56 -30h-125l22 52h-37v50z" />
    <glyph glyph-name="gcommaaccent" unicode="&#x123;" horiz-adv-x="836" 
d="M12 0zM12 0zM12 350q0 163 115 261.5t319 98.5q72 0 146.5 -8t113 -15.5t50.5 -11.5q15 -5 24.5 -17.5t9.5 -28.5v-141q0 -13 -10.5 -21.5t-23.5 -4.5q-31 10 -103 23t-145 13q-212 0 -212 -148q0 -66 43.5 -106t124.5 -40q72 0 138 9v44h-102q-12 0 -24 11t-12 25v89
q0 12 11 24t25 12h286q14 0 25 -10.5t11 -25.5v-246q0 -37 -30 -56q-80 -49 -149.5 -69.5t-178.5 -20.5q-206 0 -329 99.5t-123 260.5zM356 -68q0 10 11 23t25 13h144q13 0 24.5 -11t11.5 -25v-40l-20 -32q-20 -30 -56 -30h-125l22 52h-37v50z" />
    <glyph glyph-name="Hcircumflex" unicode="&#x124;" horiz-adv-x="838" 
d="M24 0zM24 36v628q0 14 10.5 25t25.5 11h212q13 0 24.5 -11t11.5 -25v-206h222v206q0 13 11 24.5t25 11.5h212q13 0 24.5 -11t11.5 -25v-628q0 -14 -10.5 -25t-25.5 -11h-212q-13 0 -24.5 11t-11.5 25v208h-222v-208q0 -13 -11 -24.5t-25 -11.5h-212q-13 0 -24.5 10.5
t-11.5 25.5zM176 752l80 74q27 24 60 24h216q33 0 60 -24l80 -74q9 -8 7 -16t-16 -8h-150q-33 0 -52 31l-37 59l-37 -59q-19 -31 -52 -31h-150q-13 0 -16 7t7 17z" />
    <glyph glyph-name="hcircumflex" unicode="&#x125;" horiz-adv-x="838" 
d="M24 0zM24 0zM24 36v628q0 14 10.5 25t25.5 11h212q13 0 24.5 -11t11.5 -25v-206h222v206q0 13 11 24.5t25 11.5h212q13 0 24.5 -11t11.5 -25v-628q0 -14 -10.5 -25t-25.5 -11h-212q-13 0 -24.5 11t-11.5 25v208h-222v-208q0 -13 -11 -24.5t-25 -11.5h-212
q-13 0 -24.5 10.5t-11.5 25.5zM176 752l80 74q27 24 60 24h216q33 0 60 -24l80 -74q9 -8 7 -16t-16 -8h-150q-33 0 -52 31l-37 59l-37 -59q-19 -31 -52 -31h-150q-13 0 -16 7t7 17z" />
    <glyph glyph-name="Hbar" unicode="&#x126;" horiz-adv-x="882" 
d="M2 552v26q0 12 11 24t25 12h8v50q0 14 10.5 25t25.5 11h212q13 0 24.5 -11t11.5 -25v-50h222v50q0 13 10.5 24.5t25.5 11.5h212q13 0 24.5 -11t11.5 -25v-50h8q14 0 25 -10.5t11 -25.5v-26q0 -12 -11 -24t-25 -12h-8v-480q0 -14 -10.5 -25t-25.5 -11h-212q-13 0 -24.5 11
t-11.5 25v178h-222v-178q0 -13 -11 -24.5t-25 -11.5h-212q-13 0 -24.5 10.5t-11.5 25.5v480h-8q-14 0 -25 10.5t-11 25.5zM552 516h-222v-88h222v88z" />
    <glyph glyph-name="hbar" unicode="&#x127;" horiz-adv-x="882" 
d="M2 0zM2 552v26q0 12 11 24t25 12h8v50q0 14 10.5 25t25.5 11h212q13 0 24.5 -11t11.5 -25v-50h222v50q0 13 10.5 24.5t25.5 11.5h212q13 0 24.5 -11t11.5 -25v-50h8q14 0 25 -10.5t11 -25.5v-26q0 -12 -11 -24t-25 -12h-8v-480q0 -14 -10.5 -25t-25.5 -11h-212
q-13 0 -24.5 11t-11.5 25v178h-222v-178q0 -13 -11 -24.5t-25 -11.5h-212q-13 0 -24.5 10.5t-11.5 25.5v480h-8q-14 0 -25 10.5t-11 25.5zM552 516h-222v-88h222v88z" />
    <glyph glyph-name="Itilde" unicode="&#x128;" horiz-adv-x="332" 
d="M11 0zM24 36v628q0 14 10.5 25t25.5 11h212q13 0 24.5 -11t11.5 -25v-628q0 -14 -10.5 -25t-25.5 -11h-212q-13 0 -24.5 10.5t-11.5 25.5zM11 741v69q-1 13 11 21q26 19 63 19q35 0 81 -18q33 -12 67 -12q40 0 71 17q17 9 17 -7v-63q0 -18 -13 -27q-29 -20 -70 -20
q-36 0 -72 14q-40 16 -75 16t-63 -16q-17 -9 -17 7z" />
    <glyph glyph-name="itilde" unicode="&#x129;" horiz-adv-x="332" 
d="M11 0zM11 0zM24 36v628q0 14 10.5 25t25.5 11h212q13 0 24.5 -11t11.5 -25v-628q0 -14 -10.5 -25t-25.5 -11h-212q-13 0 -24.5 10.5t-11.5 25.5zM11 741v69q-1 13 11 21q26 19 63 19q35 0 81 -18q33 -12 67 -12q40 0 71 17q17 9 17 -7v-63q0 -18 -13 -27q-29 -20 -70 -20
q-36 0 -72 14q-40 16 -75 16t-63 -16q-17 -9 -17 7z" />
    <glyph glyph-name="Imacron" unicode="&#x12a;" horiz-adv-x="332" 
d="M2 0zM24 36v628q0 14 10.5 25t25.5 11h212q13 0 24.5 -11t11.5 -25v-628q0 -14 -10.5 -25t-25.5 -11h-212q-13 0 -24.5 10.5t-11.5 25.5zM2 764v50q0 15 10.5 25.5t25.5 10.5h256q15 0 25.5 -10.5t10.5 -25.5v-50q0 -15 -10.5 -25.5t-25.5 -10.5h-256q-15 0 -25.5 10.5
t-10.5 25.5z" />
    <glyph glyph-name="imacron" unicode="&#x12b;" horiz-adv-x="332" 
d="M2 0zM2 0zM24 36v628q0 14 10.5 25t25.5 11h212q13 0 24.5 -11t11.5 -25v-628q0 -14 -10.5 -25t-25.5 -11h-212q-13 0 -24.5 10.5t-11.5 25.5zM2 764v50q0 15 10.5 25.5t25.5 10.5h256q15 0 25.5 -10.5t10.5 -25.5v-50q0 -15 -10.5 -25.5t-25.5 -10.5h-256
q-15 0 -25.5 10.5t-10.5 25.5z" />
    <glyph glyph-name="Ibreve" unicode="&#x12c;" horiz-adv-x="332" 
d="M0 0zM24 36v628q0 14 10.5 25t25.5 11h212q13 0 24.5 -11t11.5 -25v-628q0 -14 -10.5 -25t-25.5 -11h-212q-13 0 -24.5 10.5t-11.5 25.5zM-82 822q-4 9 3 18.5t20 9.5h164q5 0 7 -5q19 -38 54 -38t54 38q2 5 7 5h164q13 0 20 -10t3 -18q-20 -41 -89.5 -67.5t-158.5 -26.5
t-158.5 26.5t-89.5 67.5z" />
    <glyph glyph-name="ibreve" unicode="&#x12d;" horiz-adv-x="332" 
d="M0 0zM0 0zM24 36v628q0 14 10.5 25t25.5 11h212q13 0 24.5 -11t11.5 -25v-628q0 -14 -10.5 -25t-25.5 -11h-212q-13 0 -24.5 10.5t-11.5 25.5zM-82 822q-4 9 3 18.5t20 9.5h164q5 0 7 -5q19 -38 54 -38t54 38q2 5 7 5h164q13 0 20 -10t3 -18q-20 -41 -89.5 -67.5
t-158.5 -26.5t-158.5 26.5t-89.5 67.5z" />
    <glyph glyph-name="Iogonek" unicode="&#x12e;" horiz-adv-x="332" 
d="M24 36v628q0 14 10.5 25t25.5 11h212q13 0 24.5 -11t11.5 -25v-624q0 -14 -10.5 -25t-24.5 -11q-85 0 -85 -33q0 -11 12.5 -17.5t36.5 -6.5q38 0 90 26l-5 -110q-60 -33 -146 -33q-68 0 -115.5 32.5t-47.5 78.5q0 33 33 63q-22 11 -22 32z" />
    <glyph glyph-name="iogonek" unicode="&#x12f;" horiz-adv-x="332" 
d="M13 0zM24 36v628q0 14 10.5 25t25.5 11h212q13 0 24.5 -11t11.5 -25v-624q0 -14 -10.5 -25t-24.5 -11q-85 0 -85 -33q0 -11 12.5 -17.5t36.5 -6.5q38 0 90 26l-5 -110q-60 -33 -146 -33q-68 0 -115.5 32.5t-47.5 78.5q0 33 33 63q-22 11 -22 32z" />
    <glyph glyph-name="Idotaccent" unicode="&#x130;" horiz-adv-x="332" 
d="M24 0zM24 36v628q0 14 10.5 25t25.5 11h212q13 0 24.5 -11t11.5 -25v-628q0 -14 -10.5 -25t-25.5 -11h-212q-13 0 -24.5 10.5t-11.5 25.5zM52 764v50q0 10 11 23t25 13h156q13 0 24.5 -11t11.5 -25v-50q0 -10 -11 -23t-25 -13h-156q-13 0 -24.5 11t-11.5 25z" />
    <glyph glyph-name="dotlessi" unicode="&#x131;" horiz-adv-x="332" 
d="M24 36v628q0 15 10.5 25.5t25.5 10.5h212q15 0 25.5 -10.5t10.5 -25.5v-628q0 -15 -10.5 -25.5t-25.5 -10.5h-212q-15 0 -25.5 10.5t-10.5 25.5z" />
    <glyph glyph-name="IJ" unicode="&#x132;" horiz-adv-x="690" 
d="M25 346v318q0 14 10.5 25t25.5 11h212q13 0 24.5 -11t11.5 -25v-318q0 -14 -10.5 -25t-25.5 -11h-212q-13 0 -24.5 10.5t-11.5 25.5zM25 104v154q0 13 9.5 19t22.5 -1q118 -64 223 -64q52 0 81 21t29 51v204h-36v176q0 13 11 24.5t25 11.5h248q13 0 24.5 -10.5
t11.5 -25.5v-424q0 -98 -109 -174t-268 -76q-63 0 -127.5 17.5t-112.5 44.5q-32 19 -32 52z" />
    <glyph glyph-name="ij" unicode="&#x133;" horiz-adv-x="690" 
d="M25 0zM25 346v318q0 14 10.5 25t25.5 11h212q13 0 24.5 -11t11.5 -25v-318q0 -14 -10.5 -25t-25.5 -11h-212q-13 0 -24.5 10.5t-11.5 25.5zM25 104v154q0 13 9.5 19t22.5 -1q118 -64 223 -64q52 0 81 21t29 51v204h-36v176q0 13 11 24.5t25 11.5h248q13 0 24.5 -10.5
t11.5 -25.5v-424q0 -98 -109 -174t-268 -76q-63 0 -127.5 17.5t-112.5 44.5q-32 19 -32 52z" />
    <glyph glyph-name="Jcircumflex" unicode="&#x134;" horiz-adv-x="673" 
d="M18 0zM18 104v154q0 13 9 19t22 -1q114 -64 224 -64q44 0 72 21.5t28 50.5v204h-315q-14 0 -25 10.5t-11 25.5v140q0 13 11 24.5t25 11.5h563q14 0 25 -10.5t11 -25.5v-424q0 -97 -109 -173.5t-258 -76.5q-62 0 -126 17t-115 44q-31 17 -31 53zM84 752l80 74q27 24 60 24
h216q33 0 60 -24l80 -74q9 -8 7 -16t-16 -8h-150q-33 0 -52 31l-37 59l-37 -59q-19 -31 -52 -31h-150q-13 0 -16 7t7 17z" />
    <glyph glyph-name="jcircumflex" unicode="&#x135;" horiz-adv-x="673" 
d="M18 0zM18 0zM18 104v154q0 13 9 19t22 -1q114 -64 224 -64q44 0 72 21.5t28 50.5v204h-315q-14 0 -25 10.5t-11 25.5v140q0 13 11 24.5t25 11.5h563q14 0 25 -10.5t11 -25.5v-424q0 -97 -109 -173.5t-258 -76.5q-62 0 -126 17t-115 44q-31 17 -31 53zM84 752l80 74
q27 24 60 24h216q33 0 60 -24l80 -74q9 -8 7 -16t-16 -8h-150q-33 0 -52 31l-37 59l-37 -59q-19 -31 -52 -31h-150q-13 0 -16 7t7 17z" />
    <glyph glyph-name="Kcommaaccent" unicode="&#x136;" horiz-adv-x="826" 
d="M24 0zM24 36v628q0 14 10.5 25t25.5 11h212q13 0 24.5 -11t11.5 -25v-206h41l113 210q17 32 53 32h263q14 0 18 -8q5 -9 -4 -20l-242 -313l252 -330q6 -8 6 -15q0 -14 -20 -14h-279q-35 0 -53 32l-116 212h-32v-208q0 -13 -11 -24.5t-25 -11.5h-212q-13 0 -24.5 10.5
t-11.5 25.5zM269 -68q0 10 11 23t25 13h144q13 0 24.5 -11t11.5 -25v-40l-20 -32q-20 -30 -56 -30h-125l22 52h-37v50z" />
    <glyph glyph-name="kcommaaccent" unicode="&#x137;" horiz-adv-x="826" 
d="M24 0zM24 0zM24 36v628q0 14 10.5 25t25.5 11h212q13 0 24.5 -11t11.5 -25v-206h41l113 210q17 32 53 32h263q14 0 18 -8q5 -9 -4 -20l-242 -313l252 -330q6 -8 6 -15q0 -14 -20 -14h-279q-35 0 -53 32l-116 212h-32v-208q0 -13 -11 -24.5t-25 -11.5h-212
q-13 0 -24.5 10.5t-11.5 25.5zM269 -68q0 10 11 23t25 13h144q13 0 24.5 -11t11.5 -25v-40l-20 -32q-20 -30 -56 -30h-125l22 52h-37v50z" />
    <glyph glyph-name="kgreenlandic" unicode="&#x138;" horiz-adv-x="826" 
d="M24 0zM24 36v628q0 14 10.5 25t25.5 11h212q13 0 24.5 -11t11.5 -25v-206h41l113 210q17 32 53 32h263q14 0 18 -8q5 -9 -4 -20l-242 -313l252 -330q6 -8 6 -15q0 -14 -20 -14h-279q-35 0 -53 32l-116 212h-32v-208q0 -13 -11 -24.5t-25 -11.5h-212q-13 0 -24.5 10.5
t-11.5 25.5z" />
    <glyph glyph-name="Lacute" unicode="&#x139;" horiz-adv-x="638" 
d="M24 0zM24 36v628q0 14 10.5 25t25.5 11h212q13 0 24.5 -11t11.5 -25v-450h122l164 5q13 0 24.5 -10.5t11.5 -24.5v-148q0 -13 -11 -24.5t-25 -11.5h-534q-14 0 -25 10.5t-11 25.5zM127 760l32 58q17 32 53 32h213l-107 -98q-27 -24 -63 -24h-109q-12 0 -18.5 11t-0.5 21z
" />
    <glyph glyph-name="lacute" unicode="&#x13a;" horiz-adv-x="638" 
d="M24 0zM24 0zM24 36v628q0 14 10.5 25t25.5 11h212q13 0 24.5 -11t11.5 -25v-450h122l164 5q13 0 24.5 -10.5t11.5 -24.5v-148q0 -13 -11 -24.5t-25 -11.5h-534q-14 0 -25 10.5t-11 25.5zM127 760l32 58q17 32 53 32h213l-107 -98q-27 -24 -63 -24h-109q-12 0 -18.5 11
t-0.5 21z" />
    <glyph glyph-name="Lcommaaccent" unicode="&#x13b;" horiz-adv-x="638" 
d="M24 0zM24 36v628q0 14 10.5 25t25.5 11h212q13 0 24.5 -11t11.5 -25v-450h122l164 5q13 0 24.5 -10.5t11.5 -24.5v-148q0 -13 -11 -24.5t-25 -11.5h-534q-14 0 -25 10.5t-11 25.5zM213 -68q0 10 11 23t25 13h144q13 0 24.5 -11t11.5 -25v-40l-20 -32q-20 -30 -56 -30
h-125l22 52h-37v50z" />
    <glyph glyph-name="lcommaaccent" unicode="&#x13c;" horiz-adv-x="638" 
d="M24 0zM24 0zM24 36v628q0 14 10.5 25t25.5 11h212q13 0 24.5 -11t11.5 -25v-450h122l164 5q13 0 24.5 -10.5t11.5 -24.5v-148q0 -13 -11 -24.5t-25 -11.5h-534q-14 0 -25 10.5t-11 25.5zM213 -68q0 10 11 23t25 13h144q13 0 24.5 -11t11.5 -25v-40l-20 -32
q-20 -30 -56 -30h-125l22 52h-37v50z" />
    <glyph glyph-name="Lcaron" unicode="&#x13d;" horiz-adv-x="642" 
d="M24 0zM24 36v628q0 14 10.5 25t25.5 11h212q13 0 24.5 -11t11.5 -25v-450h122l164 5q13 0 24.5 -10.5t11.5 -24.5v-148q0 -13 -11 -24.5t-25 -11.5h-534q-14 0 -25 10.5t-11 25.5zM396 549v125q0 15 10.5 25.5t25.5 10.5h164q13 0 24.5 -11t11.5 -25v-128q0 -36 -15 -69
l-39 -89q-15 -33 -51 -33h-75q-13 0 -18.5 10.5t-1.5 24.5l30 123h-30q-15 0 -25.5 10.5t-10.5 25.5z" />
    <glyph glyph-name="lcaron" unicode="&#x13e;" horiz-adv-x="642" 
d="M24 0zM24 0zM24 36v628q0 14 10.5 25t25.5 11h212q13 0 24.5 -11t11.5 -25v-450h122l164 5q13 0 24.5 -10.5t11.5 -24.5v-148q0 -13 -11 -24.5t-25 -11.5h-534q-14 0 -25 10.5t-11 25.5zM396 549v125q0 15 10.5 25.5t25.5 10.5h164q13 0 24.5 -11t11.5 -25v-128
q0 -36 -15 -69l-39 -89q-15 -33 -51 -33h-75q-13 0 -18.5 10.5t-1.5 24.5l30 123h-30q-15 0 -25.5 10.5t-10.5 25.5z" />
    <glyph glyph-name="Ldot" unicode="&#x13f;" horiz-adv-x="638" 
d="M24 0zM24 36v628q0 14 10.5 25t25.5 11h212q13 0 24.5 -11t11.5 -25v-450h122l164 5q13 0 24.5 -10.5t11.5 -24.5v-148q0 -13 -11 -24.5t-25 -11.5h-534q-14 0 -25 10.5t-11 25.5zM406 295zM406 331v148q0 13 11 24.5t25 11.5h148q13 0 24.5 -11t11.5 -25v-148
q0 -13 -11 -24.5t-25 -11.5h-148q-13 0 -24.5 11t-11.5 25z" />
    <glyph glyph-name="ldot" unicode="&#x140;" horiz-adv-x="638" 
d="M24 0zM24 0zM24 36v628q0 14 10.5 25t25.5 11h212q13 0 24.5 -11t11.5 -25v-450h122l164 5q13 0 24.5 -10.5t11.5 -24.5v-148q0 -13 -11 -24.5t-25 -11.5h-534q-14 0 -25 10.5t-11 25.5zM406 295zM406 331v148q0 13 11 24.5t25 11.5h148q13 0 24.5 -11t11.5 -25v-148
q0 -13 -11 -24.5t-25 -11.5h-148q-13 0 -24.5 11t-11.5 25z" />
    <glyph glyph-name="Lslash" unicode="&#x141;" horiz-adv-x="726" 
d="M4 229v162q0 16 9.5 28.5t25.5 16.5l39 10v218q0 15 10.5 25.5t25.5 10.5h212q15 0 25.5 -10.5t10.5 -25.5v-144l223 58q14 4 24.5 -4t10.5 -23v-162q0 -13 -10.5 -27t-24.5 -18l-223 -58v-72h148l172 5q13 0 24.5 -10.5t11.5 -24.5v-148q0 -15 -10.5 -25.5t-25.5 -10.5
h-568q-15 0 -25.5 10.5t-10.5 25.5v176l-39 -10q-13 -3 -24 5.5t-11 21.5z" />
    <glyph glyph-name="lslash" unicode="&#x142;" horiz-adv-x="726" 
d="M4 0zM4 229v162q0 16 9.5 28.5t25.5 16.5l39 10v218q0 15 10.5 25.5t25.5 10.5h212q15 0 25.5 -10.5t10.5 -25.5v-144l223 58q14 4 24.5 -4t10.5 -23v-162q0 -13 -10.5 -27t-24.5 -18l-223 -58v-72h148l172 5q13 0 24.5 -10.5t11.5 -24.5v-148q0 -15 -10.5 -25.5
t-25.5 -10.5h-568q-15 0 -25.5 10.5t-10.5 25.5v176l-39 -10q-13 -3 -24 5.5t-11 21.5z" />
    <glyph glyph-name="Nacute" unicode="&#x143;" horiz-adv-x="848" 
d="M24 0zM24 36v628q0 14 10.5 25t25.5 11h314q14 0 29 -10t21 -23l164 -405v402q0 14 10.5 25t25.5 11h164q13 0 24.5 -11t11.5 -25v-628q0 -14 -10.5 -25t-25.5 -11h-310q-14 0 -29 10t-21 23l-168 401v-398q0 -14 -10.5 -25t-25.5 -11h-164q-13 0 -24.5 11t-11.5 25z
M343 760l32 58q17 32 53 32h213l-107 -98q-27 -24 -63 -24h-109q-12 0 -18.5 11t-0.5 21z" />
    <glyph glyph-name="nacute" unicode="&#x144;" horiz-adv-x="826" 
d="M24 0zM24 36v628q0 14 10.5 25t25.5 11h206q13 0 25 -10.5t13 -25.5v-9q99 51 201 51q145 0 225 -71.5t80 -173.5v-425q0 -14 -10.5 -25t-25.5 -11h-214q-13 0 -24.5 11t-11.5 25v381q0 31 -19 51.5t-61 20.5q-67 0 -134 -31v-422q0 -14 -10.5 -25t-25.5 -11h-214
q-14 0 -25 10.5t-11 25.5zM343 760l32 58q17 32 53 32h213l-107 -98q-27 -24 -63 -24h-109q-12 0 -18.5 11t-0.5 21z" />
    <glyph glyph-name="Ncommaaccent" unicode="&#x145;" horiz-adv-x="848" 
d="M24 0zM24 36v628q0 14 10.5 25t25.5 11h314q14 0 29 -10t21 -23l164 -405v402q0 14 10.5 25t25.5 11h164q13 0 24.5 -11t11.5 -25v-628q0 -14 -10.5 -25t-25.5 -11h-310q-14 0 -29 10t-21 23l-168 401v-398q0 -14 -10.5 -25t-25.5 -11h-164q-13 0 -24.5 11t-11.5 25z
M309 -68q0 10 11 23t25 13h144q13 0 24.5 -11t11.5 -25v-40l-20 -32q-20 -30 -56 -30h-125l22 52h-37v50z" />
    <glyph glyph-name="ncommaaccent" unicode="&#x146;" horiz-adv-x="826" 
d="M24 0zM24 36v628q0 14 10.5 25t25.5 11h206q13 0 25 -10.5t13 -25.5v-9q99 51 201 51q145 0 225 -71.5t80 -173.5v-425q0 -14 -10.5 -25t-25.5 -11h-214q-13 0 -24.5 11t-11.5 25v381q0 31 -19 51.5t-61 20.5q-67 0 -134 -31v-422q0 -14 -10.5 -25t-25.5 -11h-214
q-14 0 -25 10.5t-11 25.5zM309 -68q0 10 11 23t25 13h144q13 0 24.5 -11t11.5 -25v-40l-20 -32q-20 -30 -56 -30h-125l22 52h-37v50z" />
    <glyph glyph-name="Ncaron" unicode="&#x147;" horiz-adv-x="848" 
d="M24 0zM24 36v628q0 14 10.5 25t25.5 11h314q14 0 29 -10t21 -23l164 -405v402q0 14 10.5 25t25.5 11h164q13 0 24.5 -11t11.5 -25v-628q0 -14 -10.5 -25t-25.5 -11h-310q-14 0 -29 10t-21 23l-168 401v-398q0 -14 -10.5 -25t-25.5 -11h-164q-13 0 -24.5 11t-11.5 25z
M178 826q-7 6 -3.5 15t12.5 9h149q34 0 53 -31l37 -59l37 59q19 31 53 31h149q9 0 12.5 -9t-3.5 -15l-80 -74q-27 -24 -61 -24h-214q-34 0 -61 24z" />
    <glyph glyph-name="ncaron" unicode="&#x148;" horiz-adv-x="826" 
d="M24 0zM24 36v628q0 14 10.5 25t25.5 11h206q13 0 25 -10.5t13 -25.5v-9q99 51 201 51q145 0 225 -71.5t80 -173.5v-425q0 -14 -10.5 -25t-25.5 -11h-214q-13 0 -24.5 11t-11.5 25v381q0 31 -19 51.5t-61 20.5q-67 0 -134 -31v-422q0 -14 -10.5 -25t-25.5 -11h-214
q-14 0 -25 10.5t-11 25.5zM178 826q-7 6 -3.5 15t12.5 9h149q34 0 53 -31l37 -59l37 59q19 31 53 31h149q9 0 12.5 -9t-3.5 -15l-80 -74q-27 -24 -61 -24h-214q-34 0 -61 24z" />
    <glyph glyph-name="Omacron" unicode="&#x14c;" 
d="M12 0zM12 350q0 161 118.5 260.5t311.5 99.5t311.5 -99.5t118.5 -260.5t-118.5 -260.5t-311.5 -99.5t-311.5 99.5t-118.5 260.5zM309 350q0 -66 36.5 -106t96.5 -40t96.5 40t36.5 106t-36.5 106t-96.5 40t-96.5 -40t-36.5 -106zM278 764v50q0 15 10.5 25.5t25.5 10.5h256
q15 0 25.5 -10.5t10.5 -25.5v-50q0 -15 -10.5 -25.5t-25.5 -10.5h-256q-15 0 -25.5 10.5t-10.5 25.5z" />
    <glyph glyph-name="omacron" unicode="&#x14d;" 
d="M12 0zM12 0zM12 350q0 161 118.5 260.5t311.5 99.5t311.5 -99.5t118.5 -260.5t-118.5 -260.5t-311.5 -99.5t-311.5 99.5t-118.5 260.5zM309 350q0 -66 36.5 -106t96.5 -40t96.5 40t36.5 106t-36.5 106t-96.5 40t-96.5 -40t-36.5 -106zM278 764v50q0 15 10.5 25.5
t25.5 10.5h256q15 0 25.5 -10.5t10.5 -25.5v-50q0 -15 -10.5 -25.5t-25.5 -10.5h-256q-15 0 -25.5 10.5t-10.5 25.5z" />
    <glyph glyph-name="Obreve" unicode="&#x14e;" 
d="M12 0zM12 350q0 161 118.5 260.5t311.5 99.5t311.5 -99.5t118.5 -260.5t-118.5 -260.5t-311.5 -99.5t-311.5 99.5t-118.5 260.5zM309 350q0 -66 36.5 -106t96.5 -40t96.5 40t36.5 106t-36.5 106t-96.5 40t-96.5 -40t-36.5 -106zM194 822q-4 9 3 18.5t20 9.5h164q5 0 7 -5
q19 -38 54 -38t54 38q2 5 7 5h164q13 0 20 -10t3 -18q-20 -41 -89.5 -67.5t-158.5 -26.5t-158.5 26.5t-89.5 67.5z" />
    <glyph glyph-name="obreve" unicode="&#x14f;" 
d="M12 0zM12 0zM12 350q0 161 118.5 260.5t311.5 99.5t311.5 -99.5t118.5 -260.5t-118.5 -260.5t-311.5 -99.5t-311.5 99.5t-118.5 260.5zM309 350q0 -66 36.5 -106t96.5 -40t96.5 40t36.5 106t-36.5 106t-96.5 40t-96.5 -40t-36.5 -106zM194 822q-4 9 3 18.5t20 9.5h164
q5 0 7 -5q19 -38 54 -38t54 38q2 5 7 5h164q13 0 20 -10t3 -18q-20 -41 -89.5 -67.5t-158.5 -26.5t-158.5 26.5t-89.5 67.5z" />
    <glyph glyph-name="Ohungarumlaut" unicode="&#x150;" 
d="M12 0zM12 350q0 161 118.5 260.5t311.5 99.5t311.5 -99.5t118.5 -260.5t-118.5 -260.5t-311.5 -99.5t-311.5 99.5t-118.5 260.5zM309 350q0 -66 36.5 -106t96.5 -40t96.5 40t36.5 106t-36.5 106t-96.5 40t-96.5 -40t-36.5 -106zM241 760l32 58q17 32 53 32h183l-107 -98
q-27 -24 -63 -24h-79q-12 0 -18.5 11t-0.5 21zM501 760l32 58q17 32 53 32h183l-107 -98q-27 -24 -63 -24h-79q-12 0 -18.5 11t-0.5 21z" />
    <glyph glyph-name="ohungarumlaut" unicode="&#x151;" 
d="M12 0zM12 0zM12 350q0 161 118.5 260.5t311.5 99.5t311.5 -99.5t118.5 -260.5t-118.5 -260.5t-311.5 -99.5t-311.5 99.5t-118.5 260.5zM309 350q0 -66 36.5 -106t96.5 -40t96.5 40t36.5 106t-36.5 106t-96.5 40t-96.5 -40t-36.5 -106zM241 760l32 58q17 32 53 32h183
l-107 -98q-27 -24 -63 -24h-79q-12 0 -18.5 11t-0.5 21zM501 760l32 58q17 32 53 32h183l-107 -98q-27 -24 -63 -24h-79q-12 0 -18.5 11t-0.5 21z" />
    <glyph glyph-name="OE" unicode="&#x152;" horiz-adv-x="1105" 
d="M309 350q0 -64 39.5 -100t101.5 -36v272q-62 0 -101.5 -36t-39.5 -100zM12 350q0 159 121.5 254.5t316.5 95.5h604q15 0 25.5 -10.5t10.5 -25.5v-142q0 -15 -10.5 -25.5t-25.5 -10.5h-340v-49h280q15 0 25.5 -10.5t10.5 -25.5v-102q0 -15 -10.5 -25.5t-25.5 -10.5h-280
v-49h340q15 0 25.5 -10.5t10.5 -25.5v-142q0 -15 -10.5 -25.5t-25.5 -10.5h-604q-195 0 -316.5 95.5t-121.5 254.5z" />
    <glyph glyph-name="oe" unicode="&#x153;" horiz-adv-x="1412" 
d="M309 350q0 -66 36.5 -106t96.5 -40t96.5 40t36.5 106t-36.5 106t-96.5 40t-96.5 -40t-36.5 -106zM12 350q0 161 118.5 260.5t311.5 99.5q167 0 276 -89q113 89 284 89q194 0 296 -88.5t102 -257.5v-42q0 -15 -10.5 -25.5t-25.5 -10.5h-496q40 -80 198 -80q120 0 246 35
q13 4 24.5 -4t11.5 -21v-145q0 -16 -9.5 -28t-25.5 -18q-12 -4 -50.5 -11.5t-112.5 -15.5t-146 -8q-184 0 -292 84q-108 -84 -270 -84q-193 0 -311.5 99.5t-118.5 260.5zM864 422h266v17q0 25 -36.5 45t-91.5 20q-109 0 -138 -82z" />
    <glyph glyph-name="Racute" unicode="&#x154;" horiz-adv-x="846" 
d="M24 0zM24 36v628q0 14 10.5 25t25.5 11q57 0 192 3t232 3q148 0 248 -68t100 -168q0 -74 -58 -133t-150 -83l185 -226q9 -10 5.5 -19t-18.5 -9h-298q-14 0 -29.5 9.5t-21.5 23.5l-94 207h-49v-204q0 -13 -11 -24.5t-25 -11.5h-208q-13 0 -24.5 11t-11.5 25zM304 429
q1 0 81.5 -2.5t119.5 -2.5q15 0 25.5 10t10.5 24t-11.5 24.5t-28.5 10.5q-38 0 -116 -2.5t-81 -2.5v-59zM318 760l32 58q17 32 53 32h213l-107 -98q-27 -24 -63 -24h-109q-12 0 -18.5 11t-0.5 21z" />
    <glyph glyph-name="racute" unicode="&#x155;" horiz-adv-x="846" 
d="M24 0zM24 0zM24 36v628q0 14 10.5 25t25.5 11q57 0 192 3t232 3q148 0 248 -68t100 -168q0 -74 -58 -133t-150 -83l185 -226q9 -10 5.5 -19t-18.5 -9h-298q-14 0 -29.5 9.5t-21.5 23.5l-94 207h-49v-204q0 -13 -11 -24.5t-25 -11.5h-208q-13 0 -24.5 11t-11.5 25z
M304 429q1 0 81.5 -2.5t119.5 -2.5q15 0 25.5 10t10.5 24t-11.5 24.5t-28.5 10.5q-38 0 -116 -2.5t-81 -2.5v-59zM318 760l32 58q17 32 53 32h213l-107 -98q-27 -24 -63 -24h-109q-12 0 -18.5 11t-0.5 21z" />
    <glyph glyph-name="Rcommaaccent" unicode="&#x156;" horiz-adv-x="846" 
d="M24 0zM24 36v628q0 14 10.5 25t25.5 11q57 0 192 3t232 3q148 0 248 -68t100 -168q0 -74 -58 -133t-150 -83l185 -226q9 -10 5.5 -19t-18.5 -9h-298q-14 0 -29.5 9.5t-21.5 23.5l-94 207h-49v-204q0 -13 -11 -24.5t-25 -11.5h-208q-13 0 -24.5 11t-11.5 25zM304 429
q1 0 81.5 -2.5t119.5 -2.5q15 0 25.5 10t10.5 24t-11.5 24.5t-28.5 10.5q-38 0 -116 -2.5t-81 -2.5v-59zM307 -68q0 10 11 23t25 13h144q13 0 24.5 -11t11.5 -25v-40l-20 -32q-20 -30 -56 -30h-125l22 52h-37v50z" />
    <glyph glyph-name="rcommaaccent" unicode="&#x157;" horiz-adv-x="846" 
d="M24 0zM24 0zM24 36v628q0 14 10.5 25t25.5 11q57 0 192 3t232 3q148 0 248 -68t100 -168q0 -74 -58 -133t-150 -83l185 -226q9 -10 5.5 -19t-18.5 -9h-298q-14 0 -29.5 9.5t-21.5 23.5l-94 207h-49v-204q0 -13 -11 -24.5t-25 -11.5h-208q-13 0 -24.5 11t-11.5 25z
M304 429q1 0 81.5 -2.5t119.5 -2.5q15 0 25.5 10t10.5 24t-11.5 24.5t-28.5 10.5q-38 0 -116 -2.5t-81 -2.5v-59zM307 -68q0 10 11 23t25 13h144q13 0 24.5 -11t11.5 -25v-40l-20 -32q-20 -30 -56 -30h-125l22 52h-37v50z" />
    <glyph glyph-name="Rcaron" unicode="&#x158;" horiz-adv-x="846" 
d="M24 0zM24 36v628q0 14 10.5 25t25.5 11q57 0 192 3t232 3q148 0 248 -68t100 -168q0 -74 -58 -133t-150 -83l185 -226q9 -10 5.5 -19t-18.5 -9h-298q-14 0 -29.5 9.5t-21.5 23.5l-94 207h-49v-204q0 -13 -11 -24.5t-25 -11.5h-208q-13 0 -24.5 11t-11.5 25zM304 429
q1 0 81.5 -2.5t119.5 -2.5q15 0 25.5 10t10.5 24t-11.5 24.5t-28.5 10.5q-38 0 -116 -2.5t-81 -2.5v-59zM153 826q-7 6 -3.5 15t12.5 9h149q34 0 53 -31l37 -59l37 59q19 31 53 31h149q9 0 12.5 -9t-3.5 -15l-80 -74q-27 -24 -61 -24h-214q-34 0 -61 24z" />
    <glyph glyph-name="rcaron" unicode="&#x159;" horiz-adv-x="846" 
d="M24 0zM24 0zM24 36v628q0 14 10.5 25t25.5 11q57 0 192 3t232 3q148 0 248 -68t100 -168q0 -74 -58 -133t-150 -83l185 -226q9 -10 5.5 -19t-18.5 -9h-298q-14 0 -29.5 9.5t-21.5 23.5l-94 207h-49v-204q0 -13 -11 -24.5t-25 -11.5h-208q-13 0 -24.5 11t-11.5 25z
M304 429q1 0 81.5 -2.5t119.5 -2.5q15 0 25.5 10t10.5 24t-11.5 24.5t-28.5 10.5q-38 0 -116 -2.5t-81 -2.5v-59zM153 826q-7 6 -3.5 15t12.5 9h149q34 0 53 -31l37 -59l37 59q19 31 53 31h149q9 0 12.5 -9t-3.5 -15l-80 -74q-27 -24 -61 -24h-214q-34 0 -61 24z" />
    <glyph glyph-name="Sacute" unicode="&#x15a;" horiz-adv-x="839" 
d="M14 0zM14 134v175q0 13 7 17.5t18 -5.5q71 -66 164 -96.5t188 -30.5q150 0 150 36q0 18 -14.5 23.5t-47.5 5.5q-10 0 -38.5 -0.5t-46.5 -0.5q-166 4 -267 71t-101 166q0 77 54 126.5t140 69.5t204 20q92 0 181 -16t131 -40q31 -18 31 -50v-123q0 -12 -9.5 -19.5
t-22.5 -1.5q-59 30 -144.5 48t-174.5 18q-97 0 -97 -35q0 -30 87 -30q48 0 99.5 -5.5t111.5 -21t106 -39.5t77 -65.5t31 -94.5q0 -108 -129 -177t-314 -69q-173 0 -342 93q-32 17 -32 51zM326 760l32 58q17 32 53 32h213l-107 -98q-27 -24 -63 -24h-109q-12 0 -18.5 11
t-0.5 21z" />
    <glyph glyph-name="sacute" unicode="&#x15b;" horiz-adv-x="839" 
d="M14 0zM14 0zM14 134v175q0 13 7 17.5t18 -5.5q71 -66 164 -96.5t188 -30.5q150 0 150 36q0 18 -14.5 23.5t-47.5 5.5q-10 0 -38.5 -0.5t-46.5 -0.5q-166 4 -267 71t-101 166q0 77 54 126.5t140 69.5t204 20q92 0 181 -16t131 -40q31 -18 31 -50v-123q0 -12 -9.5 -19.5
t-22.5 -1.5q-59 30 -144.5 48t-174.5 18q-97 0 -97 -35q0 -30 87 -30q48 0 99.5 -5.5t111.5 -21t106 -39.5t77 -65.5t31 -94.5q0 -108 -129 -177t-314 -69q-173 0 -342 93q-32 17 -32 51zM326 760l32 58q17 32 53 32h213l-107 -98q-27 -24 -63 -24h-109q-12 0 -18.5 11
t-0.5 21z" />
    <glyph glyph-name="Scircumflex" unicode="&#x15c;" horiz-adv-x="839" 
d="M14 0zM14 134v175q0 13 7 17.5t18 -5.5q71 -66 164 -96.5t188 -30.5q150 0 150 36q0 18 -14.5 23.5t-47.5 5.5q-10 0 -38.5 -0.5t-46.5 -0.5q-166 4 -267 71t-101 166q0 77 54 126.5t140 69.5t204 20q92 0 181 -16t131 -40q31 -18 31 -50v-123q0 -12 -9.5 -19.5
t-22.5 -1.5q-59 30 -144.5 48t-174.5 18q-97 0 -97 -35q0 -30 87 -30q48 0 99.5 -5.5t111.5 -21t106 -39.5t77 -65.5t31 -94.5q0 -108 -129 -177t-314 -69q-173 0 -342 93q-32 17 -32 51zM161 752l80 74q27 24 60 24h216q33 0 60 -24l80 -74q9 -8 7 -16t-16 -8h-150
q-33 0 -52 31l-37 59l-37 -59q-19 -31 -52 -31h-150q-13 0 -16 7t7 17z" />
    <glyph glyph-name="scircumflex" unicode="&#x15d;" horiz-adv-x="839" 
d="M14 0zM14 0zM14 134v175q0 13 7 17.5t18 -5.5q71 -66 164 -96.5t188 -30.5q150 0 150 36q0 18 -14.5 23.5t-47.5 5.5q-10 0 -38.5 -0.5t-46.5 -0.5q-166 4 -267 71t-101 166q0 77 54 126.5t140 69.5t204 20q92 0 181 -16t131 -40q31 -18 31 -50v-123q0 -12 -9.5 -19.5
t-22.5 -1.5q-59 30 -144.5 48t-174.5 18q-97 0 -97 -35q0 -30 87 -30q48 0 99.5 -5.5t111.5 -21t106 -39.5t77 -65.5t31 -94.5q0 -108 -129 -177t-314 -69q-173 0 -342 93q-32 17 -32 51zM161 752l80 74q27 24 60 24h216q33 0 60 -24l80 -74q9 -8 7 -16t-16 -8h-150
q-33 0 -52 31l-37 59l-37 -59q-19 -31 -52 -31h-150q-13 0 -16 7t7 17z" />
    <glyph glyph-name="Scedilla" unicode="&#x15e;" horiz-adv-x="839" 
d="M14 134v175q0 13 7 17.5t18 -5.5q71 -66 164 -96.5t188 -30.5q150 0 150 36q0 18 -14.5 23.5t-47.5 5.5q-10 0 -38.5 -0.5t-46.5 -0.5q-166 4 -267 71t-101 166q0 77 54 126.5t140 69.5t204 20q92 0 181 -16t131 -40q31 -18 31 -50v-123q0 -12 -9.5 -19.5t-22.5 -1.5
q-59 30 -144.5 48t-174.5 18q-97 0 -97 -35q0 -30 87 -30q48 0 99.5 -5.5t111.5 -21t106 -39.5t77 -65.5t31 -94.5q0 -70 -58 -126t-154.5 -87t-213.5 -33l-3 -15h13q46 0 78 -21.5t32 -51.5q0 -33 -35.5 -52.5t-84.5 -19.5q-53 0 -93 22l13 62q23 -9 41 -9q31 0 31 16
q0 7 -9.5 14t-27.5 7h-29l11 50q-149 11 -296 91q-32 17 -32 51z" />
    <glyph glyph-name="scedilla" unicode="&#x15f;" horiz-adv-x="839" 
d="M14 0zM14 134v175q0 13 7 17.5t18 -5.5q71 -66 164 -96.5t188 -30.5q150 0 150 36q0 18 -14.5 23.5t-47.5 5.5q-10 0 -38.5 -0.5t-46.5 -0.5q-166 4 -267 71t-101 166q0 77 54 126.5t140 69.5t204 20q92 0 181 -16t131 -40q31 -18 31 -50v-123q0 -12 -9.5 -19.5
t-22.5 -1.5q-59 30 -144.5 48t-174.5 18q-97 0 -97 -35q0 -30 87 -30q48 0 99.5 -5.5t111.5 -21t106 -39.5t77 -65.5t31 -94.5q0 -70 -58 -126t-154.5 -87t-213.5 -33l-3 -15h13q46 0 78 -21.5t32 -51.5q0 -33 -35.5 -52.5t-84.5 -19.5q-53 0 -93 22l13 62q23 -9 41 -9
q31 0 31 16q0 7 -9.5 14t-27.5 7h-29l11 50q-149 11 -296 91q-32 17 -32 51z" />
    <glyph glyph-name="Scaron" unicode="&#x160;" horiz-adv-x="839" 
d="M14 0zM14 134v175q0 13 7 17.5t18 -5.5q71 -66 164 -96.5t188 -30.5q150 0 150 36q0 18 -14.5 23.5t-47.5 5.5q-10 0 -38.5 -0.5t-46.5 -0.5q-166 4 -267 71t-101 166q0 77 54 126.5t140 69.5t204 20q92 0 181 -16t131 -40q31 -18 31 -50v-123q0 -12 -9.5 -19.5
t-22.5 -1.5q-59 30 -144.5 48t-174.5 18q-97 0 -97 -35q0 -30 87 -30q48 0 99.5 -5.5t111.5 -21t106 -39.5t77 -65.5t31 -94.5q0 -108 -129 -177t-314 -69q-173 0 -342 93q-32 17 -32 51zM161 826q-7 6 -3.5 15t12.5 9h149q34 0 53 -31l37 -59l37 59q19 31 53 31h149
q9 0 12.5 -9t-3.5 -15l-80 -74q-27 -24 -61 -24h-214q-34 0 -61 24z" />
    <glyph glyph-name="scaron" unicode="&#x161;" horiz-adv-x="839" 
d="M14 0zM14 0zM14 134v175q0 13 7 17.5t18 -5.5q71 -66 164 -96.5t188 -30.5q150 0 150 36q0 18 -14.5 23.5t-47.5 5.5q-10 0 -38.5 -0.5t-46.5 -0.5q-166 4 -267 71t-101 166q0 77 54 126.5t140 69.5t204 20q92 0 181 -16t131 -40q31 -18 31 -50v-123q0 -12 -9.5 -19.5
t-22.5 -1.5q-59 30 -144.5 48t-174.5 18q-97 0 -97 -35q0 -30 87 -30q48 0 99.5 -5.5t111.5 -21t106 -39.5t77 -65.5t31 -94.5q0 -108 -129 -177t-314 -69q-173 0 -342 93q-32 17 -32 51zM161 826q-7 6 -3.5 15t12.5 9h149q34 0 53 -31l37 -59l37 59q19 31 53 31h149
q9 0 12.5 -9t-3.5 -15l-80 -74q-27 -24 -61 -24h-214q-34 0 -61 24z" />
    <glyph glyph-name="Tcommaaccent" unicode="&#x162;" horiz-adv-x="740" 
d="M10 531v133q0 13 11 24.5t25 11.5h648q14 0 25 -10.5t11 -25.5v-133q0 -13 -11 -24.5t-25 -11.5h-176v-459q0 -14 -10.5 -25t-25.5 -11h-123l-5 -25h13q46 0 78 -21.5t32 -51.5q0 -33 -35.5 -52.5t-84.5 -19.5q-53 0 -93 22l13 62q23 -9 41 -9q31 0 31 16q0 7 -9.5 14
t-27.5 7h-29l12 58h-37q-13 0 -24.5 10.5t-11.5 25.5v459h-176q-13 0 -24.5 11t-11.5 25z" />
    <glyph glyph-name="tcommaaccent" unicode="&#x163;" horiz-adv-x="669" 
d="M16 240v422q0 14 10.5 26t25.5 14l212 22q13 1 24.5 -8.5t11.5 -23.5v-92h315q14 0 25 -10.5t11 -25.5v-140q0 -13 -11 -24.5t-25 -11.5h-315v-104q0 -29 28 -50.5t72 -21.5q102 0 224 64q8 6 19.5 1t11.5 -19v-154q0 -34 -31 -52q-48 -27 -113 -44.5t-128 -17.5h-15
l-3 -15h13q46 0 78 -21.5t32 -51.5q0 -33 -35.5 -52.5t-84.5 -19.5q-53 0 -93 22l13 62q23 -9 41 -9q31 0 31 16q0 7 -9.5 14t-27.5 7h-29l12 54q-123 20 -206.5 90.5t-83.5 153.5z" />
    <glyph glyph-name="Tcaron" unicode="&#x164;" horiz-adv-x="740" 
d="M10 0zM10 531v133q0 13 11 24.5t25 11.5h648q14 0 25 -10.5t11 -25.5v-133q0 -13 -11 -24.5t-25 -11.5h-176v-459q0 -14 -10.5 -25t-25.5 -11h-224q-13 0 -24.5 10.5t-11.5 25.5v459h-176q-13 0 -24.5 11t-11.5 25zM122 826q-7 6 -3.5 15t12.5 9h149q34 0 53 -31l37 -59
l37 59q19 31 53 31h149q9 0 12.5 -9t-3.5 -15l-80 -74q-27 -24 -61 -24h-214q-34 0 -61 24z" />
    <glyph glyph-name="tcaron" unicode="&#x165;" horiz-adv-x="751" 
d="M16 240v422q0 14 10.5 26t25.5 14l212 22q13 1 24.5 -8.5t11.5 -23.5v-92h136q14 0 25 -10.5t11 -25.5v-140q0 -13 -11 -24.5t-25 -11.5h-136v-104q0 -29 28 -50.5t72 -21.5q102 0 224 64q8 6 19.5 1t11.5 -19v-154q0 -34 -31 -52q-48 -27 -113 -44.5t-128 -17.5
q-149 0 -258 76.5t-109 173.5zM513 567v125q0 15 10.5 25.5t25.5 10.5h160q13 0 24.5 -11t11.5 -25v-128q0 -36 -15 -69l-39 -89q-15 -33 -51 -33h-71q-13 0 -18.5 10.5t-1.5 24.5l30 123h-30q-15 0 -25.5 10.5t-10.5 25.5z" />
    <glyph glyph-name="Tbar" unicode="&#x166;" horiz-adv-x="740" 
d="M110 298v102q0 15 10.5 25.5t25.5 10.5h76v59h-176q-13 0 -24.5 11t-11.5 25v133q0 13 11 24.5t25 11.5h648q14 0 25 -10.5t11 -25.5v-133q0 -13 -11 -24.5t-25 -11.5h-176v-59h86q15 0 25.5 -10.5t10.5 -25.5v-102q0 -15 -10.5 -25.5t-25.5 -10.5h-86v-226
q0 -14 -10.5 -25t-25.5 -11h-224q-13 0 -24.5 10.5t-11.5 25.5v226h-76q-15 0 -25.5 10.5t-10.5 25.5z" />
    <glyph glyph-name="tbar" unicode="&#x167;" horiz-adv-x="740" 
d="M10 530v133q0 13 11 24.5t25 11.5h648q14 0 25 -10.5t11 -25.5v-133q0 -13 -11 -24.5t-25 -11.5h-176v-59h86q15 0 25.5 -10.5t10.5 -25.5v-102q0 -15 -10.5 -25.5t-25.5 -10.5h-86v-226q0 -14 -10.5 -25t-25.5 -11h-224q-13 0 -24.5 11t-11.5 25v226h-76
q-15 0 -25.5 10.5t-10.5 25.5v102q0 15 10.5 25.5t25.5 10.5h76v59h-176q-13 0 -24.5 11t-11.5 25z" />
    <glyph glyph-name="Utilde" unicode="&#x168;" horiz-adv-x="780" 
d="M16 0zM16 306v358q0 14 10.5 25t25.5 11h216q13 0 24.5 -11t11.5 -25v-359q0 -45 22.5 -71t63.5 -26t63.5 26t22.5 71v359q0 14 10.5 25t25.5 11h216q13 0 24.5 -11t11.5 -25v-358q0 -141 -103 -228.5t-271 -87.5t-271 87.5t-103 228.5zM233 741v69q-1 13 11 21
q26 19 63 19q35 0 81 -18q33 -12 67 -12q40 0 71 17q17 9 17 -7v-63q0 -18 -13 -27q-29 -20 -70 -20q-36 0 -72 14q-40 16 -75 16t-63 -16q-17 -9 -17 7z" />
    <glyph glyph-name="utilde" unicode="&#x169;" horiz-adv-x="780" 
d="M16 0zM16 0zM16 306v358q0 14 10.5 25t25.5 11h216q13 0 24.5 -11t11.5 -25v-359q0 -45 22.5 -71t63.5 -26t63.5 26t22.5 71v359q0 14 10.5 25t25.5 11h216q13 0 24.5 -11t11.5 -25v-358q0 -141 -103 -228.5t-271 -87.5t-271 87.5t-103 228.5zM233 741v69q-1 13 11 21
q26 19 63 19q35 0 81 -18q33 -12 67 -12q40 0 71 17q17 9 17 -7v-63q0 -18 -13 -27q-29 -20 -70 -20q-36 0 -72 14q-40 16 -75 16t-63 -16q-17 -9 -17 7z" />
    <glyph glyph-name="Umacron" unicode="&#x16a;" horiz-adv-x="780" 
d="M16 0zM16 306v358q0 14 10.5 25t25.5 11h216q13 0 24.5 -11t11.5 -25v-359q0 -45 22.5 -71t63.5 -26t63.5 26t22.5 71v359q0 14 10.5 25t25.5 11h216q13 0 24.5 -11t11.5 -25v-358q0 -141 -103 -228.5t-271 -87.5t-271 87.5t-103 228.5zM224 764v50q0 15 10.5 25.5
t25.5 10.5h256q15 0 25.5 -10.5t10.5 -25.5v-50q0 -15 -10.5 -25.5t-25.5 -10.5h-256q-15 0 -25.5 10.5t-10.5 25.5z" />
    <glyph glyph-name="umacron" unicode="&#x16b;" horiz-adv-x="780" 
d="M16 0zM16 0zM16 306v358q0 14 10.5 25t25.5 11h216q13 0 24.5 -11t11.5 -25v-359q0 -45 22.5 -71t63.5 -26t63.5 26t22.5 71v359q0 14 10.5 25t25.5 11h216q13 0 24.5 -11t11.5 -25v-358q0 -141 -103 -228.5t-271 -87.5t-271 87.5t-103 228.5zM224 764v50q0 15 10.5 25.5
t25.5 10.5h256q15 0 25.5 -10.5t10.5 -25.5v-50q0 -15 -10.5 -25.5t-25.5 -10.5h-256q-15 0 -25.5 10.5t-10.5 25.5z" />
    <glyph glyph-name="Ubreve" unicode="&#x16c;" horiz-adv-x="780" 
d="M16 0zM16 306v358q0 14 10.5 25t25.5 11h216q13 0 24.5 -11t11.5 -25v-359q0 -45 22.5 -71t63.5 -26t63.5 26t22.5 71v359q0 14 10.5 25t25.5 11h216q13 0 24.5 -11t11.5 -25v-358q0 -141 -103 -228.5t-271 -87.5t-271 87.5t-103 228.5zM140 822q-4 9 3 18.5t20 9.5h164
q5 0 7 -5q19 -38 54 -38t54 38q2 5 7 5h164q13 0 20 -10t3 -18q-20 -41 -89.5 -67.5t-158.5 -26.5t-158.5 26.5t-89.5 67.5z" />
    <glyph glyph-name="ubreve" unicode="&#x16d;" horiz-adv-x="780" 
d="M16 0zM16 0zM16 306v358q0 14 10.5 25t25.5 11h216q13 0 24.5 -11t11.5 -25v-359q0 -45 22.5 -71t63.5 -26t63.5 26t22.5 71v359q0 14 10.5 25t25.5 11h216q13 0 24.5 -11t11.5 -25v-358q0 -141 -103 -228.5t-271 -87.5t-271 87.5t-103 228.5zM140 822q-4 9 3 18.5
t20 9.5h164q5 0 7 -5q19 -38 54 -38t54 38q2 5 7 5h164q13 0 20 -10t3 -18q-20 -41 -89.5 -67.5t-158.5 -26.5t-158.5 26.5t-89.5 67.5z" />
    <glyph glyph-name="Uring" unicode="&#x16e;" horiz-adv-x="780" 
d="M283 695q0 -44 30.5 -74.5t74.5 -30.5t74.5 30.5t30.5 74.5t-30.5 74.5t-74.5 30.5t-74.5 -30.5t-30.5 -74.5zM16 306v358q0 14 10.5 25t25.5 11h181q2 63 47 106.5t108 43.5t108 -43.5t47 -106.5h185q13 0 24.5 -11t11.5 -25v-358q0 -141 -103 -228.5t-271 -87.5
t-271 87.5t-103 228.5zM304 305q0 -45 22.5 -71t63.5 -26t63.5 26t22.5 71v262q-40 -27 -88 -27q-46 0 -84 25v-260z" />
    <glyph glyph-name="uring" unicode="&#x16f;" horiz-adv-x="780" 
d="M16 0zM283 695q0 -44 30.5 -74.5t74.5 -30.5t74.5 30.5t30.5 74.5t-30.5 74.5t-74.5 30.5t-74.5 -30.5t-30.5 -74.5zM16 306v358q0 14 10.5 25t25.5 11h181q2 63 47 106.5t108 43.5t108 -43.5t47 -106.5h185q13 0 24.5 -11t11.5 -25v-358q0 -141 -103 -228.5t-271 -87.5
t-271 87.5t-103 228.5zM304 305q0 -45 22.5 -71t63.5 -26t63.5 26t22.5 71v262q-40 -27 -88 -27q-46 0 -84 25v-260z" />
    <glyph glyph-name="Uhungarumlaut" unicode="&#x170;" horiz-adv-x="780" 
d="M16 0zM16 306v358q0 14 10.5 25t25.5 11h216q13 0 24.5 -11t11.5 -25v-359q0 -45 22.5 -71t63.5 -26t63.5 26t22.5 71v359q0 14 10.5 25t25.5 11h216q13 0 24.5 -11t11.5 -25v-358q0 -141 -103 -228.5t-271 -87.5t-271 87.5t-103 228.5zM187 760l32 58q17 32 53 32h183
l-107 -98q-27 -24 -63 -24h-79q-12 0 -18.5 11t-0.5 21zM447 760l32 58q17 32 53 32h183l-107 -98q-27 -24 -63 -24h-79q-12 0 -18.5 11t-0.5 21z" />
    <glyph glyph-name="uhungarumlaut" unicode="&#x171;" horiz-adv-x="780" 
d="M16 0zM16 0zM16 306v358q0 14 10.5 25t25.5 11h216q13 0 24.5 -11t11.5 -25v-359q0 -45 22.5 -71t63.5 -26t63.5 26t22.5 71v359q0 14 10.5 25t25.5 11h216q13 0 24.5 -11t11.5 -25v-358q0 -141 -103 -228.5t-271 -87.5t-271 87.5t-103 228.5zM187 760l32 58q17 32 53 32
h183l-107 -98q-27 -24 -63 -24h-79q-12 0 -18.5 11t-0.5 21zM447 760l32 58q17 32 53 32h183l-107 -98q-27 -24 -63 -24h-79q-12 0 -18.5 11t-0.5 21z" />
    <glyph glyph-name="Uogonek" unicode="&#x172;" horiz-adv-x="780" 
d="M16 306v358q0 15 10.5 25.5t25.5 10.5h216q15 0 25.5 -10.5t10.5 -25.5v-359q0 -45 22.5 -71t63.5 -26t63.5 26t22.5 71v359q0 15 10.5 25.5t25.5 10.5h216q15 0 25.5 -10.5t10.5 -25.5v-358q0 -82 -36.5 -148t-103.5 -108q-12 -7 -44 -21t-53.5 -26.5t-21.5 -21.5
q0 -24 46 -24q22 0 59 12q11 4 20.5 -3.5t8.5 -18.5l-2 -48q-2 -34 -33 -50q-35 -19 -114 -19q-69 0 -117.5 32.5t-48.5 78.5q0 25 20 51q-150 12 -239 97.5t-89 216.5z" />
    <glyph glyph-name="uogonek" unicode="&#x173;" horiz-adv-x="780" 
d="M16 0zM16 306v358q0 15 10.5 25.5t25.5 10.5h216q15 0 25.5 -10.5t10.5 -25.5v-359q0 -45 22.5 -71t63.5 -26t63.5 26t22.5 71v359q0 15 10.5 25.5t25.5 10.5h216q15 0 25.5 -10.5t10.5 -25.5v-358q0 -82 -36.5 -148t-103.5 -108q-12 -7 -44 -21t-53.5 -26.5t-21.5 -21.5
q0 -24 46 -24q22 0 59 12q11 4 20.5 -3.5t8.5 -18.5l-2 -48q-2 -34 -33 -50q-35 -19 -114 -19q-69 0 -117.5 32.5t-48.5 78.5q0 25 20 51q-150 12 -239 97.5t-89 216.5z" />
    <glyph glyph-name="Wcircumflex" unicode="&#x174;" horiz-adv-x="1152" 
d="M12 0zM14 666q-2 5 -2 10q0 10 7 17t19 7h225q13 0 27 -10.5t18 -24.5l76 -310l64 310q3 13 15.5 24t27.5 11h170q13 0 26.5 -10.5t16.5 -24.5l64 -310l76 310q3 13 16.5 24t28.5 11h225q11 0 18.5 -7t7.5 -17q0 -5 -2 -10l-223 -632q-5 -14 -19 -24t-29 -10h-174
q-13 0 -27 10.5t-17 24.5l-73 302l-73 -302q-3 -13 -16 -24t-28 -11h-174q-13 0 -28 10t-20 24zM324 752l80 74q27 24 60 24h216q33 0 60 -24l80 -74q9 -8 7 -16t-16 -8h-150q-33 0 -52 31l-37 59l-37 -59q-19 -31 -52 -31h-150q-13 0 -16 7t7 17z" />
    <glyph glyph-name="wcircumflex" unicode="&#x175;" horiz-adv-x="1152" 
d="M12 0zM12 0zM14 666q-2 5 -2 10q0 10 7 17t19 7h225q13 0 27 -10.5t18 -24.5l76 -310l64 310q3 13 15.5 24t27.5 11h170q13 0 26.5 -10.5t16.5 -24.5l64 -310l76 310q3 13 16.5 24t28.5 11h225q11 0 18.5 -7t7.5 -17q0 -5 -2 -10l-223 -632q-5 -14 -19 -24t-29 -10h-174
q-13 0 -27 10.5t-17 24.5l-73 302l-73 -302q-3 -13 -16 -24t-28 -11h-174q-13 0 -28 10t-20 24zM324 752l80 74q27 24 60 24h216q33 0 60 -24l80 -74q9 -8 7 -16t-16 -8h-150q-33 0 -52 31l-37 59l-37 -59q-19 -31 -52 -31h-150q-13 0 -16 7t7 17z" />
    <glyph glyph-name="Ycircumflex" unicode="&#x176;" horiz-adv-x="864" 
d="M18 0zM23 671q-5 7 -5 14q0 15 20 15h267q37 0 50 -33l89 -220l93 220q14 33 50 33h239q20 0 20 -17q0 -5 -5 -12l-267 -380v-255q0 -14 -10.5 -25t-25.5 -11h-212q-13 0 -24.5 11t-11.5 25v261zM201 755l80 74q27 24 60 24h216q33 0 60 -24l80 -74q9 -8 7 -16t-16 -8
h-150q-33 0 -52 31l-37 59l-37 -59q-19 -31 -52 -31h-150q-13 0 -16 7t7 17z" />
    <glyph glyph-name="ycircumflex" unicode="&#x177;" horiz-adv-x="746" 
d="M13 0zM140 752l80 74q27 24 60 24h216q33 0 60 -24l80 -74q9 -8 7 -16t-16 -8h-150q-33 0 -52 31l-37 59l-37 -59q-19 -31 -52 -31h-150q-13 0 -16 7t7 17zM31 106v134q0 13 9.5 19.5t21.5 -0.5q125 -67 244 -67q58 0 99 21t41 51v6q-55 -18 -122 -18q-146 0 -228.5 67
t-82.5 166v179q0 13 11 24.5t25 11.5h211q13 0 24.5 -10.5t11.5 -25.5v-155q0 -32 22 -51.5t58 -19.5q37 0 70 8v218q0 14 10.5 25t25.5 11h212q13 0 24.5 -11t11.5 -25v-424q0 -104 -119.5 -177t-287.5 -73q-63 0 -138.5 19t-123.5 45q-30 17 -30 52z" />
    <glyph glyph-name="Ydieresis" unicode="&#x178;" horiz-adv-x="864" 
d="M18 0zM23 671q-5 7 -5 14q0 15 20 15h267q37 0 50 -33l89 -220l93 220q14 33 50 33h239q20 0 20 -17q0 -5 -5 -12l-267 -380v-255q0 -14 -10.5 -25t-25.5 -11h-212q-13 0 -24.5 11t-11.5 25v261zM485 767v50q0 15 10.5 25.5t25.5 10.5h96q15 0 25.5 -10.5t10.5 -25.5v-50
q0 -15 -10.5 -25.5t-25.5 -10.5h-96q-15 0 -25.5 10.5t-10.5 25.5zM245 767v50q0 15 10.5 25.5t25.5 10.5h96q15 0 25.5 -10.5t10.5 -25.5v-50q0 -15 -10.5 -25.5t-25.5 -10.5h-96q-15 0 -25.5 10.5t-10.5 25.5z" />
    <glyph glyph-name="Zacute" unicode="&#x179;" horiz-adv-x="728" 
d="M14 0zM14 36v106q0 36 26 61l300 283h-283q-14 0 -25 10.5t-11 25.5v142q0 13 11 24.5t25 11.5h616q14 0 25 -10.5t11 -25.5v-106q0 -36 -26 -61l-300 -283h295q14 0 25 -10.5t11 -25.5v-142q0 -13 -11 -24.5t-25 -11.5h-628q-14 0 -25 10.5t-11 25.5zM277 760l32 58
q17 32 53 32h213l-107 -98q-27 -24 -63 -24h-109q-12 0 -18.5 11t-0.5 21z" />
    <glyph glyph-name="zacute" unicode="&#x17a;" horiz-adv-x="728" 
d="M14 0zM14 0zM14 36v106q0 36 26 61l300 283h-283q-14 0 -25 10.5t-11 25.5v142q0 13 11 24.5t25 11.5h616q14 0 25 -10.5t11 -25.5v-106q0 -36 -26 -61l-300 -283h295q14 0 25 -10.5t11 -25.5v-142q0 -13 -11 -24.5t-25 -11.5h-628q-14 0 -25 10.5t-11 25.5zM277 760
l32 58q17 32 53 32h213l-107 -98q-27 -24 -63 -24h-109q-12 0 -18.5 11t-0.5 21z" />
    <glyph glyph-name="Zdotaccent" unicode="&#x17b;" horiz-adv-x="728" 
d="M14 0zM14 36v106q0 36 26 61l300 283h-283q-14 0 -25 10.5t-11 25.5v142q0 13 11 24.5t25 11.5h616q14 0 25 -10.5t11 -25.5v-106q0 -36 -26 -61l-300 -283h295q14 0 25 -10.5t11 -25.5v-142q0 -13 -11 -24.5t-25 -11.5h-628q-14 0 -25 10.5t-11 25.5zM246 764v50
q0 10 11 23t25 13h156q13 0 24.5 -11t11.5 -25v-50q0 -10 -11 -23t-25 -13h-156q-13 0 -24.5 11t-11.5 25z" />
    <glyph glyph-name="zdotaccent" unicode="&#x17c;" horiz-adv-x="728" 
d="M14 0zM14 0zM14 36v106q0 36 26 61l300 283h-283q-14 0 -25 10.5t-11 25.5v142q0 13 11 24.5t25 11.5h616q14 0 25 -10.5t11 -25.5v-106q0 -36 -26 -61l-300 -283h295q14 0 25 -10.5t11 -25.5v-142q0 -13 -11 -24.5t-25 -11.5h-628q-14 0 -25 10.5t-11 25.5zM246 764v50
q0 10 11 23t25 13h156q13 0 24.5 -11t11.5 -25v-50q0 -10 -11 -23t-25 -13h-156q-13 0 -24.5 11t-11.5 25z" />
    <glyph glyph-name="Zcaron" unicode="&#x17d;" horiz-adv-x="728" 
d="M14 0zM14 36v106q0 36 26 61l300 283h-283q-14 0 -25 10.5t-11 25.5v142q0 13 11 24.5t25 11.5h616q14 0 25 -10.5t11 -25.5v-106q0 -36 -26 -61l-300 -283h295q14 0 25 -10.5t11 -25.5v-142q0 -13 -11 -24.5t-25 -11.5h-628q-14 0 -25 10.5t-11 25.5zM112 826
q-7 6 -3.5 15t12.5 9h149q34 0 53 -31l37 -59l37 59q19 31 53 31h149q9 0 12.5 -9t-3.5 -15l-80 -74q-27 -24 -61 -24h-214q-34 0 -61 24z" />
    <glyph glyph-name="zcaron" unicode="&#x17e;" horiz-adv-x="728" 
d="M14 0zM14 0zM14 36v106q0 36 26 61l300 283h-283q-14 0 -25 10.5t-11 25.5v142q0 13 11 24.5t25 11.5h616q14 0 25 -10.5t11 -25.5v-106q0 -36 -26 -61l-300 -283h295q14 0 25 -10.5t11 -25.5v-142q0 -13 -11 -24.5t-25 -11.5h-628q-14 0 -25 10.5t-11 25.5zM112 826
q-7 6 -3.5 15t12.5 9h149q34 0 53 -31l37 -59l37 59q19 31 53 31h149q9 0 12.5 -9t-3.5 -15l-80 -74q-27 -24 -61 -24h-214q-34 0 -61 24z" />
    <glyph glyph-name="uni01CD" unicode="&#x1cd;" horiz-adv-x="888" 
d="M13 0zM16 34l262 633q5 12 20 23q15 10 30 10h240q13 0 28 -10q16 -10 21 -23l256 -634q2 -5 2 -11q0 -10 -7 -16t-18 -6h-207q-13 0 -28 10t-20 24l-31 90h-245l-32 -90q-4 -11 -19 -22.5t-29 -11.5h-201q-12 0 -18 6q-7 8 -7 16q0 5 3 12zM378 290h130l-64 186z
M196 826q-7 6 -3.5 15t12.5 9h149q34 0 53 -31l37 -59l37 59q19 31 53 31h149q9 0 12.5 -9t-3.5 -15l-80 -74q-27 -24 -61 -24h-214q-34 0 -61 24z" />
    <glyph glyph-name="uni01CE" unicode="&#x1ce;" horiz-adv-x="760" 
d="M8 0zM8 213q0 90 85.5 158t196.5 68q57 0 97 -9t83 -38v40q0 34 -41 56t-106 22q-113 0 -214 -53q-8 -5 -19 0t-11 19v124q0 37 31 52q125 58 257 58q152 0 264.5 -76.5t112.5 -173.5v-424q0 -14 -10.5 -25t-25.5 -11h-194q-14 0 -25 9.5t-13 24.5v9q-100 -49 -202 -49
q-113 0 -189.5 55.5t-76.5 163.5zM291 213q0 -28 26 -43t66 -15q46 0 87 16v81q-43 21 -87 21q-39 0 -65.5 -16t-26.5 -44zM136 826q-7 6 -3.5 15t12.5 9h149q34 0 53 -31l37 -59l37 59q19 31 53 31h149q9 0 12.5 -9t-3.5 -15l-80 -74q-27 -24 -61 -24h-214q-34 0 -61 24z
" />
    <glyph glyph-name="uni01CF" unicode="&#x1cf;" horiz-adv-x="332" 
d="M0 0zM24 36v628q0 14 10.5 25t25.5 11h212q13 0 24.5 -11t11.5 -25v-628q0 -14 -10.5 -25t-25.5 -11h-212q-13 0 -24.5 10.5t-11.5 25.5zM-82 826q-7 6 -3.5 15t12.5 9h149q34 0 53 -31l37 -59l37 59q19 31 53 31h149q9 0 12.5 -9t-3.5 -15l-80 -74q-27 -24 -61 -24h-214
q-34 0 -61 24z" />
    <glyph glyph-name="uni01D0" unicode="&#x1d0;" horiz-adv-x="332" 
d="M0 0zM0 0zM24 36v628q0 14 10.5 25t25.5 11h212q13 0 24.5 -11t11.5 -25v-628q0 -14 -10.5 -25t-25.5 -11h-212q-13 0 -24.5 10.5t-11.5 25.5zM-82 826q-7 6 -3.5 15t12.5 9h149q34 0 53 -31l37 -59l37 59q19 31 53 31h149q9 0 12.5 -9t-3.5 -15l-80 -74q-27 -24 -61 -24
h-214q-34 0 -61 24z" />
    <glyph glyph-name="uni01D1" unicode="&#x1d1;" 
d="M12 0zM12 350q0 161 118.5 260.5t311.5 99.5t311.5 -99.5t118.5 -260.5t-118.5 -260.5t-311.5 -99.5t-311.5 99.5t-118.5 260.5zM309 350q0 -66 36.5 -106t96.5 -40t96.5 40t36.5 106t-36.5 106t-96.5 40t-96.5 -40t-36.5 -106zM194 826q-7 6 -3.5 15t12.5 9h149
q34 0 53 -31l37 -59l37 59q19 31 53 31h149q9 0 12.5 -9t-3.5 -15l-80 -74q-27 -24 -61 -24h-214q-34 0 -61 24z" />
    <glyph glyph-name="uni01D2" unicode="&#x1d2;" 
d="M12 0zM12 0zM12 350q0 161 118.5 260.5t311.5 99.5t311.5 -99.5t118.5 -260.5t-118.5 -260.5t-311.5 -99.5t-311.5 99.5t-118.5 260.5zM309 350q0 -66 36.5 -106t96.5 -40t96.5 40t36.5 106t-36.5 106t-96.5 40t-96.5 -40t-36.5 -106zM194 826q-7 6 -3.5 15t12.5 9h149
q34 0 53 -31l37 -59l37 59q19 31 53 31h149q9 0 12.5 -9t-3.5 -15l-80 -74q-27 -24 -61 -24h-214q-34 0 -61 24z" />
    <glyph glyph-name="uni01D3" unicode="&#x1d3;" horiz-adv-x="780" 
d="M16 0zM16 306v358q0 14 10.5 25t25.5 11h216q13 0 24.5 -11t11.5 -25v-359q0 -45 22.5 -71t63.5 -26t63.5 26t22.5 71v359q0 14 10.5 25t25.5 11h216q13 0 24.5 -11t11.5 -25v-358q0 -141 -103 -228.5t-271 -87.5t-271 87.5t-103 228.5zM140 826q-7 6 -3.5 15t12.5 9h149
q34 0 53 -31l37 -59l37 59q19 31 53 31h149q9 0 12.5 -9t-3.5 -15l-80 -74q-27 -24 -61 -24h-214q-34 0 -61 24z" />
    <glyph glyph-name="uni01D4" unicode="&#x1d4;" horiz-adv-x="780" 
d="M16 0zM16 0zM16 306v358q0 14 10.5 25t25.5 11h216q13 0 24.5 -11t11.5 -25v-359q0 -45 22.5 -71t63.5 -26t63.5 26t22.5 71v359q0 14 10.5 25t25.5 11h216q13 0 24.5 -11t11.5 -25v-358q0 -141 -103 -228.5t-271 -87.5t-271 87.5t-103 228.5zM140 826q-7 6 -3.5 15
t12.5 9h149q34 0 53 -31l37 -59l37 59q19 31 53 31h149q9 0 12.5 -9t-3.5 -15l-80 -74q-27 -24 -61 -24h-214q-34 0 -61 24z" />
    <glyph glyph-name="uni01E2" unicode="&#x1e2;" horiz-adv-x="1133" 
d="M14 0zM16 33l262 634q14 33 50 33h754q14 0 25 -10.5t11 -25.5v-142q0 -13 -11 -24.5t-25 -11.5h-340v-49h280q14 0 25 -10.5t11 -25.5v-102q0 -12 -11 -24t-25 -12h-280v-49h340q14 0 25 -10.5t11 -25.5v-142q0 -15 -10.5 -25.5t-25.5 -10.5h-568q-15 0 -25.5 10.5
t-10.5 25.5v88h-159l-32 -90q-6 -16 -18.5 -25t-29.5 -9h-201q-10 0 -17 7.5t-7 17.5q0 4 2 8zM378 290h100v196h-31zM436 764v50q0 15 10.5 25.5t25.5 10.5h256q15 0 25.5 -10.5t10.5 -25.5v-50q0 -15 -10.5 -25.5t-25.5 -10.5h-256q-15 0 -25.5 10.5t-10.5 25.5z" />
    <glyph glyph-name="uni01E3" unicode="&#x1e3;" horiz-adv-x="1302" 
d="M8 0zM8 213q0 90 85.5 158t196.5 68q57 0 97 -9t83 -38v40q0 34 -41.5 56t-105.5 22q-54 0 -112.5 -14t-101.5 -39q-8 -6 -19 -0.5t-11 19.5v124q0 32 32 51q45 26 117.5 42.5t138.5 16.5q151 0 256 -78q110 78 269 78q194 0 296 -88.5t102 -257.5v-42q0 -15 -10.5 -25.5
t-25.5 -10.5h-496q40 -80 198 -80q73 0 144.5 12.5t102.5 23.5q13 4 24 -4.5t11 -21.5v-145q0 -16 -9.5 -28t-25.5 -18q-12 -4 -50.5 -11.5t-112.5 -15.5t-146 -8q-205 0 -314 103q-147 -99 -306 -99q-113 0 -189.5 55.5t-76.5 163.5zM291 222q0 -23 26.5 -38t65.5 -15
q59 0 122 38q-6 15 -11 31q-57 35 -111 35q-38 0 -65 -15t-27 -36zM754 422h266v17q0 25 -36.5 45t-91.5 20q-109 0 -138 -82zM470 764v50q0 15 10.5 25.5t25.5 10.5h256q15 0 25.5 -10.5t10.5 -25.5v-50q0 -15 -10.5 -25.5t-25.5 -10.5h-256q-15 0 -25.5 10.5t-10.5 25.5z
" />
    <glyph glyph-name="Gcaron" unicode="&#x1e6;" horiz-adv-x="836" 
d="M12 0zM12 350q0 163 115 261.5t319 98.5q72 0 146.5 -8t113 -15.5t50.5 -11.5q15 -5 24.5 -17.5t9.5 -28.5v-141q0 -13 -10.5 -21.5t-23.5 -4.5q-31 10 -103 23t-145 13q-212 0 -212 -148q0 -66 43.5 -106t124.5 -40q72 0 138 9v44h-102q-12 0 -24 11t-12 25v89
q0 12 11 24t25 12h286q14 0 25 -10.5t11 -25.5v-246q0 -37 -30 -56q-80 -49 -149.5 -69.5t-178.5 -20.5q-206 0 -329 99.5t-123 260.5zM206 829q-7 6 -3.5 15t12.5 9h149q34 0 53 -31l37 -59l37 59q19 31 53 31h149q9 0 12.5 -9t-3.5 -15l-80 -74q-27 -24 -61 -24h-214
q-34 0 -61 24z" />
    <glyph glyph-name="gcaron" unicode="&#x1e7;" horiz-adv-x="836" 
d="M12 0zM12 0zM12 350q0 163 115 261.5t319 98.5q72 0 146.5 -8t113 -15.5t50.5 -11.5q15 -5 24.5 -17.5t9.5 -28.5v-141q0 -13 -10.5 -21.5t-23.5 -4.5q-31 10 -103 23t-145 13q-212 0 -212 -148q0 -66 43.5 -106t124.5 -40q72 0 138 9v44h-102q-12 0 -24 11t-12 25v89
q0 12 11 24t25 12h286q14 0 25 -10.5t11 -25.5v-246q0 -37 -30 -56q-80 -49 -149.5 -69.5t-178.5 -20.5q-206 0 -329 99.5t-123 260.5zM206 829q-7 6 -3.5 15t12.5 9h149q34 0 53 -31l37 -59l37 59q19 31 53 31h149q9 0 12.5 -9t-3.5 -15l-80 -74q-27 -24 -61 -24h-214
q-34 0 -61 24z" />
    <glyph glyph-name="uni01E8" unicode="&#x1e8;" horiz-adv-x="826" 
d="M24 0zM24 36v628q0 14 10.5 25t25.5 11h212q13 0 24.5 -11t11.5 -25v-206h41l113 210q17 32 53 32h263q14 0 18 -8q5 -9 -4 -20l-242 -313l252 -330q6 -8 6 -15q0 -14 -20 -14h-279q-35 0 -53 32l-116 212h-32v-208q0 -13 -11 -24.5t-25 -11.5h-212q-13 0 -24.5 10.5
t-11.5 25.5zM135 826q-7 6 -3.5 15t12.5 9h149q34 0 53 -31l37 -59l37 59q19 31 53 31h149q9 0 12.5 -9t-3.5 -15l-80 -74q-27 -24 -61 -24h-214q-34 0 -61 24z" />
    <glyph glyph-name="uni01E9" unicode="&#x1e9;" horiz-adv-x="826" 
d="M24 0zM24 0zM24 36v628q0 14 10.5 25t25.5 11h212q13 0 24.5 -11t11.5 -25v-206h41l113 210q17 32 53 32h263q14 0 18 -8q5 -9 -4 -20l-242 -313l252 -330q6 -8 6 -15q0 -14 -20 -14h-279q-35 0 -53 32l-116 212h-32v-208q0 -13 -11 -24.5t-25 -11.5h-212
q-13 0 -24.5 10.5t-11.5 25.5zM135 826q-7 6 -3.5 15t12.5 9h149q34 0 53 -31l37 -59l37 59q19 31 53 31h149q9 0 12.5 -9t-3.5 -15l-80 -74q-27 -24 -61 -24h-214q-34 0 -61 24z" />
    <glyph glyph-name="uni01EA" unicode="&#x1ea;" 
d="M309 350q0 -66 36.5 -106t96.5 -40t96.5 40t36.5 106t-36.5 106t-96.5 40t-96.5 -40t-36.5 -106zM12 350q0 161 118.5 260.5t311.5 99.5t311.5 -99.5t118.5 -260.5q0 -99 -47.5 -177.5t-133.5 -124.5q-12 -6 -46 -20t-56 -26t-22 -21q0 -24 46 -24q22 0 59 12
q11 4 20.5 -3.5t8.5 -18.5l-2 -48q-2 -34 -33 -50q-35 -19 -114 -19q-69 0 -117.5 32.5t-48.5 78.5q0 24 20 50q-178 10 -286 108t-108 251z" />
    <glyph glyph-name="uni01EB" unicode="&#x1eb;" 
d="M12 0zM309 350q0 -66 36.5 -106t96.5 -40t96.5 40t36.5 106t-36.5 106t-96.5 40t-96.5 -40t-36.5 -106zM12 350q0 161 118.5 260.5t311.5 99.5t311.5 -99.5t118.5 -260.5q0 -99 -47.5 -177.5t-133.5 -124.5q-12 -6 -46 -20t-56 -26t-22 -21q0 -24 46 -24q22 0 59 12
q11 4 20.5 -3.5t8.5 -18.5l-2 -48q-2 -34 -33 -50q-35 -19 -114 -19q-69 0 -117.5 32.5t-48.5 78.5q0 24 20 50q-178 10 -286 108t-108 251z" />
    <glyph glyph-name="uni01EC" unicode="&#x1ec;" 
d="M12 0zM309 350q0 -66 36.5 -106t96.5 -40t96.5 40t36.5 106t-36.5 106t-96.5 40t-96.5 -40t-36.5 -106zM12 350q0 161 118.5 260.5t311.5 99.5t311.5 -99.5t118.5 -260.5q0 -99 -47.5 -177.5t-133.5 -124.5q-12 -6 -46 -20t-56 -26t-22 -21q0 -24 46 -24q22 0 59 12
q11 4 20.5 -3.5t8.5 -18.5l-2 -48q-2 -34 -33 -50q-35 -19 -114 -19q-69 0 -117.5 32.5t-48.5 78.5q0 24 20 50q-178 10 -286 108t-108 251zM278 764v50q0 15 10.5 25.5t25.5 10.5h256q15 0 25.5 -10.5t10.5 -25.5v-50q0 -15 -10.5 -25.5t-25.5 -10.5h-256q-15 0 -25.5 10.5
t-10.5 25.5z" />
    <glyph glyph-name="uni01ED" unicode="&#x1ed;" 
d="M12 0zM12 0zM309 350q0 -66 36.5 -106t96.5 -40t96.5 40t36.5 106t-36.5 106t-96.5 40t-96.5 -40t-36.5 -106zM12 350q0 161 118.5 260.5t311.5 99.5t311.5 -99.5t118.5 -260.5q0 -99 -47.5 -177.5t-133.5 -124.5q-12 -6 -46 -20t-56 -26t-22 -21q0 -24 46 -24
q22 0 59 12q11 4 20.5 -3.5t8.5 -18.5l-2 -48q-2 -34 -33 -50q-35 -19 -114 -19q-69 0 -117.5 32.5t-48.5 78.5q0 24 20 50q-178 10 -286 108t-108 251zM278 764v50q0 15 10.5 25.5t25.5 10.5h256q15 0 25.5 -10.5t10.5 -25.5v-50q0 -15 -10.5 -25.5t-25.5 -10.5h-256
q-15 0 -25.5 10.5t-10.5 25.5z" />
    <glyph glyph-name="uni01F0" unicode="&#x1f0;" horiz-adv-x="673" 
d="M18 0zM18 0zM18 104v154q0 13 9 19t22 -1q114 -64 224 -64q44 0 72 21.5t28 50.5v204h-315q-14 0 -25 10.5t-11 25.5v140q0 13 11 24.5t25 11.5h563q14 0 25 -10.5t11 -25.5v-424q0 -97 -109 -173.5t-258 -76.5q-62 0 -126 17t-115 44q-31 17 -31 53zM92 826
q-7 6 -3.5 15t12.5 9h149q34 0 53 -31l37 -59l37 59q19 31 53 31h149q9 0 12.5 -9t-3.5 -15l-80 -74q-27 -24 -61 -24h-214q-34 0 -61 24z" />
    <glyph glyph-name="uni01F4" unicode="&#x1f4;" horiz-adv-x="836" 
d="M12 0zM12 350q0 163 115 261.5t319 98.5q72 0 146.5 -8t113 -15.5t50.5 -11.5q15 -5 24.5 -17.5t9.5 -28.5v-141q0 -13 -10.5 -21.5t-23.5 -4.5q-31 10 -103 23t-145 13q-212 0 -212 -148q0 -66 43.5 -106t124.5 -40q72 0 138 9v44h-102q-12 0 -24 11t-12 25v89
q0 12 11 24t25 12h286q14 0 25 -10.5t11 -25.5v-246q0 -37 -30 -56q-80 -49 -149.5 -69.5t-178.5 -20.5q-206 0 -329 99.5t-123 260.5zM371 763l32 58q17 32 53 32h213l-107 -98q-27 -24 -63 -24h-109q-12 0 -18.5 11t-0.5 21z" />
    <glyph glyph-name="uni01F5" unicode="&#x1f5;" horiz-adv-x="836" 
d="M12 0zM12 0zM12 350q0 163 115 261.5t319 98.5q72 0 146.5 -8t113 -15.5t50.5 -11.5q15 -5 24.5 -17.5t9.5 -28.5v-141q0 -13 -10.5 -21.5t-23.5 -4.5q-31 10 -103 23t-145 13q-212 0 -212 -148q0 -66 43.5 -106t124.5 -40q72 0 138 9v44h-102q-12 0 -24 11t-12 25v89
q0 12 11 24t25 12h286q14 0 25 -10.5t11 -25.5v-246q0 -37 -30 -56q-80 -49 -149.5 -69.5t-178.5 -20.5q-206 0 -329 99.5t-123 260.5zM371 763l32 58q17 32 53 32h213l-107 -98q-27 -24 -63 -24h-109q-12 0 -18.5 11t-0.5 21z" />
    <glyph glyph-name="uni01F8" unicode="&#x1f8;" horiz-adv-x="848" 
d="M24 0zM24 36v628q0 14 10.5 25t25.5 11h314q14 0 29 -10t21 -23l164 -405v402q0 14 10.5 25t25.5 11h164q13 0 24.5 -11t11.5 -25v-628q0 -14 -10.5 -25t-25.5 -11h-310q-14 0 -29 10t-21 23l-168 401v-398q0 -14 -10.5 -25t-25.5 -11h-164q-13 0 -24.5 11t-11.5 25z
M211 850h213q36 0 53 -32l32 -58q6 -10 -0.5 -21t-18.5 -11h-109q-36 0 -63 24z" />
    <glyph glyph-name="uni01F9" unicode="&#x1f9;" horiz-adv-x="826" 
d="M24 0zM211 850h213q36 0 53 -32l32 -58q6 -10 -0.5 -21t-18.5 -11h-109q-36 0 -63 24zM24 36v628q0 14 10.5 25t25.5 11h206q13 0 25 -10.5t13 -25.5v-9q99 51 201 51q145 0 225 -71.5t80 -173.5v-425q0 -14 -10.5 -25t-25.5 -11h-214q-13 0 -24.5 11t-11.5 25v381
q0 31 -19 51.5t-61 20.5q-67 0 -134 -31v-422q0 -14 -10.5 -25t-25.5 -11h-214q-14 0 -25 10.5t-11 25.5z" />
    <glyph glyph-name="AEacute" unicode="&#x1fc;" horiz-adv-x="1133" 
d="M14 0zM16 33l262 634q14 33 50 33h754q14 0 25 -10.5t11 -25.5v-142q0 -13 -11 -24.5t-25 -11.5h-340v-49h280q14 0 25 -10.5t11 -25.5v-102q0 -12 -11 -24t-25 -12h-280v-49h340q14 0 25 -10.5t11 -25.5v-142q0 -15 -10.5 -25.5t-25.5 -10.5h-568q-15 0 -25.5 10.5
t-10.5 25.5v88h-159l-32 -90q-6 -16 -18.5 -25t-29.5 -9h-201q-10 0 -17 7.5t-7 17.5q0 4 2 8zM378 290h100v196h-31zM517 760l32 58q17 32 53 32h213l-107 -98q-27 -24 -63 -24h-109q-12 0 -18.5 11t-0.5 21z" />
    <glyph glyph-name="aeacute" unicode="&#x1fd;" horiz-adv-x="1302" 
d="M8 0zM8 213q0 90 85.5 158t196.5 68q57 0 97 -9t83 -38v40q0 34 -41.5 56t-105.5 22q-54 0 -112.5 -14t-101.5 -39q-8 -6 -19 -0.5t-11 19.5v124q0 32 32 51q45 26 117.5 42.5t138.5 16.5q151 0 256 -78q110 78 269 78q194 0 296 -88.5t102 -257.5v-42q0 -15 -10.5 -25.5
t-25.5 -10.5h-496q40 -80 198 -80q73 0 144.5 12.5t102.5 23.5q13 4 24 -4.5t11 -21.5v-145q0 -16 -9.5 -28t-25.5 -18q-12 -4 -50.5 -11.5t-112.5 -15.5t-146 -8q-205 0 -314 103q-147 -99 -306 -99q-113 0 -189.5 55.5t-76.5 163.5zM291 222q0 -23 26.5 -38t65.5 -15
q59 0 122 38q-6 15 -11 31q-57 35 -111 35q-38 0 -65 -15t-27 -36zM754 422h266v17q0 25 -36.5 45t-91.5 20q-109 0 -138 -82zM551 760l32 58q17 32 53 32h213l-107 -98q-27 -24 -63 -24h-109q-12 0 -18.5 11t-0.5 21z" />
    <glyph glyph-name="Oslashacute" unicode="&#x1fe;" 
d="M12 0zM12 350q0 161 118.5 260.5t311.5 99.5q112 0 203 -36l58 78q9 12 23.5 14t26.5 -7l21 -15l-72 -97q81 -47 125.5 -124t44.5 -173q0 -161 -118.5 -260.5t-311.5 -99.5q-111 0 -202 35l-57 -77q-9 -12 -23.5 -14t-26.5 7l-21 15l72 97q-82 47 -127 124t-45 173z
M382 217q27 -13 60 -13q60 0 96.5 40t36.5 106q0 54 -26 92zM309 350q0 -55 26 -93l168 225q-27 14 -61 14q-60 0 -96.5 -40t-36.5 -106zM359 760l32 58q17 32 53 32h213l-107 -98q-27 -24 -63 -24h-109q-12 0 -18.5 11t-0.5 21z" />
    <glyph glyph-name="oslashacute" unicode="&#x1ff;" 
d="M12 0zM12 0zM12 350q0 161 118.5 260.5t311.5 99.5q112 0 203 -36l58 78q9 12 23.5 14t26.5 -7l21 -15l-72 -97q81 -47 125.5 -124t44.5 -173q0 -161 -118.5 -260.5t-311.5 -99.5q-111 0 -202 35l-57 -77q-9 -12 -23.5 -14t-26.5 7l-21 15l72 97q-82 47 -127 124t-45 173
zM382 217q27 -13 60 -13q60 0 96.5 40t36.5 106q0 54 -26 92zM309 350q0 -55 26 -93l168 225q-27 14 -61 14q-60 0 -96.5 -40t-36.5 -106zM359 760l32 58q17 32 53 32h213l-107 -98q-27 -24 -63 -24h-109q-12 0 -18.5 11t-0.5 21z" />
    <glyph glyph-name="uni0200" unicode="&#x200;" horiz-adv-x="888" 
d="M13 0zM16 34l262 633q5 12 20 23q15 10 30 10h240q13 0 28 -10q16 -10 21 -23l256 -634q2 -5 2 -11q0 -10 -7 -16t-18 -6h-207q-13 0 -28 10t-20 24l-31 90h-245l-32 -90q-4 -11 -19 -22.5t-29 -11.5h-201q-12 0 -18 6q-7 8 -7 16q0 5 3 12zM378 290h130l-64 186z
M377 850h183q36 0 53 -32l32 -58q6 -10 -0.5 -21t-18.5 -11h-79q-36 0 -63 24zM117 850h183q36 0 53 -32l32 -58q6 -10 -0.5 -21t-18.5 -11h-79q-36 0 -63 24z" />
    <glyph glyph-name="uni0201" unicode="&#x201;" horiz-adv-x="760" 
d="M8 0zM8 213q0 90 85.5 158t196.5 68q57 0 97 -9t83 -38v40q0 34 -41 56t-106 22q-113 0 -214 -53q-8 -5 -19 0t-11 19v124q0 37 31 52q125 58 257 58q152 0 264.5 -76.5t112.5 -173.5v-424q0 -14 -10.5 -25t-25.5 -11h-194q-14 0 -25 9.5t-13 24.5v9q-100 -49 -202 -49
q-113 0 -189.5 55.5t-76.5 163.5zM291 213q0 -28 26 -43t66 -15q46 0 87 16v81q-43 21 -87 21q-39 0 -65.5 -16t-26.5 -44zM317 850h183q36 0 53 -32l32 -58q6 -10 -0.5 -21t-18.5 -11h-79q-36 0 -63 24zM57 850h183q36 0 53 -32l32 -58q6 -10 -0.5 -21t-18.5 -11h-79
q-36 0 -63 24z" />
    <glyph glyph-name="uni0202" unicode="&#x202;" horiz-adv-x="888" 
d="M13 0zM16 34l262 633q5 12 20 23q15 10 30 10h240q13 0 28 -10q16 -10 21 -23l256 -634q2 -5 2 -11q0 -10 -7 -16t-18 -6h-207q-13 0 -28 10t-20 24l-31 90h-245l-32 -90q-4 -11 -19 -22.5t-29 -11.5h-201q-12 0 -18 6q-7 8 -7 16q0 5 3 12zM378 290h130l-64 186z
M444 728zM692 756q4 -9 -3 -18.5t-20 -9.5h-164q-5 0 -7 5q-19 38 -54 38t-54 -38q-2 -5 -7 -5h-164q-13 0 -20 10t-3 18q20 41 89.5 67.5t158.5 26.5t158.5 -26.5t89.5 -67.5z" />
    <glyph glyph-name="uni0203" unicode="&#x203;" horiz-adv-x="760" 
d="M8 0zM8 213q0 90 85.5 158t196.5 68q57 0 97 -9t83 -38v40q0 34 -41 56t-106 22q-113 0 -214 -53q-8 -5 -19 0t-11 19v124q0 37 31 52q125 58 257 58q152 0 264.5 -76.5t112.5 -173.5v-424q0 -14 -10.5 -25t-25.5 -11h-194q-14 0 -25 9.5t-13 24.5v9q-100 -49 -202 -49
q-113 0 -189.5 55.5t-76.5 163.5zM291 213q0 -28 26 -43t66 -15q46 0 87 16v81q-43 21 -87 21q-39 0 -65.5 -16t-26.5 -44zM384 728zM632 756q4 -9 -3 -18.5t-20 -9.5h-164q-5 0 -7 5q-19 38 -54 38t-54 -38q-2 -5 -7 -5h-164q-13 0 -20 10t-3 18q20 41 89.5 67.5
t158.5 26.5t158.5 -26.5t89.5 -67.5z" />
    <glyph glyph-name="uni0204" unicode="&#x204;" horiz-adv-x="729" 
d="M24 0zM24 36v628q0 14 10.5 25t25.5 11h618q14 0 25 -10.5t11 -25.5v-137q0 -13 -11 -24.5t-25 -11.5h-370v-58h310q14 0 25 -10.5t11 -25.5v-94q0 -12 -11 -24t-25 -12h-310v-58h370q14 0 25 -10.5t11 -25.5v-137q0 -13 -11 -24.5t-25 -11.5h-618q-14 0 -25 10.5
t-11 25.5zM301 850h183q36 0 53 -32l32 -58q6 -10 -0.5 -21t-18.5 -11h-79q-36 0 -63 24zM41 850h183q36 0 53 -32l32 -58q6 -10 -0.5 -21t-18.5 -11h-79q-36 0 -63 24z" />
    <glyph glyph-name="uni0205" unicode="&#x205;" horiz-adv-x="854" 
d="M12 0zM377 850h183q36 0 53 -32l32 -58q6 -10 -0.5 -21t-18.5 -11h-79q-36 0 -63 24zM117 850h183q36 0 53 -32l32 -58q6 -10 -0.5 -21t-18.5 -11h-79q-36 0 -63 24zM12 350q0 162 119 261t313 99t296 -88.5t102 -257.5v-42q0 -13 -11.5 -24.5t-24.5 -11.5h-496
q40 -80 198 -80q51 0 108.5 7.5t88 14.5t51.5 14q12 4 23 -4.5t11 -21.5v-145q0 -16 -9.5 -28.5t-24.5 -17.5q-12 -4 -50.5 -11.5t-113 -15.5t-146.5 -8q-204 0 -319 98.5t-115 261.5zM306 422h266v17q0 25 -36.5 45t-91.5 20q-109 0 -138 -82z" />
    <glyph glyph-name="uni0206" unicode="&#x206;" horiz-adv-x="729" 
d="M24 0zM24 36v628q0 14 10.5 25t25.5 11h618q14 0 25 -10.5t11 -25.5v-137q0 -13 -11 -24.5t-25 -11.5h-370v-58h310q14 0 25 -10.5t11 -25.5v-94q0 -12 -11 -24t-25 -12h-310v-58h370q14 0 25 -10.5t11 -25.5v-137q0 -13 -11 -24.5t-25 -11.5h-618q-14 0 -25 10.5
t-11 25.5zM368 728zM616 756q4 -9 -3 -18.5t-20 -9.5h-164q-5 0 -7 5q-19 38 -54 38t-54 -38q-2 -5 -7 -5h-164q-13 0 -20 10t-3 18q20 41 89.5 67.5t158.5 26.5t158.5 -26.5t89.5 -67.5z" />
    <glyph glyph-name="uni0207" unicode="&#x207;" horiz-adv-x="854" 
d="M12 0zM444 728zM692 756q4 -9 -3 -18.5t-20 -9.5h-164q-5 0 -7 5q-19 38 -54 38t-54 -38q-2 -5 -7 -5h-164q-13 0 -20 10t-3 18q20 41 89.5 67.5t158.5 26.5t158.5 -26.5t89.5 -67.5zM12 350q0 162 119 261t313 99t296 -88.5t102 -257.5v-42q0 -13 -11.5 -24.5
t-24.5 -11.5h-496q40 -80 198 -80q51 0 108.5 7.5t88 14.5t51.5 14q12 4 23 -4.5t11 -21.5v-145q0 -16 -9.5 -28.5t-24.5 -17.5q-12 -4 -50.5 -11.5t-113 -15.5t-146.5 -8q-204 0 -319 98.5t-115 261.5zM306 422h266v17q0 25 -36.5 45t-91.5 20q-109 0 -138 -82z" />
    <glyph glyph-name="uni0208" unicode="&#x208;" horiz-adv-x="332" 
d="M0 0zM24 36v628q0 14 10.5 25t25.5 11h212q13 0 24.5 -11t11.5 -25v-628q0 -14 -10.5 -25t-25.5 -11h-212q-13 0 -24.5 10.5t-11.5 25.5zM99 850h183q36 0 53 -32l32 -58q6 -10 -0.5 -21t-18.5 -11h-79q-36 0 -63 24zM-161 850h183q36 0 53 -32l32 -58q6 -10 -0.5 -21
t-18.5 -11h-79q-36 0 -63 24z" />
    <glyph glyph-name="uni0209" unicode="&#x209;" horiz-adv-x="332" 
d="M0 0zM0 0zM24 36v628q0 14 10.5 25t25.5 11h212q13 0 24.5 -11t11.5 -25v-628q0 -14 -10.5 -25t-25.5 -11h-212q-13 0 -24.5 10.5t-11.5 25.5zM99 850h183q36 0 53 -32l32 -58q6 -10 -0.5 -21t-18.5 -11h-79q-36 0 -63 24zM-161 850h183q36 0 53 -32l32 -58
q6 -10 -0.5 -21t-18.5 -11h-79q-36 0 -63 24z" />
    <glyph glyph-name="uni020A" unicode="&#x20a;" horiz-adv-x="332" 
d="M0 0zM24 36v628q0 14 10.5 25t25.5 11h212q13 0 24.5 -11t11.5 -25v-628q0 -14 -10.5 -25t-25.5 -11h-212q-13 0 -24.5 10.5t-11.5 25.5zM166 728zM414 756q4 -9 -3 -18.5t-20 -9.5h-164q-5 0 -7 5q-19 38 -54 38t-54 -38q-2 -5 -7 -5h-164q-13 0 -20 10t-3 18
q20 41 89.5 67.5t158.5 26.5t158.5 -26.5t89.5 -67.5z" />
    <glyph glyph-name="uni020B" unicode="&#x20b;" horiz-adv-x="332" 
d="M0 0zM0 0zM24 36v628q0 14 10.5 25t25.5 11h212q13 0 24.5 -11t11.5 -25v-628q0 -14 -10.5 -25t-25.5 -11h-212q-13 0 -24.5 10.5t-11.5 25.5zM166 728zM414 756q4 -9 -3 -18.5t-20 -9.5h-164q-5 0 -7 5q-19 38 -54 38t-54 -38q-2 -5 -7 -5h-164q-13 0 -20 10t-3 18
q20 41 89.5 67.5t158.5 26.5t158.5 -26.5t89.5 -67.5z" />
    <glyph glyph-name="uni020C" unicode="&#x20c;" 
d="M12 0zM12 350q0 161 118.5 260.5t311.5 99.5t311.5 -99.5t118.5 -260.5t-118.5 -260.5t-311.5 -99.5t-311.5 99.5t-118.5 260.5zM309 350q0 -66 36.5 -106t96.5 -40t96.5 40t36.5 106t-36.5 106t-96.5 40t-96.5 -40t-36.5 -106zM375 850h183q36 0 53 -32l32 -58
q6 -10 -0.5 -21t-18.5 -11h-79q-36 0 -63 24zM115 850h183q36 0 53 -32l32 -58q6 -10 -0.5 -21t-18.5 -11h-79q-36 0 -63 24z" />
    <glyph glyph-name="uni020D" unicode="&#x20d;" 
d="M12 0zM12 0zM12 350q0 161 118.5 260.5t311.5 99.5t311.5 -99.5t118.5 -260.5t-118.5 -260.5t-311.5 -99.5t-311.5 99.5t-118.5 260.5zM309 350q0 -66 36.5 -106t96.5 -40t96.5 40t36.5 106t-36.5 106t-96.5 40t-96.5 -40t-36.5 -106zM375 850h183q36 0 53 -32l32 -58
q6 -10 -0.5 -21t-18.5 -11h-79q-36 0 -63 24zM115 850h183q36 0 53 -32l32 -58q6 -10 -0.5 -21t-18.5 -11h-79q-36 0 -63 24z" />
    <glyph glyph-name="uni020E" unicode="&#x20e;" 
d="M12 0zM12 350q0 161 118.5 260.5t311.5 99.5t311.5 -99.5t118.5 -260.5t-118.5 -260.5t-311.5 -99.5t-311.5 99.5t-118.5 260.5zM309 350q0 -66 36.5 -106t96.5 -40t96.5 40t36.5 106t-36.5 106t-96.5 40t-96.5 -40t-36.5 -106zM442 728zM690 756q4 -9 -3 -18.5t-20 -9.5
h-164q-5 0 -7 5q-19 38 -54 38t-54 -38q-2 -5 -7 -5h-164q-13 0 -20 10t-3 18q20 41 89.5 67.5t158.5 26.5t158.5 -26.5t89.5 -67.5z" />
    <glyph glyph-name="uni020F" unicode="&#x20f;" 
d="M12 0zM12 0zM12 350q0 161 118.5 260.5t311.5 99.5t311.5 -99.5t118.5 -260.5t-118.5 -260.5t-311.5 -99.5t-311.5 99.5t-118.5 260.5zM309 350q0 -66 36.5 -106t96.5 -40t96.5 40t36.5 106t-36.5 106t-96.5 40t-96.5 -40t-36.5 -106zM442 728zM690 756q4 -9 -3 -18.5
t-20 -9.5h-164q-5 0 -7 5q-19 38 -54 38t-54 -38q-2 -5 -7 -5h-164q-13 0 -20 10t-3 18q20 41 89.5 67.5t158.5 26.5t158.5 -26.5t89.5 -67.5z" />
    <glyph glyph-name="uni0210" unicode="&#x210;" horiz-adv-x="846" 
d="M24 0zM24 36v628q0 14 10.5 25t25.5 11q57 0 192 3t232 3q148 0 248 -68t100 -168q0 -74 -58 -133t-150 -83l185 -226q9 -10 5.5 -19t-18.5 -9h-298q-14 0 -29.5 9.5t-21.5 23.5l-94 207h-49v-204q0 -13 -11 -24.5t-25 -11.5h-208q-13 0 -24.5 11t-11.5 25zM304 429
q1 0 81.5 -2.5t119.5 -2.5q15 0 25.5 10t10.5 24t-11.5 24.5t-28.5 10.5q-38 0 -116 -2.5t-81 -2.5v-59zM334 850h183q36 0 53 -32l32 -58q6 -10 -0.5 -21t-18.5 -11h-79q-36 0 -63 24zM74 850h183q36 0 53 -32l32 -58q6 -10 -0.5 -21t-18.5 -11h-79q-36 0 -63 24z" />
    <glyph glyph-name="uni0211" unicode="&#x211;" horiz-adv-x="846" 
d="M24 0zM24 0zM24 36v628q0 14 10.5 25t25.5 11q57 0 192 3t232 3q148 0 248 -68t100 -168q0 -74 -58 -133t-150 -83l185 -226q9 -10 5.5 -19t-18.5 -9h-298q-14 0 -29.5 9.5t-21.5 23.5l-94 207h-49v-204q0 -13 -11 -24.5t-25 -11.5h-208q-13 0 -24.5 11t-11.5 25z
M304 429q1 0 81.5 -2.5t119.5 -2.5q15 0 25.5 10t10.5 24t-11.5 24.5t-28.5 10.5q-38 0 -116 -2.5t-81 -2.5v-59zM334 850h183q36 0 53 -32l32 -58q6 -10 -0.5 -21t-18.5 -11h-79q-36 0 -63 24zM74 850h183q36 0 53 -32l32 -58q6 -10 -0.5 -21t-18.5 -11h-79q-36 0 -63 24z
" />
    <glyph glyph-name="uni0212" unicode="&#x212;" horiz-adv-x="846" 
d="M24 0zM24 36v628q0 14 10.5 25t25.5 11q57 0 192 3t232 3q148 0 248 -68t100 -168q0 -74 -58 -133t-150 -83l185 -226q9 -10 5.5 -19t-18.5 -9h-298q-14 0 -29.5 9.5t-21.5 23.5l-94 207h-49v-204q0 -13 -11 -24.5t-25 -11.5h-208q-13 0 -24.5 11t-11.5 25zM304 429
q1 0 81.5 -2.5t119.5 -2.5q15 0 25.5 10t10.5 24t-11.5 24.5t-28.5 10.5q-38 0 -116 -2.5t-81 -2.5v-59zM401 728zM649 756q4 -9 -3 -18.5t-20 -9.5h-164q-5 0 -7 5q-19 38 -54 38t-54 -38q-2 -5 -7 -5h-164q-13 0 -20 10t-3 18q20 41 89.5 67.5t158.5 26.5t158.5 -26.5
t89.5 -67.5z" />
    <glyph glyph-name="uni0213" unicode="&#x213;" horiz-adv-x="846" 
d="M24 0zM24 0zM24 36v628q0 14 10.5 25t25.5 11q57 0 192 3t232 3q148 0 248 -68t100 -168q0 -74 -58 -133t-150 -83l185 -226q9 -10 5.5 -19t-18.5 -9h-298q-14 0 -29.5 9.5t-21.5 23.5l-94 207h-49v-204q0 -13 -11 -24.5t-25 -11.5h-208q-13 0 -24.5 11t-11.5 25z
M304 429q1 0 81.5 -2.5t119.5 -2.5q15 0 25.5 10t10.5 24t-11.5 24.5t-28.5 10.5q-38 0 -116 -2.5t-81 -2.5v-59zM401 728zM649 756q4 -9 -3 -18.5t-20 -9.5h-164q-5 0 -7 5q-19 38 -54 38t-54 -38q-2 -5 -7 -5h-164q-13 0 -20 10t-3 18q20 41 89.5 67.5t158.5 26.5
t158.5 -26.5t89.5 -67.5z" />
    <glyph glyph-name="uni0214" unicode="&#x214;" horiz-adv-x="780" 
d="M16 0zM16 306v358q0 14 10.5 25t25.5 11h216q13 0 24.5 -11t11.5 -25v-359q0 -45 22.5 -71t63.5 -26t63.5 26t22.5 71v359q0 14 10.5 25t25.5 11h216q13 0 24.5 -11t11.5 -25v-358q0 -141 -103 -228.5t-271 -87.5t-271 87.5t-103 228.5zM321 850h183q36 0 53 -32l32 -58
q6 -10 -0.5 -21t-18.5 -11h-79q-36 0 -63 24zM61 850h183q36 0 53 -32l32 -58q6 -10 -0.5 -21t-18.5 -11h-79q-36 0 -63 24z" />
    <glyph glyph-name="uni0215" unicode="&#x215;" horiz-adv-x="780" 
d="M16 0zM16 0zM16 306v358q0 14 10.5 25t25.5 11h216q13 0 24.5 -11t11.5 -25v-359q0 -45 22.5 -71t63.5 -26t63.5 26t22.5 71v359q0 14 10.5 25t25.5 11h216q13 0 24.5 -11t11.5 -25v-358q0 -141 -103 -228.5t-271 -87.5t-271 87.5t-103 228.5zM321 850h183q36 0 53 -32
l32 -58q6 -10 -0.5 -21t-18.5 -11h-79q-36 0 -63 24zM61 850h183q36 0 53 -32l32 -58q6 -10 -0.5 -21t-18.5 -11h-79q-36 0 -63 24z" />
    <glyph glyph-name="uni0216" unicode="&#x216;" horiz-adv-x="780" 
d="M16 0zM16 306v358q0 14 10.5 25t25.5 11h216q13 0 24.5 -11t11.5 -25v-359q0 -45 22.5 -71t63.5 -26t63.5 26t22.5 71v359q0 14 10.5 25t25.5 11h216q13 0 24.5 -11t11.5 -25v-358q0 -141 -103 -228.5t-271 -87.5t-271 87.5t-103 228.5zM388 728zM636 756q4 -9 -3 -18.5
t-20 -9.5h-164q-5 0 -7 5q-19 38 -54 38t-54 -38q-2 -5 -7 -5h-164q-13 0 -20 10t-3 18q20 41 89.5 67.5t158.5 26.5t158.5 -26.5t89.5 -67.5z" />
    <glyph glyph-name="uni0217" unicode="&#x217;" horiz-adv-x="780" 
d="M16 0zM16 0zM16 306v358q0 14 10.5 25t25.5 11h216q13 0 24.5 -11t11.5 -25v-359q0 -45 22.5 -71t63.5 -26t63.5 26t22.5 71v359q0 14 10.5 25t25.5 11h216q13 0 24.5 -11t11.5 -25v-358q0 -141 -103 -228.5t-271 -87.5t-271 87.5t-103 228.5zM388 728zM636 756
q4 -9 -3 -18.5t-20 -9.5h-164q-5 0 -7 5q-19 38 -54 38t-54 -38q-2 -5 -7 -5h-164q-13 0 -20 10t-3 18q20 41 89.5 67.5t158.5 26.5t158.5 -26.5t89.5 -67.5z" />
    <glyph glyph-name="Scommaaccent" unicode="&#x218;" horiz-adv-x="839" 
d="M14 0zM14 134v175q0 13 7 17.5t18 -5.5q71 -66 164 -96.5t188 -30.5q150 0 150 36q0 18 -14.5 23.5t-47.5 5.5q-10 0 -38.5 -0.5t-46.5 -0.5q-166 4 -267 71t-101 166q0 77 54 126.5t140 69.5t204 20q92 0 181 -16t131 -40q31 -18 31 -50v-123q0 -12 -9.5 -19.5
t-22.5 -1.5q-59 30 -144.5 48t-174.5 18q-97 0 -97 -35q0 -30 87 -30q48 0 99.5 -5.5t111.5 -21t106 -39.5t77 -65.5t31 -94.5q0 -108 -129 -177t-314 -69q-173 0 -342 93q-32 17 -32 51zM310 -68q0 10 11 23t25 13h144q13 0 24.5 -11t11.5 -25v-40l-20 -32q-20 -30 -56 -30
h-125l22 52h-37v50z" />
    <glyph glyph-name="scommaaccent" unicode="&#x219;" horiz-adv-x="839" 
d="M14 0zM14 0zM14 134v175q0 13 7 17.5t18 -5.5q71 -66 164 -96.5t188 -30.5q150 0 150 36q0 18 -14.5 23.5t-47.5 5.5q-10 0 -38.5 -0.5t-46.5 -0.5q-166 4 -267 71t-101 166q0 77 54 126.5t140 69.5t204 20q92 0 181 -16t131 -40q31 -18 31 -50v-123q0 -12 -9.5 -19.5
t-22.5 -1.5q-59 30 -144.5 48t-174.5 18q-97 0 -97 -35q0 -30 87 -30q48 0 99.5 -5.5t111.5 -21t106 -39.5t77 -65.5t31 -94.5q0 -108 -129 -177t-314 -69q-173 0 -342 93q-32 17 -32 51zM310 -68q0 10 11 23t25 13h144q13 0 24.5 -11t11.5 -25v-40l-20 -32q-20 -30 -56 -30
h-125l22 52h-37v50z" />
    <glyph glyph-name="uni021A" unicode="&#x21a;" horiz-adv-x="740" 
d="M10 0zM10 531v133q0 13 11 24.5t25 11.5h648q14 0 25 -10.5t11 -25.5v-133q0 -13 -11 -24.5t-25 -11.5h-176v-459q0 -14 -10.5 -25t-25.5 -11h-224q-13 0 -24.5 10.5t-11.5 25.5v459h-176q-13 0 -24.5 11t-11.5 25zM262 -68q0 10 11 23t25 13h144q13 0 24.5 -11t11.5 -25
v-40l-20 -32q-20 -30 -56 -30h-125l22 52h-37v50z" />
    <glyph glyph-name="uni021B" unicode="&#x21b;" horiz-adv-x="669" 
d="M16 0zM16 240v422q0 14 10.5 26t25.5 14l212 22q13 1 24.5 -8.5t11.5 -23.5v-92h315q14 0 25 -10.5t11 -25.5v-140q0 -13 -11 -24.5t-25 -11.5h-315v-104q0 -29 28 -50.5t72 -21.5q102 0 224 64q8 6 19.5 1t11.5 -19v-154q0 -34 -31 -52q-48 -27 -113 -44.5t-128 -17.5
q-149 0 -258 76.5t-109 173.5zM273 -68q0 10 11 23t25 13h144q13 0 24.5 -11t11.5 -25v-40l-20 -32q-20 -30 -56 -30h-125l22 52h-37v50z" />
    <glyph glyph-name="uni021E" unicode="&#x21e;" horiz-adv-x="838" 
d="M24 0zM24 36v628q0 14 10.5 25t25.5 11h212q13 0 24.5 -11t11.5 -25v-206h222v206q0 13 11 24.5t25 11.5h212q13 0 24.5 -11t11.5 -25v-628q0 -14 -10.5 -25t-25.5 -11h-212q-13 0 -24.5 11t-11.5 25v208h-222v-208q0 -13 -11 -24.5t-25 -11.5h-212q-13 0 -24.5 10.5
t-11.5 25.5zM176 826q-7 6 -3.5 15t12.5 9h149q34 0 53 -31l37 -59l37 59q19 31 53 31h149q9 0 12.5 -9t-3.5 -15l-80 -74q-27 -24 -61 -24h-214q-34 0 -61 24z" />
    <glyph glyph-name="uni021F" unicode="&#x21f;" horiz-adv-x="838" 
d="M24 0zM24 0zM24 36v628q0 14 10.5 25t25.5 11h212q13 0 24.5 -11t11.5 -25v-206h222v206q0 13 11 24.5t25 11.5h212q13 0 24.5 -11t11.5 -25v-628q0 -14 -10.5 -25t-25.5 -11h-212q-13 0 -24.5 11t-11.5 25v208h-222v-208q0 -13 -11 -24.5t-25 -11.5h-212
q-13 0 -24.5 10.5t-11.5 25.5zM176 826q-7 6 -3.5 15t12.5 9h149q34 0 53 -31l37 -59l37 59q19 31 53 31h149q9 0 12.5 -9t-3.5 -15l-80 -74q-27 -24 -61 -24h-214q-34 0 -61 24z" />
    <glyph glyph-name="uni0226" unicode="&#x226;" horiz-adv-x="888" 
d="M13 0zM16 34l262 633q5 12 20 23q15 10 30 10h240q13 0 28 -10q16 -10 21 -23l256 -634q2 -5 2 -11q0 -10 -7 -16t-18 -6h-207q-13 0 -28 10t-20 24l-31 90h-245l-32 -90q-4 -11 -19 -22.5t-29 -11.5h-201q-12 0 -18 6q-7 8 -7 16q0 5 3 12zM378 290h130l-64 186z
M330 764v50q0 10 11 23t25 13h156q13 0 24.5 -11t11.5 -25v-50q0 -10 -11 -23t-25 -13h-156q-13 0 -24.5 11t-11.5 25z" />
    <glyph glyph-name="uni0227" unicode="&#x227;" horiz-adv-x="760" 
d="M8 0zM270 764v50q0 10 11 23t25 13h156q13 0 24.5 -11t11.5 -25v-50q0 -10 -11 -23t-25 -13h-156q-13 0 -24.5 11t-11.5 25zM8 213q0 90 85.5 158t196.5 68q57 0 97 -9t83 -38v40q0 34 -41 56t-106 22q-113 0 -214 -53q-8 -5 -19 0t-11 19v124q0 37 31 52q125 58 257 58
q152 0 264.5 -76.5t112.5 -173.5v-424q0 -14 -10.5 -25t-25.5 -11h-194q-14 0 -25 9.5t-13 24.5v9q-100 -49 -202 -49q-113 0 -189.5 55.5t-76.5 163.5zM291 213q0 -28 26 -43t66 -15q46 0 87 16v81q-43 21 -87 21q-39 0 -65.5 -16t-26.5 -44z" />
    <glyph glyph-name="uni0228" unicode="&#x228;" horiz-adv-x="729" 
d="M24 36v628q0 14 10.5 25t25.5 11h618q14 0 25 -10.5t11 -25.5v-137q0 -13 -11 -24.5t-25 -11.5h-370v-58h310q14 0 25 -10.5t11 -25.5v-94q0 -12 -11 -24t-25 -12h-310v-58h370q14 0 25 -10.5t11 -25.5v-137q0 -13 -11 -24.5t-25 -11.5h-322l-5 -25h13q46 0 78 -21.5
t32 -51.5q0 -33 -35.5 -52.5t-84.5 -19.5q-53 0 -93 22l13 62q23 -9 41 -9q31 0 31 16q0 7 -9.5 14t-27.5 7h-29l12 58h-232q-14 0 -25 10.5t-11 25.5z" />
    <glyph glyph-name="uni0229" unicode="&#x229;" horiz-adv-x="854" 
d="M306 422h266v17q0 25 -36.5 45t-91.5 20q-109 0 -138 -82zM12 350q0 162 119 261t313 99t296 -88.5t102 -257.5v-42q0 -13 -11.5 -24.5t-24.5 -11.5h-496q40 -80 198 -80q51 0 108.5 7.5t88 14.5t51.5 14q12 4 23 -4.5t11 -21.5v-145q0 -16 -9.5 -28.5t-24.5 -17.5
q-12 -4 -50 -11.5t-111.5 -15.5t-144.5 -8l-4 -19h13q46 0 78 -21.5t32 -51.5q0 -33 -35.5 -52.5t-84.5 -19.5q-53 0 -93 22l13 62q23 -9 41 -9q31 0 31 16q0 7 -9.5 14t-27.5 7h-29l12 54q-177 15 -276 111.5t-99 246.5z" />
    <glyph glyph-name="uni022E" unicode="&#x22e;" 
d="M12 0zM12 350q0 161 118.5 260.5t311.5 99.5t311.5 -99.5t118.5 -260.5t-118.5 -260.5t-311.5 -99.5t-311.5 99.5t-118.5 260.5zM309 350q0 -66 36.5 -106t96.5 -40t96.5 40t36.5 106t-36.5 106t-96.5 40t-96.5 -40t-36.5 -106zM328 764v50q0 10 11 23t25 13h156
q13 0 24.5 -11t11.5 -25v-50q0 -10 -11 -23t-25 -13h-156q-13 0 -24.5 11t-11.5 25z" />
    <glyph glyph-name="uni022F" unicode="&#x22f;" 
d="M12 0zM12 0zM12 350q0 161 118.5 260.5t311.5 99.5t311.5 -99.5t118.5 -260.5t-118.5 -260.5t-311.5 -99.5t-311.5 99.5t-118.5 260.5zM309 350q0 -66 36.5 -106t96.5 -40t96.5 40t36.5 106t-36.5 106t-96.5 40t-96.5 -40t-36.5 -106zM328 764v50q0 10 11 23t25 13h156
q13 0 24.5 -11t11.5 -25v-50q0 -10 -11 -23t-25 -13h-156q-13 0 -24.5 11t-11.5 25z" />
    <glyph glyph-name="uni0232" unicode="&#x232;" horiz-adv-x="864" 
d="M18 0zM23 671q-5 7 -5 14q0 15 20 15h267q37 0 50 -33l89 -220l93 220q14 33 50 33h239q20 0 20 -17q0 -5 -5 -12l-267 -380v-255q0 -14 -10.5 -25t-25.5 -11h-212q-13 0 -24.5 11t-11.5 25v261zM285 764v50q0 15 10.5 25.5t25.5 10.5h256q15 0 25.5 -10.5t10.5 -25.5
v-50q0 -15 -10.5 -25.5t-25.5 -10.5h-256q-15 0 -25.5 10.5t-10.5 25.5z" />
    <glyph glyph-name="uni0233" unicode="&#x233;" horiz-adv-x="746" 
d="M13 0zM224 764v50q0 15 10.5 25.5t25.5 10.5h256q15 0 25.5 -10.5t10.5 -25.5v-50q0 -15 -10.5 -25.5t-25.5 -10.5h-256q-15 0 -25.5 10.5t-10.5 25.5zM31 106v134q0 13 9.5 19.5t21.5 -0.5q125 -67 244 -67q58 0 99 21t41 51v6q-55 -18 -122 -18q-146 0 -228.5 67
t-82.5 166v179q0 13 11 24.5t25 11.5h211q13 0 24.5 -10.5t11.5 -25.5v-155q0 -32 22 -51.5t58 -19.5q37 0 70 8v218q0 14 10.5 25t25.5 11h212q13 0 24.5 -11t11.5 -25v-424q0 -104 -119.5 -177t-287.5 -73q-63 0 -138.5 19t-123.5 45q-30 17 -30 52z" />
    <glyph glyph-name="gravecomb" unicode="&#x300;" horiz-adv-x="0" 
d="M-215 850h213q36 0 53 -32l32 -58q6 -10 -0.5 -21t-18.5 -11h-109q-36 0 -63 24z" />
    <glyph glyph-name="acutecomb" unicode="&#x301;" horiz-adv-x="0" 
d="M-83 760l32 58q17 32 53 32h213l-107 -98q-27 -24 -63 -24h-109q-12 0 -18.5 11t-0.5 21z" />
    <glyph glyph-name="uni0302" unicode="&#x302;" horiz-adv-x="0" 
d="M-248 752l80 74q27 24 60 24h216q33 0 60 -24l80 -74q9 -8 7 -16t-16 -8h-150q-33 0 -52 31l-37 59l-37 -59q-19 -31 -52 -31h-150q-13 0 -16 7t7 17z" />
    <glyph glyph-name="tildecomb" unicode="&#x303;" horiz-adv-x="0" 
d="M-155 741v69q-1 13 11 21q26 19 63 19q35 0 81 -18q33 -12 67 -12q40 0 71 17q17 9 17 -7v-63q0 -18 -13 -27q-29 -20 -70 -20q-36 0 -72 14q-40 16 -75 16t-63 -16q-17 -9 -17 7z" />
    <glyph glyph-name="uni0304" unicode="&#x304;" horiz-adv-x="0" 
d="M-164 764v50q0 15 10.5 25.5t25.5 10.5h256q15 0 25.5 -10.5t10.5 -25.5v-50q0 -15 -10.5 -25.5t-25.5 -10.5h-256q-15 0 -25.5 10.5t-10.5 25.5z" />
    <glyph glyph-name="uni0306" unicode="&#x306;" horiz-adv-x="0" 
d="M-248 822q-4 9 3 18.5t20 9.5h164q5 0 7 -5q19 -38 54 -38t54 38q2 5 7 5h164q13 0 20 -10t3 -18q-20 -41 -89.5 -67.5t-158.5 -26.5t-158.5 26.5t-89.5 67.5z" />
    <glyph glyph-name="uni0307" unicode="&#x307;" horiz-adv-x="0" 
d="M-114 764v50q0 10 11 23t25 13h156q13 0 24.5 -11t11.5 -25v-50q0 -10 -11 -23t-25 -13h-156q-13 0 -24.5 11t-11.5 25z" />
    <glyph glyph-name="uni0308" unicode="&#x308;" horiz-adv-x="0" 
d="M36 764v50q0 15 10.5 25.5t25.5 10.5h96q15 0 25.5 -10.5t10.5 -25.5v-50q0 -15 -10.5 -25.5t-25.5 -10.5h-96q-15 0 -25.5 10.5t-10.5 25.5zM-204 764v50q0 15 10.5 25.5t25.5 10.5h96q15 0 25.5 -10.5t10.5 -25.5v-50q0 -15 -10.5 -25.5t-25.5 -10.5h-96
q-15 0 -25.5 10.5t-10.5 25.5z" />
    <glyph glyph-name="uni030A" unicode="&#x30a;" horiz-adv-x="0" 
d="M-155 695q0 64 45.5 109.5t109.5 45.5t109.5 -45.5t45.5 -109.5t-45.5 -109.5t-109.5 -45.5t-109.5 45.5t-45.5 109.5zM-105 695q0 -44 30.5 -74.5t74.5 -30.5t74.5 30.5t30.5 74.5t-30.5 74.5t-74.5 30.5t-74.5 -30.5t-30.5 -74.5z" />
    <glyph glyph-name="uni030B" unicode="&#x30b;" horiz-adv-x="0" 
d="M-201 760l32 58q17 32 53 32h183l-107 -98q-27 -24 -63 -24h-79q-12 0 -18.5 11t-0.5 21zM59 760l32 58q17 32 53 32h183l-107 -98q-27 -24 -63 -24h-79q-12 0 -18.5 11t-0.5 21z" />
    <glyph glyph-name="uni030C" unicode="&#x30c;" horiz-adv-x="0" 
d="M-248 826q-7 6 -3.5 15t12.5 9h149q34 0 53 -31l37 -59l37 59q19 31 53 31h149q9 0 12.5 -9t-3.5 -15l-80 -74q-27 -24 -61 -24h-214q-34 0 -61 24z" />
    <glyph glyph-name="uni030F" unicode="&#x30f;" horiz-adv-x="0" 
d="M-67 850h183q36 0 53 -32l32 -58q6 -10 -0.5 -21t-18.5 -11h-79q-36 0 -63 24zM-327 850h183q36 0 53 -32l32 -58q6 -10 -0.5 -21t-18.5 -11h-79q-36 0 -63 24z" />
    <glyph glyph-name="uni0311" unicode="&#x311;" horiz-adv-x="0" 
d="M0 728zM248 756q4 -9 -3 -18.5t-20 -9.5h-164q-5 0 -7 5q-19 38 -54 38t-54 -38q-2 -5 -7 -5h-164q-13 0 -20 10t-3 18q20 41 89.5 67.5t158.5 26.5t158.5 -26.5t89.5 -67.5z" />
    <glyph glyph-name="uni0326" unicode="&#x326;" horiz-adv-x="0" 
d="M-108 -68q0 10 11 23t25 13h144q13 0 24.5 -11t11.5 -25v-40l-20 -32q-20 -30 -56 -30h-125l22 52h-37v50z" />
    <glyph glyph-name="Wgrave" unicode="&#x1e80;" horiz-adv-x="1152" 
d="M12 0zM14 666q-2 5 -2 10q0 10 7 17t19 7h225q13 0 27 -10.5t18 -24.5l76 -310l64 310q3 13 15.5 24t27.5 11h170q13 0 26.5 -10.5t16.5 -24.5l64 -310l76 310q3 13 16.5 24t28.5 11h225q11 0 18.5 -7t7.5 -17q0 -5 -2 -10l-223 -632q-5 -14 -19 -24t-29 -10h-174
q-13 0 -27 10.5t-17 24.5l-73 302l-73 -302q-3 -13 -16 -24t-28 -11h-174q-13 0 -28 10t-20 24zM357 850h213q36 0 53 -32l32 -58q6 -10 -0.5 -21t-18.5 -11h-109q-36 0 -63 24z" />
    <glyph glyph-name="wgrave" unicode="&#x1e81;" horiz-adv-x="1152" 
d="M12 0zM12 0zM14 666q-2 5 -2 10q0 10 7 17t19 7h225q13 0 27 -10.5t18 -24.5l76 -310l64 310q3 13 15.5 24t27.5 11h170q13 0 26.5 -10.5t16.5 -24.5l64 -310l76 310q3 13 16.5 24t28.5 11h225q11 0 18.5 -7t7.5 -17q0 -5 -2 -10l-223 -632q-5 -14 -19 -24t-29 -10h-174
q-13 0 -27 10.5t-17 24.5l-73 302l-73 -302q-3 -13 -16 -24t-28 -11h-174q-13 0 -28 10t-20 24zM357 850h213q36 0 53 -32l32 -58q6 -10 -0.5 -21t-18.5 -11h-109q-36 0 -63 24z" />
    <glyph glyph-name="Wacute" unicode="&#x1e82;" horiz-adv-x="1152" 
d="M12 0zM14 666q-2 5 -2 10q0 10 7 17t19 7h225q13 0 27 -10.5t18 -24.5l76 -310l64 310q3 13 15.5 24t27.5 11h170q13 0 26.5 -10.5t16.5 -24.5l64 -310l76 310q3 13 16.5 24t28.5 11h225q11 0 18.5 -7t7.5 -17q0 -5 -2 -10l-223 -632q-5 -14 -19 -24t-29 -10h-174
q-13 0 -27 10.5t-17 24.5l-73 302l-73 -302q-3 -13 -16 -24t-28 -11h-174q-13 0 -28 10t-20 24zM489 760l32 58q17 32 53 32h213l-107 -98q-27 -24 -63 -24h-109q-12 0 -18.5 11t-0.5 21z" />
    <glyph glyph-name="wacute" unicode="&#x1e83;" horiz-adv-x="1152" 
d="M12 0zM12 0zM14 666q-2 5 -2 10q0 10 7 17t19 7h225q13 0 27 -10.5t18 -24.5l76 -310l64 310q3 13 15.5 24t27.5 11h170q13 0 26.5 -10.5t16.5 -24.5l64 -310l76 310q3 13 16.5 24t28.5 11h225q11 0 18.5 -7t7.5 -17q0 -5 -2 -10l-223 -632q-5 -14 -19 -24t-29 -10h-174
q-13 0 -27 10.5t-17 24.5l-73 302l-73 -302q-3 -13 -16 -24t-28 -11h-174q-13 0 -28 10t-20 24zM489 760l32 58q17 32 53 32h213l-107 -98q-27 -24 -63 -24h-109q-12 0 -18.5 11t-0.5 21z" />
    <glyph glyph-name="Wdieresis" unicode="&#x1e84;" horiz-adv-x="1152" 
d="M12 0zM14 666q-2 5 -2 10q0 10 7 17t19 7h225q13 0 27 -10.5t18 -24.5l76 -310l64 310q3 13 15.5 24t27.5 11h170q13 0 26.5 -10.5t16.5 -24.5l64 -310l76 310q3 13 16.5 24t28.5 11h225q11 0 18.5 -7t7.5 -17q0 -5 -2 -10l-223 -632q-5 -14 -19 -24t-29 -10h-174
q-13 0 -27 10.5t-17 24.5l-73 302l-73 -302q-3 -13 -16 -24t-28 -11h-174q-13 0 -28 10t-20 24zM608 764v50q0 15 10.5 25.5t25.5 10.5h96q15 0 25.5 -10.5t10.5 -25.5v-50q0 -15 -10.5 -25.5t-25.5 -10.5h-96q-15 0 -25.5 10.5t-10.5 25.5zM368 764v50q0 15 10.5 25.5
t25.5 10.5h96q15 0 25.5 -10.5t10.5 -25.5v-50q0 -15 -10.5 -25.5t-25.5 -10.5h-96q-15 0 -25.5 10.5t-10.5 25.5z" />
    <glyph glyph-name="wdieresis" unicode="&#x1e85;" horiz-adv-x="1152" 
d="M12 0zM12 0zM14 666q-2 5 -2 10q0 10 7 17t19 7h225q13 0 27 -10.5t18 -24.5l76 -310l64 310q3 13 15.5 24t27.5 11h170q13 0 26.5 -10.5t16.5 -24.5l64 -310l76 310q3 13 16.5 24t28.5 11h225q11 0 18.5 -7t7.5 -17q0 -5 -2 -10l-223 -632q-5 -14 -19 -24t-29 -10h-174
q-13 0 -27 10.5t-17 24.5l-73 302l-73 -302q-3 -13 -16 -24t-28 -11h-174q-13 0 -28 10t-20 24zM608 764v50q0 15 10.5 25.5t25.5 10.5h96q15 0 25.5 -10.5t10.5 -25.5v-50q0 -15 -10.5 -25.5t-25.5 -10.5h-96q-15 0 -25.5 10.5t-10.5 25.5zM368 764v50q0 15 10.5 25.5
t25.5 10.5h96q15 0 25.5 -10.5t10.5 -25.5v-50q0 -15 -10.5 -25.5t-25.5 -10.5h-96q-15 0 -25.5 10.5t-10.5 25.5z" />
    <glyph glyph-name="uni1E86" unicode="&#x1e86;" horiz-adv-x="1152" 
d="M12 0zM14 666q-2 5 -2 10q0 10 7 17t19 7h225q13 0 27 -10.5t18 -24.5l76 -310l64 310q3 13 15.5 24t27.5 11h170q13 0 26.5 -10.5t16.5 -24.5l64 -310l76 310q3 13 16.5 24t28.5 11h225q11 0 18.5 -7t7.5 -17q0 -5 -2 -10l-223 -632q-5 -14 -19 -24t-29 -10h-174
q-13 0 -27 10.5t-17 24.5l-73 302l-73 -302q-3 -13 -16 -24t-28 -11h-174q-13 0 -28 10t-20 24zM458 764v50q0 10 11 23t25 13h156q13 0 24.5 -11t11.5 -25v-50q0 -10 -11 -23t-25 -13h-156q-13 0 -24.5 11t-11.5 25z" />
    <glyph glyph-name="uni1E87" unicode="&#x1e87;" horiz-adv-x="1152" 
d="M12 0zM12 0zM14 666q-2 5 -2 10q0 10 7 17t19 7h225q13 0 27 -10.5t18 -24.5l76 -310l64 310q3 13 15.5 24t27.5 11h170q13 0 26.5 -10.5t16.5 -24.5l64 -310l76 310q3 13 16.5 24t28.5 11h225q11 0 18.5 -7t7.5 -17q0 -5 -2 -10l-223 -632q-5 -14 -19 -24t-29 -10h-174
q-13 0 -27 10.5t-17 24.5l-73 302l-73 -302q-3 -13 -16 -24t-28 -11h-174q-13 0 -28 10t-20 24zM458 764v50q0 10 11 23t25 13h156q13 0 24.5 -11t11.5 -25v-50q0 -10 -11 -23t-25 -13h-156q-13 0 -24.5 11t-11.5 25z" />
    <glyph glyph-name="uni1E88" unicode="&#x1e88;" horiz-adv-x="1152" 
d="M14 666q-5 14 2 24t22 10h225q13 0 27 -10.5t18 -24.5l76 -310l64 310q3 13 15.5 24t27.5 11h170q13 0 26.5 -10.5t16.5 -24.5l64 -310l76 310q3 13 16.5 24t28.5 11h225q13 0 21 -10t3 -24l-223 -632q-5 -14 -19 -24t-29 -10h-174q-13 0 -27 10.5t-17 24.5l-73 302
l-73 -302q-3 -13 -16 -24t-28 -11h-174q-13 0 -28 10t-20 24zM486 -66q0 13 11 24.5t25 11.5h108q13 0 24.5 -11t11.5 -25v-68q0 -13 -11 -24.5t-25 -11.5h-108q-13 0 -24.5 11t-11.5 25v68z" />
    <glyph glyph-name="uni1E8E" unicode="&#x1e8e;" horiz-adv-x="864" 
d="M18 0zM23 671q-5 7 -5 14q0 15 20 15h267q37 0 50 -33l89 -220l93 220q14 33 50 33h239q20 0 20 -17q0 -5 -5 -12l-267 -380v-255q0 -14 -10.5 -25t-25.5 -11h-212q-13 0 -24.5 11t-11.5 25v261zM335 764v50q0 10 11 23t25 13h156q13 0 24.5 -11t11.5 -25v-50
q0 -10 -11 -23t-25 -13h-156q-13 0 -24.5 11t-11.5 25z" />
    <glyph glyph-name="uni1E8F" unicode="&#x1e8f;" horiz-adv-x="746" 
d="M13 0zM274 764v50q0 10 11 23t25 13h156q13 0 24.5 -11t11.5 -25v-50q0 -10 -11 -23t-25 -13h-156q-13 0 -24.5 11t-11.5 25zM31 106v134q0 13 9.5 19.5t21.5 -0.5q125 -67 244 -67q58 0 99 21t41 51v6q-55 -18 -122 -18q-146 0 -228.5 67t-82.5 166v179q0 13 11 24.5
t25 11.5h211q13 0 24.5 -10.5t11.5 -25.5v-155q0 -32 22 -51.5t58 -19.5q37 0 70 8v218q0 14 10.5 25t25.5 11h212q13 0 24.5 -11t11.5 -25v-424q0 -104 -119.5 -177t-287.5 -73q-63 0 -138.5 19t-123.5 45q-30 17 -30 52z" />
    <glyph glyph-name="uni1E9E" unicode="&#x1e9e;" horiz-adv-x="804" 
d="M16 0zM16 36v424q0 78 60.5 136.5t149 86t187.5 27.5q130 0 220 -49.5t90 -139.5q0 -44 -20 -82t-55 -63q64 -19 106 -62.5t42 -98.5q0 -101 -90.5 -161t-254.5 -60q-30 0 -55 4q-16 2 -26 13t-10 26v141q0 14 12.5 22.5t23.5 6.5q29 -5 57 -5q35 0 55 13.5t20 29.5
q0 13 -12.5 22t-36.5 9h-83q-14 0 -25 12t-11 24v114q0 11 8 19t20 8h61q14 0 22 6.5t8 14.5q0 15 -22.5 24.5t-59.5 9.5q-43 0 -70 -21.5t-27 -50.5v-400q0 -15 -10.5 -25.5t-25.5 -10.5h-212q-15 0 -25.5 11t-10.5 25z" />
    <glyph glyph-name="uni2002" unicode="&#x2002;" horiz-adv-x="500" 
 />
    <glyph glyph-name="uni2003" unicode="&#x2003;" horiz-adv-x="1000" 
 />
    <glyph glyph-name="uni2004" unicode="&#x2004;" horiz-adv-x="333" 
 />
    <glyph glyph-name="uni2005" unicode="&#x2005;" horiz-adv-x="250" 
 />
    <glyph glyph-name="uni2006" unicode="&#x2006;" horiz-adv-x="167" 
 />
    <glyph glyph-name="uni2007" unicode="&#x2007;" horiz-adv-x="824" 
 />
    <glyph glyph-name="uni2008" unicode="&#x2008;" horiz-adv-x="244" 
 />
    <glyph glyph-name="uni2009" unicode="&#x2009;" horiz-adv-x="200" 
 />
    <glyph glyph-name="uni200A" unicode="&#x200a;" horiz-adv-x="100" 
 />
    <glyph glyph-name="figuredash" unicode="&#x2012;" horiz-adv-x="824" 
d="M10 279v142q0 13 11 24.5t25 11.5h732q14 0 25 -10.5t11 -25.5v-142q0 -13 -11 -24.5t-25 -11.5h-732q-14 0 -25 10.5t-11 25.5z" />
    <glyph glyph-name="endash" unicode="&#x2013;" horiz-adv-x="500" 
d="M10 279v142q0 13 11 24.5t25 11.5h408q14 0 25 -10.5t11 -25.5v-142q0 -13 -11 -24.5t-25 -11.5h-408q-14 0 -25 10.5t-11 25.5z" />
    <glyph glyph-name="emdash" unicode="&#x2014;" horiz-adv-x="1000" 
d="M10 279v142q0 13 11 24.5t25 11.5h908q14 0 25 -10.5t11 -25.5v-142q0 -13 -11 -24.5t-25 -11.5h-908q-14 0 -25 10.5t-11 25.5z" />
    <glyph glyph-name="quoteleft" unicode="&#x2018;" horiz-adv-x="240" 
d="M12 345zM228 506v-125q0 -15 -10.5 -25.5t-25.5 -10.5h-144q-13 0 -24.5 11t-11.5 25v128q0 36 15 69l39 89q15 33 51 33h55q13 0 18.5 -10.5t1.5 -24.5l-30 -123h30q15 0 25.5 -10.5t10.5 -25.5z" />
    <glyph glyph-name="quoteright" unicode="&#x2019;" horiz-adv-x="240" 
d="M12 345zM12 539v125q0 15 10.5 25.5t25.5 10.5h144q13 0 24.5 -11t11.5 -25v-128q0 -36 -15 -69l-39 -89q-15 -33 -51 -33h-55q-13 0 -18.5 10.5t-1.5 24.5l30 123h-30q-15 0 -25.5 10.5t-10.5 25.5z" />
    <glyph glyph-name="quotesinglbase" unicode="&#x201a;" horiz-adv-x="240" 
d="M12 59v125q0 15 10.5 25.5t25.5 10.5h144q13 0 24.5 -11t11.5 -25v-128q0 -36 -15 -69l-39 -89q-15 -33 -51 -33h-55q-13 0 -18.5 10.5t-1.5 24.5l30 123h-30q-15 0 -25.5 10.5t-10.5 25.5z" />
    <glyph glyph-name="quotereversed" unicode="&#x201b;" horiz-adv-x="240" 
d="M12 536v128q0 14 11.5 25t24.5 11h144q15 0 25.5 -10.5t10.5 -25.5v-125q0 -15 -10.5 -25.5t-25.5 -10.5h-30l30 -123q3 -14 -2 -24.5t-18 -10.5h-55q-36 0 -51 33l-39 89q-15 33 -15 69z" />
    <glyph glyph-name="quotedblleft" unicode="&#x201c;" horiz-adv-x="472" 
d="M12 345zM460 506v-125q0 -15 -10.5 -25.5t-25.5 -10.5h-144q-13 0 -24.5 11t-11.5 25v128q0 36 15 69l39 89q15 33 51 33h55q13 0 18.5 -10.5t1.5 -24.5l-30 -123h30q15 0 25.5 -10.5t10.5 -25.5zM228 506v-125q0 -15 -10.5 -25.5t-25.5 -10.5h-144q-13 0 -24.5 11
t-11.5 25v128q0 36 15 69l39 89q15 33 51 33h55q13 0 18.5 -10.5t1.5 -24.5l-30 -123h30q15 0 25.5 -10.5t10.5 -25.5z" />
    <glyph glyph-name="quotedblright" unicode="&#x201d;" horiz-adv-x="472" 
d="M12 345zM244 539v125q0 15 10.5 25.5t25.5 10.5h144q13 0 24.5 -11t11.5 -25v-128q0 -36 -15 -69l-39 -89q-15 -33 -51 -33h-55q-13 0 -18.5 10.5t-1.5 24.5l30 123h-30q-15 0 -25.5 10.5t-10.5 25.5zM12 539v125q0 15 10.5 25.5t25.5 10.5h144q13 0 24.5 -11t11.5 -25
v-128q0 -36 -15 -69l-39 -89q-15 -33 -51 -33h-55q-13 0 -18.5 10.5t-1.5 24.5l30 123h-30q-15 0 -25.5 10.5t-10.5 25.5z" />
    <glyph glyph-name="quotedblbase" unicode="&#x201e;" horiz-adv-x="472" 
d="M12 0zM244 59v125q0 15 10.5 25.5t25.5 10.5h144q13 0 24.5 -11t11.5 -25v-128q0 -36 -15 -69l-39 -89q-15 -33 -51 -33h-55q-13 0 -18.5 10.5t-1.5 24.5l30 123h-30q-15 0 -25.5 10.5t-10.5 25.5zM12 59v125q0 15 10.5 25.5t25.5 10.5h144q13 0 24.5 -11t11.5 -25v-128
q0 -36 -15 -69l-39 -89q-15 -33 -51 -33h-55q-13 0 -18.5 10.5t-1.5 24.5l30 123h-30q-15 0 -25.5 10.5t-10.5 25.5z" />
    <glyph glyph-name="uni201F" unicode="&#x201f;" horiz-adv-x="472" 
d="M12 536v128q0 14 11.5 25t24.5 11h144q15 0 25.5 -10.5t10.5 -25.5v-125q0 -15 -10.5 -25.5t-25.5 -10.5h-30l30 -123q3 -14 -2 -24.5t-18 -10.5h-55q-36 0 -51 33l-39 89q-15 33 -15 69zM244 536v128q0 14 11.5 25t24.5 11h144q15 0 25.5 -10.5t10.5 -25.5v-125
q0 -15 -10.5 -25.5t-25.5 -10.5h-30l30 -123q3 -14 -2 -24.5t-18 -10.5h-55q-36 0 -51 33l-39 89q-15 33 -15 69z" />
    <glyph glyph-name="bullet" unicode="&#x2022;" horiz-adv-x="286" 
d="M18 350q0 52 36.5 88.5t88.5 36.5t88.5 -36.5t36.5 -88.5t-36.5 -88.5t-88.5 -36.5t-88.5 36.5t-36.5 88.5z" />
    <glyph glyph-name="guilsinglleft" unicode="&#x2039;" horiz-adv-x="404" 
d="M26 323q-10 12 -9.5 28t9.5 26l193 220q9 11 25.5 11.5t25.5 -8.5l124 -108l-125 -142l125 -142l-124 -108q-11 -10 -26.5 -8.5t-24.5 11.5z" />
    <glyph glyph-name="guilsinglright" unicode="&#x203a;" horiz-adv-x="404" 
d="M10 91zM378 377q10 -12 9.5 -28t-9.5 -26l-193 -220q-9 -11 -25.5 -11.5t-25.5 8.5l-124 108l125 142l-125 142l124 108q11 10 26.5 8.5t24.5 -11.5z" />
    <glyph glyph-name="Euro" unicode="&#x20ac;" horiz-adv-x="816" 
d="M517 419q-1 -15 -12.5 -25.5t-26.5 -10.5h-129q-3 -16 -3 -33t3 -33h159l-1 -18q-1 -15 -12.5 -25.5t-26.5 -10.5h-93q49 -60 159 -60q72 0 136 18t101 47q7 7 17 2.5t10 -18.5v-156q0 -36 -30 -54q-35 -21 -104 -36.5t-142 -15.5q-179 0 -298.5 73.5t-150.5 199.5h-71
l1 18q1 15 12.5 25.5t26.5 10.5h21q-1 16 -1 33t1 33h-51l1 18q1 15 12.5 25.5t26.5 10.5h20q32 126 150 199.5t295 73.5q73 0 145.5 -15.5t105.5 -37.5q30 -20 30 -53v-156q0 -13 -7.5 -18t-19.5 3q-39 28 -102 46t-135 18q-110 0 -159 -60h143z" />
    <glyph glyph-name="minus" unicode="&#x2212;" horiz-adv-x="500" 
d="M10 279v142q0 13 11 24.5t25 11.5h408q14 0 25 -10.5t11 -25.5v-142q0 -13 -11 -24.5t-25 -11.5h-408q-14 0 -25 10.5t-11 25.5z" />
    </font>
</defs>
</svg>
